#TITLE:カジノファイヤーことみちゃん;
#SUBTITLE:;
#ARTIST:ARM feat. 山本椛+Brasscapsule;
#TITLETRANSLIT:CASINO FIRE KOTOMI-CHAN;
#SUBTITLETRANSLIT:;
#ARTISTTRANSLIT:ARM feat. MOMIJI YAMAMOTO+Brasscapsule;
#GENRE:;
#CREDIT:DigiMindAxel;
#BANNER:CASINO FIRE KOTOMI-CHAN.png;
#BACKGROUND:CASINO FIRE KOTOMI-CHAN-bg.png;
#LYRICSPATH:;
#CDTITLE:beatmania IIDX.png;
#MUSIC:CASINO FIRE KOTOMI-CHAN.mp3;
#METERTYPE:DDR X;
#OFFSET:-8.954;
#SAMPLESTART:17.294;
#SAMPLELENGTH:12.000;
#SELECTABLE:YES;
#BPMS:0.000=115.000
,16.000=230.000
,144.000=115.000
,184.000=230.000
,296.000=115.000
;
#STOPS:
;
#BGCHANGES:;
#KEYSOUNDS:;
#ATTACKS:;

//---------------dance-single - ----------------
#NOTES:
     dance-single:
     :
     Easy:
     6:
     0.290,0.380,0.193,0.210,0.031,186.000,22.000,24.000,0.000,0.000,0.000,0.290,0.380,0.193,0.210,0.031,186.000,22.000,24.000,0.000,0.000,0.000: // measure 0
1000
0001
1000
1000
,  // measure 1
0001
0001
0200
0000
,  // measure 2
0310
0100
0010
0100
,  // measure 3
0002
0000
0000
0000
,  // measure 4
1003
0001
1000
0000
,  // measure 5
0100
1000
0100
0000
,  // measure 6
1000
0001
1000
0000
,  // measure 7
0100
0000
0010
0000
,  // measure 8
0001
1000
0001
0000
,  // measure 9
0100
0010
0100
0000
,  // measure 10
0001
1000
0001
0000
,  // measure 11
0010
0000
0100
0000
,  // measure 12
1001
0000
0000
0000
0000
0000
0000
0000
0000
0000
0110
0000
,  // measure 13
0000
0000
0000
0000
0000
0000
0000
0000
0000
0000
1001
0000
,  // measure 14
0000
0000
0000
0000
1001
0000
0000
0000
0000
0000
1001
0000
,  // measure 15
0000
0000
0000
0000
1001
0000
0000
0000
0000
0000
0000
0000
,  // measure 16
2000
0000
0000
0000
,  // measure 17
0000
0000
0000
3000
,  // measure 18
0000
0000
2002
0000
,  // measure 19
0000
0000
3003
0000
,  // measure 20
0001
0000
1000
0000
,  // measure 21
0001
1000
0001
0000
,  // measure 22
0010
0000
0001
0000
,  // measure 23
0100
0010
0100
0000
,  // measure 24
0001
1000
0001
0000
,  // measure 25
1000
0001
1000
0000
,  // measure 26
0200
0000
0000
0000
,  // measure 27
0000
0000
0300
0000
,  // measure 28
1001
0000
0100
0000
,  // measure 29
1000
0010
0100
0000
,  // measure 30
0010
0000
0100
0000
,  // measure 31
0010
0100
0001
0000
,  // measure 32
1001
0000
1000
0100
,  // measure 33
1000
0000
0000
0000
,  // measure 34
1001
0000
0000
0000
,  // measure 35
0000
0000
0110
0000
,  // measure 36
0020
0000
0000
0000
,  // measure 37
0230
0000
0000
0310
,  // measure 38
1000
0000
0100
0000
0010
0001
0010
0000
,  // measure 39
0001
0000
1000
0000
0100
1000
0100
0000
,  // measure 40
1000
0001
1000
0010
,  // measure 41
0200
0000
0301
0001
,  // measure 42
1001
0000
0100
0000
1000
0000
0001
1000
,  // measure 43
0001
0000
1000
0000
0100
0000
1000
0001
,  // measure 44
2000
0000
3002
0000
,  // measure 45
0103
0010
0100
0000
0010
0100
0010
0000
,  // measure 46
0220
0000
0000
0000
,  // measure 47
0000
0330
0000
0000
,  // measure 48
0010
0100
0010
0000
,  // measure 49
1000
0100
1000
0000
,  // measure 50
0001
1000
0001
0000
,  // measure 51
0010
0001
0010
0000
,  // measure 52
0100
1000
0100
0000
,  // measure 53
0010
0001
0010
0000
,  // measure 54
0100
0010
0100
0000
,  // measure 55
1000
0100
1000
0001
,  // measure 56
1001
0000
0000
0000
0000
0000
0000
0000
0000
0000
1001
0000
,  // measure 57
0000
0000
0000
0000
,  // measure 58
0110
0000
0000
0000
0000
0000
0000
0000
0000
0000
0110
0000
,  // measure 59
0000
0000
0000
0000
,  // measure 60
0100
0010
0100
0000
,  // measure 61
0001
1000
0001
0000
,  // measure 62
2002
0000
3003
0000
,  // measure 63
0220
0000
0330
0000
,  // measure 64
2002
0000
3003
0000
,  // measure 65
0010
0100
0010
0100
,  // measure 66
0001
0010
0100
0000
,  // measure 67
0010
0001
0010
0000
,  // measure 68
0100
1000
0100
0000
,  // measure 69
0010
0100
0010
0100
,  // measure 70
0010
0001
0010
0000
,  // measure 71
0100
1000
0100
0000
,  // measure 72
0010
0100
0010
0001
,  // measure 73
0100
0001
0100
0001
,  // measure 74
2000
0000
0000
0000
,  // measure 75
0000
0000
3000
0000
,  // measure 76
2002
0000
0000
0000
,  // measure 77
0000
0000
0000
0000
,  // measure 78
3003
2002
0000
3003
;

//---------------dance-single - ----------------
#NOTES:
     dance-single:
     :
     Medium:
     8:
     0.406,0.552,0.219,0.202,0.000,276.000,25.000,23.000,0.000,0.000,0.000,0.406,0.552,0.219,0.202,0.000,276.000,25.000,23.000,0.000,0.000,0.000: // measure 0
1001
0000
0100
0000
0100
1000
0100
0000
,  // measure 1
1000
0000
0001
0010
0100
1000
0010
0000
,  // measure 2
1001
0000
0010
0000
0010
0001
0010
0000
,  // measure 3
0100
0000
0100
0000
0100
0100
0100
0000
,  // measure 4
1000
0001
1000
0001
,  // measure 5
1000
0100
1000
0100
,  // measure 6
1000
0001
1000
0001
,  // measure 7
1000
0100
0010
0001
,  // measure 8
1000
0001
1000
0001
,  // measure 9
1000
0010
1000
0010
,  // measure 10
1000
0001
1000
0001
,  // measure 11
2002
0000
0000
0000
0000
3003
0000
1001
,  // measure 12
0000
0001
1000
0002
0000
0003
0000
1001
,  // measure 13
0000
1000
0001
2000
0000
3000
0000
1001
,  // measure 14
0000
0000
0000
0110
0000
0000
0000
1001
,  // measure 15
0000
0000
0000
0110
0000
0000
0000
0000
,  // measure 16
0001
0010
0100
1000
,  // measure 17
0100
0010
0001
1000
,  // measure 18
0000
0000
2002
0000
,  // measure 19
0000
0000
3003
0000
,  // measure 20
0001
0010
0001
0010
,  // measure 21
0001
1000
0001
1000
,  // measure 22
0001
0100
0001
0100
,  // measure 23
0001
1000
0001
1000
,  // measure 24
0100
0010
0001
0010
,  // measure 25
0100
1000
0001
1000
,  // measure 26
0010
0000
0010
0000
,  // measure 27
0100
0010
0100
0010
,  // measure 28
0100
0001
0010
0100
,  // measure 29
1000
0100
0010
0001
,  // measure 30
0010
0100
1000
0001
,  // measure 31
1000
0010
0220
0330
,  // measure 32
1001
0010
0100
1000
,  // measure 33
0100
0010
0001
1000
,  // measure 34
2002
0000
0000
0000
,  // measure 35
3003
0000
0110
0000
,  // measure 36
0020
0000
0000
0000
,  // measure 37
0230
0000
0000
0000
0000
0300
0110
0000
,  // measure 38
1000
0100
1000
0100
1000
0001
1000
0100
,  // measure 39
1000
0100
0010
0001
0010
0100
1000
0000
,  // measure 40
0001
0100
0001
0100
0001
1000
0001
1000
,  // measure 41
0001
0100
0001
0010
0100
1000
0100
0010
,  // measure 42
0001
1000
0001
0000
0100
0001
0010
0000
,  // measure 43
0100
1000
0010
0000
0100
0010
0100
0000
,  // measure 44
0002
1003
2000
3001
,  // measure 45
0010
0001
0010
0100
1000
0010
0100
0010
,  // measure 46
0220
0000
0000
0000
,  // measure 47
0330
0000
0000
0000
,  // measure 48
0001
0010
0100
1000
,  // measure 49
0100
0010
0001
1000
,  // measure 50
0010
0001
0010
1000
,  // measure 51
0100
0010
0001
1000
,  // measure 52
0001
0010
0100
1000
,  // measure 53
0100
0010
0001
0100
,  // measure 54
1000
0100
0001
0010
,  // measure 55
0100
1000
0010
0100
,  // measure 56
0110
0000
0000
0000
0100
0000
0000
0110
,  // measure 57
0000
0000
0000
0000
,  // measure 58
1001
0000
0000
0000
0001
0000
0000
1001
,  // measure 59
0000
0000
0000
0000
,  // measure 60
0010
0001
0010
0001
,  // measure 61
1000
0001
1000
0001
,  // measure 62
1100
0000
0000
0100
0000
0000
0000
0000
,  // measure 63
0101
0000
0000
0100
0000
0000
0000
0000
,  // measure 64
0220
0000
0000
0330
,  // measure 65
0010
0100
0010
0100
,  // measure 66
0010
1000
0100
0010
,  // measure 67
0001
0010
0100
1000
,  // measure 68
0010
0100
0010
1000
,  // measure 69
0001
0100
1000
0100
,  // measure 70
0001
0010
0100
1000
,  // measure 71
0100
0010
0001
1000
,  // measure 72
0010
0100
0010
1000
,  // measure 73
0001
0100
1000
0100
,  // measure 74
0002
0000
0000
0000
,  // measure 75
0000
0000
0000
1003
,  // measure 76
0220
0000
0000
0000
,  // measure 77
0000
0000
0000
0000
,  // measure 78
0330
2002
0000
3003
;

//---------------dance-single - ----------------
#NOTES:
     dance-single:
     :
     Hard:
     12:
     0.596,0.828,0.307,0.403,0.219,395.000,35.000,46.000,0.000,0.000,0.000,0.596,0.828,0.307,0.403,0.219,395.000,35.000,46.000,0.000,0.000,0.000: // measure 0
1001
0000
0000
0000
1100
0000
0000
0000
0010
0100
0010
0000
0100
0000
0000
0000
,  // measure 1
0001
0000
0000
0000
1000
0000
0001
1000
0000
0100
0000
0010
0001
0000
0001
0000
,  // measure 2
1001
0000
0000
0000
0011
0000
0000
0000
0100
0010
0100
0000
0010
0000
0000
0000
,  // measure 3
2000
0000
0000
0000
3002
0000
0000
0000
2003
0000
3002
0000
2003
3002
2003
3002
,  // measure 4
1003
0000
0010
0200
0000
0000
0310
0000
,  // measure 5
1000
0000
0100
0020
0000
0000
0130
0000
,  // measure 6
1000
0000
0010
0100
0000
0100
0000
0001
,  // measure 7
1000
0100
0010
0000
0100
0010
0100
0000
,  // measure 8
1001
0000
0001
0200
0000
0000
0310
0000
,  // measure 9
1000
0000
0100
0020
0000
0000
0130
0000
,  // measure 10
1000
0000
0010
0100
0000
0001
0010
0100
,  // measure 11
1000
0000
1000
0000
1000
0000
0000
1100
,  // measure 12
0000
0001
0010
0100
0000
0100
0000
1100
,  // measure 13
0000
0001
0010
0100
0000
0100
0000
1100
,  // measure 14
0000
0010
0000
0110
0000
0001
0000
0011
,  // measure 15
0000
0100
0000
0110
0000
0000
0000
0000
,  // measure 16
2001
3200
0320
0032
,  // measure 17
0023
0230
2300
3002
,  // measure 18
0003
0000
2002
0000
,  // measure 19
0000
0000
0000
3003
,  // measure 20
0001
0000
0100
0000
0010
0100
0010
0000
,  // measure 21
0100
0000
0001
0000
0010
0100
1000
0000
,  // measure 22
0100
0000
0010
0000
0100
1000
0100
0000
,  // measure 23
0010
0001
0100
0000
0001
0010
0100
0000
,  // measure 24
1000
0000
0010
0000
0100
0010
0100
0000
,  // measure 25
0001
0000
0010
0000
0100
0010
0100
0000
,  // measure 26
0010
0000
0010
0000
,  // measure 27
0010
0000
0001
0000
0010
0001
0010
0001
,  // measure 28
1000
0010
1000
0000
0010
0100
0010
0000
,  // measure 29
1000
0010
1000
0000
0002
0100
0000
0103
,  // measure 30
0020
1030
0200
0310
,  // measure 31
0002
0000
0000
0103
0000
0000
0010
0000
1000
0000
0001
0000
,  // measure 32
1000
0000
0100
0000
0010
0100
0010
0000
,  // measure 33
0001
0100
0010
0000
0100
0010
0100
0000
,  // measure 34
0001
1000
0000
0100
0000
0010
0001
0100
,  // measure 35
0000
0000
0110
0000
,  // measure 36
0001
0000
0000
0010
0000
0000
0001
0000
0000
0001
0000
0000
1000
0000
0100
0000
,  // measure 37
1000
0000
0000
0001
0000
0000
1000
0000
0000
0001
0000
0000
1001
0000
0000
0000
,  // measure 38
0001
0000
1000
0010
1000
0000
1000
0001
1000
0000
1000
0010
1000
0000
0001
0000
,  // measure 39
0010
0000
0100
0010
0100
0000
0100
1000
0100
0000
0100
0010
0100
0000
1000
0000
,  // measure 40
0010
0000
0100
0001
0100
0000
0100
0010
0100
0000
0100
0001
0100
0000
0001
0000
,  // measure 41
1000
0000
0100
1000
0100
0000
0100
0010
0100
0000
0100
1000
0100
0000
0010
0000
,  // measure 42
1001
0000
0100
0001
0010
0000
0010
0001
0010
0000
0010
0001
0100
0000
0010
0000
,  // measure 43
1000
0000
0100
1000
0010
0000
0010
0100
0010
0000
0010
1000
0100
0000
1000
0000
,  // measure 44
0010
0000
0100
0000
0010
0000
1000
0001
1000
0001
1000
0000
0001
1000
0001
0000
,  // measure 45
0100
0010
1000
0000
0100
0000
0010
0000
0001
0100
0010
0100
0001
0000
0001
0000
,  // measure 46
2002
0000
0000
3003
,  // measure 47
0100
0100
0100
0100
,  // measure 48
1000
0000
0001
0200
0000
0000
0001
0000
0000
0301
0000
1000
,  // measure 49
0100
0000
1000
0200
0000
0000
0010
0000
0000
0310
0000
0000
,  // measure 50
0001
0010
1000
0010
,  // measure 51
0001
0000
1000
0000
0000
0010
0000
0000
0200
0000
0000
0000
,  // measure 52
0301
0000
1000
0200
0000
0000
1000
0000
0000
1300
0000
0001
,  // measure 53
0100
0000
0001
0200
0000
0000
0010
0000
0000
0310
0000
0000
,  // measure 54
1000
0100
0001
0100
,  // measure 55
1000
0000
0001
0000
0000
0010
0000
0000
0100
0000
0000
0000
,  // measure 56
0202
0000
0303
0000
1100
0000
0000
0110
,  // measure 57
0000
0001
0001
0001
,  // measure 58
2020
0000
3030
0000
0011
0000
0000
0110
,  // measure 59
0000
1000
1000
1000
,  // measure 60
1001
0100
0010
0001
,  // measure 61
0100
1000
0100
0001
,  // measure 62
0011
0000
0000
0011
0000
0000
0110
0000
,  // measure 63
1100
0000
0000
1100
0000
0000
0110
0000
,  // measure 64
2002
0000
0000
3003
,  // measure 65
0100
0000
0100
0000
0100
0010
0001
0010
,  // measure 66
0100
0000
1000
0010
0100
0010
1000
0000
,  // measure 67
0001
0000
0100
0010
0001
0010
0100
0000
,  // measure 68
0001
0000
0100
0010
0000
1000
0000
0100
,  // measure 69
0010
0001
0100
0000
0010
0100
0001
0000
,  // measure 70
1001
0000
0001
1000
0100
1000
0001
0000
,  // measure 71
0100
0010
0001
1000
0001
0010
0100
0000
,  // measure 72
0010
0000
0001
0100
0010
0100
0001
2000
,  // measure 73
0010
0010
0010
3010
,  // measure 74
2002
0000
0000
0000
,  // measure 75
0000
0000
0000
0000
0000
0000
0000
0000
3003
0000
0000
0100
0100
0000
0000
0000
,  // measure 76
2200
0000
0000
0000
,  // measure 77
0000
0000
0000
0000
,  // measure 78
3300
2002
0000
3003
;

//---------------dance-single - ----------------
#NOTES:
     dance-single:
     :
     Challenge:
     14:
     0.708,1.000,0.263,0.350,0.403,496.000,30.000,40.000,0.000,0.000,0.000,0.708,1.000,0.263,0.350,0.403,496.000,30.000,40.000,0.000,0.000,0.000: // measure 0
1001
0000
1000
0000
0001
0100
0000
0100
0001
0010
0100
0000
0010
0000
0001
0000
,  // measure 1
1000
0000
0000
0000
0010
0000
0100
0010
0000
1000
0000
0001
1000
0000
1000
0000
,  // measure 2
1001
0000
0001
0000
1000
0010
0000
0010
1000
0100
0010
0000
0100
1000
0100
1000
,  // measure 3
0001
0000
0001
0000
1000
0000
1000
0000
0001
1000
0001
1000
0100
0010
0001
0010
,  // measure 4
0100
1000
0100
2000
0000
0001
3001
0000
,  // measure 5
0100
0001
0100
0002
0000
1000
1003
0000
,  // measure 6
0001
1000
0001
2000
0000
3020
0000
0130
,  // measure 7
0001
0010
0100
0000
0010
0001
1000
0000
,  // measure 8
0010
1000
0010
0200
0000
0001
0301
0000
,  // measure 9
0010
0001
0010
0200
0000
1000
1300
0000
,  // measure 10
0001
0100
0001
2000
0000
3100
0010
0100
,  // measure 11
1000
0001
1000
0001
1000
0010
0100
0110
,  // measure 12
0000
0001
0100
1000
0000
0100
0000
0110
,  // measure 13
0000
0001
0100
1000
0000
0100
0000
0110
,  // measure 14
0000
0100
0001
0101
0000
1000
0100
1100
,  // measure 15
0000
0010
0100
0110
0000
0000
0000
0000
,  // measure 16
2001
0100
0001
0100
,  // measure 17
0001
0010
0100
0020
,  // measure 18
3030
0000
2002
0000
,  // measure 19
0000
0000
0000
3003
,  // measure 20
1000
0100
1000
0100
1000
0001
1000
0001
,  // measure 21
1000
0100
1000
0100
1000
0100
0010
0000
,  // measure 22
0001
0100
0001
0100
0001
1000
0001
1000
,  // measure 23
0001
0010
0100
1000
0100
0010
0001
0000
,  // measure 24
0100
0001
0010
0100
2000
0000
3100
0000
,  // measure 25
0100
1000
0010
0100
0002
0000
1003
0000
,  // measure 26
0100
0000
0100
0000
,  // measure 27
0100
0000
0100
0000
0100
0010
0100
0010
,  // measure 28
0001
0100
0010
0100
0001
1000
0001
1000
,  // measure 29
0001
0010
0100
1000
0002
0010
0000
0013
,  // measure 30
0100
1000
0010
0000
0010
0100
0001
0000
,  // measure 31
0001
0000
0000
0010
0000
0000
0100
0000
0000
0000
0000
0000
1001
0000
0000
0000
0001
0000
0000
0000
1000
0000
0000
0000
,  // measure 32
0001
0010
0100
0010
0001
1000
0001
1000
,  // measure 33
0001
0100
0010
1000
0010
0100
0001
0000
,  // measure 34
1000
0001
0000
0100
0000
1000
0100
0001
,  // measure 35
1000
0000
2002
3003
,  // measure 36
1000
0000
0000
0100
0000
0000
0001
0000
0000
0100
0000
0000
1000
0000
0001
0000
,  // measure 37
1000
0000
0000
0010
0000
0000
0001
0000
0000
0010
0000
0000
1000
0001
1000
0000
,  // measure 38
0001
0000
0100
0001
0100
0001
0100
0000
0001
1000
0001
1000
0001
0100
0010
0100
,  // measure 39
0001
0000
1000
0100
1000
0100
1000
0000
0100
0010
0100
0010
0001
0100
0010
0100
,  // measure 40
0001
0000
1000
0010
0100
0010
1000
0100
0010
0001
0100
0010
0100
0001
0010
0001
,  // measure 41
1000
0000
0001
0010
0100
1000
0001
0100
0010
0100
0001
0010
0100
1000
0100
0000
,  // measure 42
1001
0000
1000
0100
0010
0001
0100
0010
0100
0001
0010
0100
1000
0000
0010
0100
,  // measure 43
0001
0010
0100
1000
0010
0100
0010
1000
0001
0010
0001
0010
0100
1000
0010
0000
,  // measure 44
1000
0000
0001
0000
0100
0000
0001
0010
0100
1000
0100
0010
0001
1000
0001
0000
,  // measure 45
0100
0001
0100
0000
0001
0010
0100
0000
1000
0010
0100
0010
1000
0100
0010
0000
,  // measure 46
2002
0000
0000
3003
,  // measure 47
0020
0230
0320
0230
,  // measure 48
0310
0000
1000
0100
0000
1000
0100
0000
0000
0010
0000
0001
,  // measure 49
1000
0000
0010
1000
0000
0010
1000
0000
0000
0001
0000
0000
,  // measure 50
1000
0000
0010
0100
0000
0000
0010
0000
1000
0100
0000
0000
,  // measure 51
1000
0000
0001
0000
0000
0010
0000
0000
0200
0000
0000
0000
,  // measure 52
0310
0000
0001
0100
0000
0001
0100
0000
0000
0010
0000
1000
,  // measure 53
0001
0000
0010
0001
0000
0010
0001
0000
0000
1000
0000
0000
,  // measure 54
0001
0000
0010
0001
0000
0000
0100
0000
0010
0100
0000
0000
,  // measure 55
0001
0000
1000
0000
0000
0010
0000
0000
0100
0000
0000
0002
,  // measure 56
2000
0000
3003
0000
1100
0000
0000
0011
,  // measure 57
0000
1000
1000
1000
,  // measure 58
2002
0000
3003
0000
0101
0000
0000
1010
,  // measure 59
0000
0001
0001
0001
,  // measure 60
2001
0100
0001
3100
,  // measure 61
0020
0001
0100
0031
,  // measure 62
0101
0000
0000
1001
0000
0000
1100
0000
,  // measure 63
1100
0000
0000
1001
0000
0000
1010
0000
,  // measure 64
2002
0000
0000
3003
,  // measure 65
0100
0000
0100
0000
0100
0010
0100
0010
,  // measure 66
0001
0100
0010
0100
0001
1000
0001
1000
,  // measure 67
0001
0010
0100
0010
0001
1000
0001
1000
,  // measure 68
0001
0010
0100
2000
0000
3002
0000
1003
,  // measure 69
0100
0001
0100
1000
0010
0100
0001
0000
,  // measure 70
1000
0100
0010
0100
1000
0001
1000
0001
,  // measure 71
1000
0010
0100
0010
1000
0001
1000
0001
,  // measure 72
1000
0010
0100
0002
0000
1003
0100
0010
,  // measure 73
0001
1000
0100
0001
0100
1000
0010
0100
,  // measure 74
0202
0000
0000
0000
,  // measure 75
0000
0000
0000
0000
0000
0000
0000
0000
0000
0000
0000
0000
0000
0000
0000
0000
0303
0000
0000
0000
0000
0000
0001
1000
0001
0000
0000
0000
0000
0000
0000
0000
,  // measure 76
2200
0000
0000
0000
,  // measure 77
0000
0000
0000
0000
,  // measure 78
3300
2002
0000
3003
;

//---------------dance-single - ----------------
#NOTES:
     dance-single:
     :
     Beginner:
     3:
     0.099,0.137,0.088,0.000,0.000,69.000,10.000,0.000,0.000,0.000,0.000,0.099,0.137,0.088,0.000,0.000,69.000,10.000,0.000,0.000,0.000,0.000: // measure 0
1001
0000
1000
0000
,  // measure 1
0001
0000
0000
0000
,  // measure 2
1001
0000
0001
0000
,  // measure 3
1000
0000
0000
0000
,  // measure 4
0010
0000
0000
0000
,  // measure 5
0010
0000
0000
0000
,  // measure 6
0010
0000
0000
0000
,  // measure 7
0000
0000
0000
0000
,  // measure 8
0100
0000
0000
0000
,  // measure 9
0100
0000
0000
0000
,  // measure 10
0100
0000
0000
0000
,  // measure 11
0000
0000
0000
0000
,  // measure 12
0001
0000
0000
0000
,  // measure 13
1000
0000
0000
0000
,  // measure 14
0001
0000
0000
0000
,  // measure 15
0000
0000
0000
0000
,  // measure 16
1000
0000
0000
0000
,  // measure 17
0000
0000
0000
0000
,  // measure 18
0000
0000
1001
0000
,  // measure 19
0000
0000
0000
0000
,  // measure 20
1000
0000
0000
0000
,  // measure 21
0000
0000
0000
0000
,  // measure 22
0100
0000
0000
0000
,  // measure 23
0000
0000
0000
0000
,  // measure 24
1000
0000
0000
0000
,  // measure 25
1000
0000
0000
0000
,  // measure 26
1000
0000
0000
0000
,  // measure 27
0000
0000
0000
0000
,  // measure 28
0001
0000
0000
0000
,  // measure 29
0000
0000
0000
0000
,  // measure 30
0010
0000
0000
0000
,  // measure 31
0000
0000
0000
0000
,  // measure 32
0001
0000
0000
0000
,  // measure 33
0001
0000
0000
0000
,  // measure 34
0001
0000
0000
0000
,  // measure 35
0000
0000
0000
0000
,  // measure 36
1000
0000
0000
0000
,  // measure 37
0100
0000
0000
0000
,  // measure 38
0010
0000
0000
0000
,  // measure 39
0001
0000
0000
0000
,  // measure 40
1000
0000
0000
0000
,  // measure 41
0001
0000
0000
0000
,  // measure 42
1001
0000
0000
0000
,  // measure 43
0001
0000
0000
0000
,  // measure 44
1000
0000
0000
0000
,  // measure 45
0010
0000
0000
0000
,  // measure 46
0100
0000
0000
0000
,  // measure 47
0000
0000
0000
0000
,  // measure 48
1001
0000
0000
0000
,  // measure 49
0001
0000
0000
0000
,  // measure 50
1000
0000
0000
0000
,  // measure 51
0001
0000
0000
0000
,  // measure 52
0100
0000
0000
0000
,  // measure 53
0010
0000
0000
0000
,  // measure 54
0100
0000
0000
0000
,  // measure 55
0100
0000
0000
0000
,  // measure 56
1001
0000
0000
0000
,  // measure 57
0000
0000
0000
0000
,  // measure 58
0110
0000
0000
0000
,  // measure 59
0000
0000
0000
0000
,  // measure 60
1000
0000
0001
0000
,  // measure 61
1000
0000
0000
0000
,  // measure 62
0001
0000
1000
0000
,  // measure 63
0001
0000
0000
0000
,  // measure 64
1001
0000
0000
0000
,  // measure 65
0000
0000
0000
0000
,  // measure 66
1000
0000
0100
0000
,  // measure 67
1000
0000
0100
0000
,  // measure 68
1000
0000
0000
0000
,  // measure 69
0000
0000
0000
0000
,  // measure 70
0001
0000
0010
0000
,  // measure 71
0001
0000
0010
0000
,  // measure 72
0001
0000
0000
0000
,  // measure 73
1000
0000
0000
0000
,  // measure 74
0001
0000
0000
0000
,  // measure 75
0000
0000
0000
0000
,  // measure 76
1001
0000
0000
0000
,  // measure 77
0000
0000
0000
0000
,  // measure 78
0000
0110
0000
0000
;
