#TITLE:BREAK OUT;
#SUBTITLE:;
#ARTIST:Remixed By Orange Lounge;
#TITLETRANSLIT:;
#SUBTITLETRANSLIT:;
#ARTISTTRANSLIT:;
#CREDIT:DigiMindAxel;
#BANNER:BREAK OUT.png;
#BACKGROUND:BREAK OUT-bg.png;
#LYRICSPATH:BREAK OUT.lrc;
#CDTITLE:beatmania IIDX.png;
#MUSIC:BREAK OUT.mp3;
#METERTYPE:DDR X;
#OFFSET:-4.180;
#SAMPLESTART:52.012;
#SAMPLELENGTH:12.000;
#SELECTABLE:YES;
#BPMS:0.000=129.000;
#STOPS:;
#BGCHANGES:;

//---------------dance-single - ----------------
#NOTES:
     dance-single:
     :
     Hard:
     11:
     0.532,0.514,0.261,0.253,0.269: // measure 1
2100
0000
0000
0000
3001
0000
0000
1000
0001
0000
0010
0000
0100
0000
0000
0000
,  // measure 2
0102
0000
0000
0000
1003
0000
0000
0001
1000
0000
0010
0000
0100
0000
0000
0000
,  // measure 3
2100
0000
0000
0000
3001
0000
0000
1000
0001
0000
0010
0000
0100
0000
0000
0000
,  // measure 4
0101
0000
0000
0000
0010
0000
1000
0000
0100
0000
0000
1100
0000
0000
0000
0000
,  // measure 5
1001
0000
0000
0000
1000
0000
0010
0000
1000
0000
0000
0001
0000
0010
0001
0000
,  // measure 6
0001
0000
1000
0000
0001
0000
0100
0000
0001
0000
0000
1000
0000
0100
0000
0000
,  // measure 7
1001
0000
0000
0000
0001
0000
0100
0000
0001
0000
0000
1000
0000
0100
1000
0000
,  // measure 8
1010
0000
0000
0000
0100
0000
0001
0000
0010
0000
0000
0011
0000
1000
0000
0000
,  // measure 9
1001
0000
0000
0000
0001
0000
0010
0000
0001
0000
0000
1000
0000
0010
1000
0010
,  // measure 10
1000
0000
0001
0000
1000
0000
0100
0000
1000
0000
0000
0001
0000
0100
0000
0000
,  // measure 11
1001
0000
0000
0000
1000
0000
0100
0000
1000
0000
0000
0001
0000
0100
0001
0100
,  // measure 12
0001
0000
0000
0000
1000
0000
1000
0000
1000
0000
0000
0001
0000
1000
0000
0000
,  // measure 13
0001
0010
0100
0010
0002
0000
1003
0000
,  // measure 14
1000
0100
0010
0100
2000
0000
3001
0000
,  // measure 15
1000
0010
0100
0010
2000
0000
3001
0000
,  // measure 16
0011
0000
0000
0000
0100
0000
1000
0000
0001
0000
0000
1001
0000
0000
0000
0000
,  // measure 17
1001
0000
1000
0100
0020
0000
0130
0000
,  // measure 18
0001
1000
0100
0010
0200
0000
0310
0000
,  // measure 19
0001
0010
0100
1000
0020
0000
0130
0000
,  // measure 20
1100
0000
0000
0000
0010
0000
0001
0000
1000
0000
0000
1001
0000
0000
0000
0000
,  // measure 21
0102
0000
0100
0000
1003
0100
0010
0001
,  // measure 22
2000
0000
0100
0000
3001
0010
0100
1000
,  // measure 23
0002
0000
0100
0000
1003
0100
0010
0001
,  // measure 24
0101
0000
0000
0000
0010
0000
1000
0000
0001
0000
0000
1001
0000
0000
0000
0000
,  // measure 25
1001
0000
0000
0000
0100
0000
0001
0000
0100
0000
0000
0001
0000
1000
0100
0000
,  // measure 26
1000
0000
0001
0000
0010
0000
0100
0000
1000
0001
0000
0001
1000
0000
0000
0000
,  // measure 27
1001
0001
0100
0001
1000
0100
1000
0001
,  // measure 28
1000
0000
1000
0000
0001
0000
0000
0001
0000
0000
1000
0000
0100
0000
0010
0000
,  // measure 29
0001
0100
1000
0100
0010
1000
0010
0100
,  // measure 30
0010
0000
0010
0000
1000
0000
0000
1000
0000
0000
0001
0000
0010
0000
0100
0000
,  // measure 31
2000
0000
3100
0010
0001
1000
0100
0010
,  // measure 32
0002
0000
0013
0100
1000
0001
1000
0100
,  // measure 33
1100
0000
0000
0000
0010
0000
0001
0000
1000
0000
0000
0001
0000
1000
0001
0000
,  // measure 34
0011
0000
0000
0000
1100
0000
0000
0000
1000
0001
0000
0001
1000
0000
0000
0000
,  // measure 35
0001
1000
0010
1000
0001
0010
0001
1000
,  // measure 36
0001
0000
0001
0000
1000
0000
0000
1000
0000
0000
0001
0000
0010
0000
0100
0000
,  // measure 37
1000
0100
0001
0100
0010
0001
0100
0010
,  // measure 38
0100
0000
0100
0000
0001
0000
0000
0001
0000
0000
1000
0000
0010
0000
0100
0000
,  // measure 39
0002
0000
0013
0100
1000
0010
0100
0001
,  // measure 40
1000
0100
1000
0000
0001
0000
0010
0000
0100
0010
0100
0000
0010
0000
0001
0000
,  // measure 41
2001
0000
0000
0000
0000
0000
3010
0100
0000
0010
0200
0000
0000
0000
0301
1000
,  // measure 42
0002
0000
0000
0000
0000
0000
0103
0010
0000
0100
0020
0000
0000
0000
1030
0000
,  // measure 43
1002
0000
0000
0000
0000
0000
1003
0010
0000
1000
0020
0000
0000
0000
0130
0010
,  // measure 44
0200
0000
0000
0000
0000
0000
0301
0100
0000
0001
0200
0000
0000
0000
0301
0000
,  // measure 45
2001
0000
0000
0000
0000
0000
3001
0010
0000
0001
0020
0000
0000
0000
0031
1000
,  // measure 46
0002
0000
0000
0000
0000
0000
1003
0100
0000
1000
0200
0000
0000
0000
1300
0000
,  // measure 47
1002
0000
0000
0000
0000
0000
0103
0010
0000
0100
0020
0000
0000
0000
1030
0000
,  // measure 48
0001
0100
0001
0000
1000
0000
0100
0000
0010
0100
0010
0000
0110
0000
0000
0000
,  // measure 49
2001
0000
0000
0000
0000
0000
3100
0010
,  // measure 50
0002
0000
0000
0103
,  // measure 51
0010
0100
0001
1000
,  // measure 52
0002
0000
0000
0013
,  // measure 53
0100
0010
0001
1000
,  // measure 54
0010
1000
0010
0100
,  // measure 55
0110
0000
0000
0000
1000
0000
0100
0000
1000
0000
0000
0001
0000
0100
0001
0000
,  // measure 56
0100
0001
0100
0000
0001
0000
1000
0000
0010
0100
0010
0100
0010
0000
0000
0000
,  // measure 57
1001
0000
0000
0000
0100
0000
0001
0100
0001
0000
1000
0000
0100
0000
1000
0000
,  // measure 58
0001
0100
1000
0000
0100
0010
0100
1000
,  // measure 59
0010
0000
0000
0000
0100
0000
0001
0100
0001
0000
1000
0000
0100
0000
1000
0000
,  // measure 60
0001
0000
0010
0100
0010
0001
1000
0100
,  // measure 61
0001
0000
1000
0000
0001
0000
0100
0001
0100
0000
0001
0000
1000
0000
0100
0000
,  // measure 62
0010
0001
0010
0000
0100
0000
0010
0000
0100
0010
0100
0000
1000
0000
0001
0000
,  // measure 63
1001
0000
0000
0000
;

//---------------dance-single - ----------------
#NOTES:
     dance-single:
     :
     Medium:
     7:
     0.368,0.367,0.316,0.229,0.000: // measure 1
1001
0000
0001
0000
0001
1000
0100
0000
,  // measure 2
1001
0000
1000
0000
1000
0001
0100
0000
,  // measure 3
1001
0000
0001
0000
0100
0001
1000
0000
,  // measure 4
1001
0000
1000
0100
0001
0000
0000
0000
,  // measure 5
1001
0000
1000
0010
1000
0000
0001
0010
,  // measure 6
1001
0000
0001
0010
0001
0000
1000
0000
,  // measure 7
1001
0000
1000
0100
1000
0000
0001
0100
,  // measure 8
1001
0000
1000
0100
1000
0000
0001
0000
,  // measure 9
1001
0000
0001
0010
0100
0000
1000
0001
,  // measure 10
1001
0000
1000
0100
0010
0000
0001
0000
,  // measure 11
1001
0000
1000
0100
0010
0000
0001
1000
,  // measure 12
1001
0000
0001
0100
1000
0000
0000
0000
,  // measure 13
1001
0000
0010
0100
0020
0000
1030
0000
,  // measure 14
1000
0000
0010
0100
0020
0000
1030
0000
,  // measure 15
1001
0000
0100
0010
0200
0000
0310
0000
,  // measure 16
1001
0000
0001
0100
1000
0000
0000
0000
,  // measure 17
1001
0000
0100
0010
0200
0000
0310
0000
,  // measure 18
0001
0000
0100
0010
0200
0000
0310
0000
,  // measure 19
1001
0000
0010
0100
0020
0000
0130
0000
,  // measure 20
1001
0000
1000
0100
0001
0000
0000
0000
,  // measure 21
1001
0000
0001
0100
0002
0000
1003
0000
,  // measure 22
0001
0000
1000
0100
2000
0000
3001
0000
,  // measure 23
1001
0000
1000
0100
2000
0000
3001
0000
,  // measure 24
1001
0000
0001
0100
1000
0000
0000
0000
,  // measure 25
1001
0000
1000
0010
0100
0000
0010
0100
,  // measure 26
0010
0010
0110
0000
,  // measure 27
1001
0000
1000
0000
0001
0000
1000
0100
,  // measure 28
0010
0000
0001
1000
0001
0000
0010
0100
,  // measure 29
1000
0000
1001
0000
0001
0000
1000
0100
,  // measure 30
0002
1000
1003
0001
,  // measure 31
0101
0000
0010
1000
0010
0000
1000
0000
,  // measure 32
1010
0000
0100
0001
0100
0000
0001
1000
,  // measure 33
0010
0100
0010
0000
0010
0000
0010
0000
,  // measure 34
0110
0110
1001
0000
,  // measure 35
1001
0000
0001
0000
1000
0000
0001
0010
,  // measure 36
0100
0000
1000
0001
1000
0000
0100
0010
,  // measure 37
0001
0000
1001
0000
1000
0000
0001
0100
,  // measure 38
2000
0100
3100
1000
,  // measure 39
0001
0100
0001
0000
0101
0000
1000
0010
,  // measure 40
1000
1010
0010
0010
,  // measure 41
0220
0000
0000
0330
,  // measure 42
0001
0020
0230
2300
,  // measure 43
0002
0000
3000
0023
,  // measure 44
0002
0000
0000
0033
,  // measure 45
0220
0000
0000
0330
,  // measure 46
1000
0200
0320
0032
,  // measure 47
2000
0000
0000
0003
,  // measure 48
0020
0000
0000
3030
,  // measure 49
1001
0000
0000
0000
,  // measure 50
0020
0000
0000
0000
,  // measure 51
0130
0000
0000
0000
,  // measure 52
0002
0000
0000
0000
,  // measure 53
1003
0000
0000
0000
,  // measure 54
0200
0000
0000
0000
,  // measure 55
0310
0000
0000
0000
,  // measure 56
0010
0100
0010
0000
,  // measure 57
1000
1000
0001
0000
1001
0000
1000
0010
,  // measure 58
0100
0000
0010
0100
0010
0000
1000
0000
,  // measure 59
0001
0001
1000
0000
1001
0000
0001
0100
,  // measure 60
0010
0000
0100
0010
0100
0000
0001
0000
,  // measure 61
1000
1000
0001
0000
1001
0000
1000
0010
,  // measure 62
0100
0000
0010
0100
0010
0000
1000
0100
,  // measure 63
0001
0000
0000
0000
;

//---------------dance-single - ----------------
#NOTES:
     dance-single:
     :
     Easy:
     5:
     0.244,0.245,0.158,0.356,0.000: // measure 1
2002
0000
0000
3003
,  // measure 2
0220
0000
0000
0330
,  // measure 3
2002
0000
0000
3003
,  // measure 4
0001
0001
0010
0100
,  // measure 5
2002
0000
0000
3003
,  // measure 6
0220
0000
0000
0330
,  // measure 7
2002
0000
0000
3003
,  // measure 8
1000
1000
0100
0010
,  // measure 9
2002
0000
0000
3003
,  // measure 10
0220
0000
0000
0330
,  // measure 11
2002
0000
0000
3003
,  // measure 12
0001
1000
0001
0000
,  // measure 13
2000
0000
3020
0000
,  // measure 14
2030
0000
3002
0000
,  // measure 15
0203
0000
0320
0000
,  // measure 16
0130
0010
1000
0001
,  // measure 17
2001
0000
3002
0000
,  // measure 18
0203
0000
0320
0000
,  // measure 19
2030
0000
3020
0000
,  // measure 20
0130
0001
0100
0010
,  // measure 21
1002
0000
2003
0000
,  // measure 22
3020
0000
0230
0000
,  // measure 23
0320
0000
2030
0000
,  // measure 24
3100
0010
0001
1000
,  // measure 25
1001
0001
2000
0000
,  // measure 26
3010
0010
0110
0000
,  // measure 27
0001
1000
0001
1000
,  // measure 28
0001
1000
0001
0000
,  // measure 29
0100
0010
0100
0010
,  // measure 30
0100
0010
0100
0000
,  // measure 31
0010
1000
0010
1000
,  // measure 32
0001
0100
0001
0000
,  // measure 33
1001
1000
0002
0000
,  // measure 34
0103
0100
0110
0000
,  // measure 35
0010
0100
0010
0100
,  // measure 36
0010
0100
0010
0000
,  // measure 37
1000
0001
1000
0001
,  // measure 38
1000
0001
1000
0000
,  // measure 39
0001
0100
0001
0100
,  // measure 40
0001
1000
0010
1000
,  // measure 41
1001
0000
0000
0000
,  // measure 42
0010
0000
0000
0000
,  // measure 43
0100
0000
0000
0000
,  // measure 44
0010
0000
0000
0000
,  // measure 45
1001
0000
0000
0000
,  // measure 46
1000
0000
0000
0000
,  // measure 47
0001
0000
0000
0000
,  // measure 48
1000
1000
0001
0001
,  // measure 49
1002
0000
0000
0000
,  // measure 50
0023
0000
0000
0000
,  // measure 51
0230
0000
0000
0000
,  // measure 52
2300
0000
0000
0000
,  // measure 53
3200
0000
0000
0000
,  // measure 54
0320
0000
0000
0000
,  // measure 55
0032
0000
0000
0000
,  // measure 56
1003
1000
1001
0000
,  // measure 57
0010
0100
0010
1000
,  // measure 58
0001
1000
0001
1000
,  // measure 59
0010
1000
0010
0100
,  // measure 60
0001
0100
0001
1000
,  // measure 61
0100
1000
0100
0010
,  // measure 62
0001
0010
0001
1000
,  // measure 63
1001
0000
0000
0000
;

//---------------dance-single - ----------------
#NOTES:
     dance-single:
     :
     Beginner:
     2:
     0.070,0.122,0.032,0.000,0.000: // measure 1
0000
0000
0000
0000
,  // measure 2
0000
0000
0000
0000
,  // measure 3
0000
0000
0000
0000
,  // measure 4
0000
0000
0000
0000
,  // measure 5
1000
0000
0000
0000
,  // measure 6
0001
0000
0000
0000
,  // measure 7
1000
0000
0000
0000
,  // measure 8
0001
0000
0000
0000
,  // measure 9
0100
0000
0000
0000
,  // measure 10
0010
0000
0000
0000
,  // measure 11
0100
0000
0000
0000
,  // measure 12
0010
0000
0000
0000
,  // measure 13
1000
0000
0000
0000
,  // measure 14
0000
0000
0000
0000
,  // measure 15
0100
0000
0000
0000
,  // measure 16
0000
0000
0000
0000
,  // measure 17
0010
0000
0000
0000
,  // measure 18
0000
0000
0000
0000
,  // measure 19
0001
0000
0000
0000
,  // measure 20
0000
0000
0000
0000
,  // measure 21
0010
0000
0000
0000
,  // measure 22
0000
0000
0000
0000
,  // measure 23
0100
0000
0000
0000
,  // measure 24
0000
0000
0000
0000
,  // measure 25
1000
0000
0000
0000
,  // measure 26
0001
0000
1000
0000
,  // measure 27
0010
0000
0010
0000
,  // measure 28
0010
0000
0000
0000
,  // measure 29
0100
0000
0100
0000
,  // measure 30
0100
0000
0000
0000
,  // measure 31
0010
0000
0010
0000
,  // measure 32
0010
0000
0000
0000
,  // measure 33
1000
0000
1000
0000
,  // measure 34
1000
0000
0000
0000
,  // measure 35
0001
0000
0001
0000
,  // measure 36
0001
0000
0000
0000
,  // measure 37
1000
0000
1000
0000
,  // measure 38
1000
0000
0000
0000
,  // measure 39
0010
0000
0010
0000
,  // measure 40
0010
0000
0000
0000
,  // measure 41
1001
0000
0000
0000
,  // measure 42
1000
0000
0000
0000
,  // measure 43
1000
0000
0000
0000
,  // measure 44
1000
0000
0000
0000
,  // measure 45
0001
0000
0000
0000
,  // measure 46
0001
0000
0000
0000
,  // measure 47
0001
0000
0000
0000
,  // measure 48
0001
0000
0000
0000
,  // measure 49
1001
0000
0000
0000
,  // measure 50
0000
0000
0000
0000
,  // measure 51
0000
0000
0000
0000
,  // measure 52
0000
0000
0000
0000
,  // measure 53
0010
0000
0000
0000
,  // measure 54
0000
0000
0000
0000
,  // measure 55
0110
0000
0000
0000
,  // measure 56
1000
0000
0001
0000
,  // measure 57
0100
0000
0000
0000
,  // measure 58
0010
0000
0000
0000
,  // measure 59
0100
0000
0000
0000
,  // measure 60
0010
0000
0000
0000
,  // measure 61
1000
0000
0000
0000
,  // measure 62
0001
0000
0000
0000
,  // measure 63
1001
0000
0000
0000
;
