#TITLE:BLOWIN';
#SUBTITLE:;
#ARTIST:B'z;
#TITLETRANSLIT:;
#SUBTITLETRANSLIT:;
#ARTISTTRANSLIT:;
#CREDIT:DigiMindAxel;
#BANNER:BLOWIN'.png;
#BACKGROUND:BLOWIN'-bg.png;
#LYRICSPATH:BLOWIN'.lrc;
#CDTITLE:DigiMindAxel original simfile.png;
#MUSIC:BLOWIN'.mp3;
#METERTYPE:DDR X;
#OFFSET:-8.385;
#SAMPLESTART:55.110;
#SAMPLELENGTH:12.000;
#SELECTABLE:YES;
#BPMS:0.000=118.040;
#STOPS:90.000=0.508
;
#BGCHANGES:;

//---------------dance-single - ----------------
#NOTES:
     dance-single:
     :
     Easy:
     3:
     0.187,0.261,0.275,0.022,0.000: // measure 1
1000
1001
1000
0000
,  // measure 2
0001
1001
0001
0000
,  // measure 3
0001
0000
1000
0000
,  // measure 4
0001
0010
0100
0000
,  // measure 5
1000
1001
1000
0000
,  // measure 6
0001
1001
0001
0000
,  // measure 7
0010
0100
1000
0000
,  // measure 8
0001
0000
1000
0000
,  // measure 9
0010
0000
0000
0010
,  // measure 10
0100
0000
0000
0100
,  // measure 11
0010
0000
0000
0010
,  // measure 12
1000
0000
0000
0000
,  // measure 13
1000
0000
0000
0000
,  // measure 14
1000
0000
0000
0000
,  // measure 15
0001
0000
0000
0000
,  // measure 16
0001
0000
0000
0000
,  // measure 17
0100
0000
0100
0000
,  // measure 18
0110
0000
0000
0000
,  // measure 19
0010
0000
0010
0000
,  // measure 20
0110
0000
0000
0000
,  // measure 21
1000
0001
1000
0000
,  // measure 22
0001
1000
0001
0000
,  // measure 23
0220
0000
0330
1001
,  // measure 24
1001
0000
0000
0110
,  // measure 25
0110
0000
0000
0001
,  // measure 26
0010
0100
0000
1000
,  // measure 27
0100
0010
0000
1001
,  // measure 28
1001
0000
0000
0110
,  // measure 29
0110
0000
0000
1000
,  // measure 30
0010
0100
0000
0001
,  // measure 31
0100
0010
0000
1001
,  // measure 32
1000
1001
0000
1001
,  // measure 33
0001
1001
0000
0100
,  // measure 34
0001
0100
0000
0010
,  // measure 35
1000
0010
0000
1001
,  // measure 36
1000
1001
0000
1001
,  // measure 37
0001
1001
0000
0100
,  // measure 38
1000
0100
0000
0010
,  // measure 39
0001
0010
0000
1001
,  // measure 40
0000
0000
0110
0000
;

//---------------dance-single - ----------------
#NOTES:
     dance-single:
     :
     Hard:
     8:
     0.394,0.393,0.407,0.110,0.088: // measure 1
1001
0000
0000
0000
0011
0000
0000
0000
1001
0000
0000
1000
0000
0000
0000
0000
,  // measure 2
1001
0000
0000
0000
1100
0000
0000
0000
1001
0000
0000
0001
0000
0000
0100
0000
,  // measure 3
0010
0000
0000
0000
1001
0000
0000
0000
1000
0000
0000
1000
0000
0000
0001
0000
,  // measure 4
1000
0001
0010
0100
1000
0000
0001
1000
,  // measure 5
1001
0000
0000
0000
1100
0000
0000
0000
1001
0000
0000
0001
0000
0000
0000
0000
,  // measure 6
1001
0000
0000
0000
0011
0000
0000
0000
1001
0000
0000
1000
0000
0000
0010
0000
,  // measure 7
1000
0001
0010
0100
1000
0000
0010
0100
,  // measure 8
0001
0101
1001
0000
,  // measure 9
1100
0000
0100
0000
0100
0000
0100
1000
,  // measure 10
0001
0000
0001
0000
0001
1000
0001
1000
,  // measure 11
0001
0100
0010
0000
0010
0000
0010
0000
,  // measure 12
1000
0100
0010
0001
,  // measure 13
1000
0001
0100
0000
0100
0000
0100
0001
,  // measure 14
0010
0010
0010
0010
,  // measure 15
0010
0100
1000
0000
1000
0000
1000
0001
,  // measure 16
1000
0001
0100
0000
0001
1000
1000
1000
,  // measure 17
0002
1000
0000
0000
0203
0001
0000
0000
,  // measure 18
0320
1000
0000
0000
0130
0000
0010
0000
,  // measure 19
0200
0001
0000
0000
0320
1000
0000
0000
,  // measure 20
0230
0001
0000
0000
0310
0000
0100
0000
,  // measure 21
0001
1000
0001
1000
0010
1000
0010
1000
,  // measure 22
0010
0100
0010
0100
0001
1000
0001
1000
,  // measure 23
2002
0000
3003
1001
,  // measure 24
1001
0000
0000
0000
0001
0000
1000
0010
0000
0000
0000
0000
0110
0000
0000
0000
,  // measure 25
0110
0000
0000
0000
0100
0000
0000
0001
0000
0000
1000
0000
1001
0000
0000
0000
,  // measure 26
1100
0000
1000
1000
0000
0001
0001
0010
,  // measure 27
0100
1000
0010
0000
0000
0000
1001
0000
,  // measure 28
1001
0000
0000
0000
1000
0000
0001
0010
0000
0000
0000
0000
0110
0000
0000
0000
,  // measure 29
0110
0000
0000
0000
0100
0000
0000
1000
0000
0000
0001
0000
1000
0000
0001
0000
,  // measure 30
1000
0100
0010
0000
0010
0001
0100
0000
,  // measure 31
0100
0010
0100
0000
0000
0000
1001
0000
,  // measure 32
1001
0000
0000
0000
1000
0000
0001
0100
0000
0000
0000
0000
0110
0000
0000
0000
,  // measure 33
0110
0000
0000
0000
0100
0000
0000
1000
0000
0000
0001
0000
0010
0000
0000
0000
,  // measure 34
0011
0000
0000
0000
0001
0000
0000
0010
0000
0000
0100
0000
1000
0000
0010
0000
,  // measure 35
0100
0010
1000
0000
0000
0000
1001
0000
,  // measure 36
1001
0000
0000
0000
0001
0000
1000
0100
0000
0000
0000
0000
0110
0000
0000
0000
,  // measure 37
0110
0000
0000
0000
0100
0000
0000
0001
0000
0000
1000
0000
0010
0000
0100
0000
,  // measure 38
0010
1000
0100
0000
0100
0010
0001
0000
,  // measure 39
0001
1000
0010
0000
0010
0000
2002
0000
,  // measure 40
0000
0000
0000
0000
3003
0000
0000
0000
0100
0010
0100
0010
0000
0000
0000
0000
;

//---------------dance-single - ----------------
#NOTES:
     dance-single:
     :
     Challenge:
     11:
     0.518,0.480,0.253,0.110,0.253: // measure 1
1000
0000
0010
0000
1000
0000
0000
0000
0010
0000
1000
0100
0000
0000
0000
0000
,  // measure 2
1000
0000
0010
0000
1000
0000
0000
0000
0010
0000
1000
0100
0000
0100
1000
0000
,  // measure 3
0001
0000
1000
0000
1001
0000
0000
0000
0001
0000
0100
0010
0000
0000
1000
0000
,  // measure 4
0001
0000
0001
0000
1000
0000
1000
0000
0001
0000
0000
0000
1000
0100
1000
0100
,  // measure 5
1000
0000
0001
0000
0010
0000
0000
0001
1000
0000
0000
1000
0100
0000
0000
0000
,  // measure 6
1000
0000
0010
0000
0100
0000
0000
0001
1000
0000
0000
1000
0100
0000
1000
0000
,  // measure 7
0001
1000
1001
0001
0100
0000
0001
1000
,  // measure 8
0100
0000
0000
0000
1000
0000
0001
0000
1000
0001
0000
0000
0010
0001
0010
0001
,  // measure 9
0100
0100
0100
0000
0001
1000
0100
0000
,  // measure 10
1000
1000
1000
0000
0100
0010
0001
0010
,  // measure 11
0100
0100
0100
0000
1000
0010
0100
0000
,  // measure 12
0002
0000
1000
0000
1003
0000
0000
0001
0100
0000
0200
0000
0000
0000
0000
0000
,  // measure 13
0301
0001
0001
0000
0010
0100
1000
0000
,  // measure 14
0001
0001
0001
0000
1000
0010
0100
0001
,  // measure 15
1000
1000
1000
0000
0100
0010
0001
2000
,  // measure 16
0001
0000
0000
0000
3001
1000
0002
0000
0000
0000
0100
0000
0103
0000
0010
0100
,  // measure 17
0010
1000
0100
0000
1100
1000
0001
0000
,  // measure 18
1001
0000
0001
0000
0100
0000
0000
0000
0001
0000
0001
0000
1000
0000
0010
0100
,  // measure 19
0010
0100
0001
0000
0101
0100
0010
0000
,  // measure 20
1001
0000
1000
0000
0100
0000
0000
0000
1000
0000
0001
0000
1000
0001
1000
0001
,  // measure 21
1000
0100
0010
0001
0010
0100
1000
0100
,  // measure 22
0010
0000
0001
0000
0010
0000
0100
0000
1000
0000
0001
0000
1000
0001
1000
0001
,  // measure 23
2000
0000
0001
0000
3001
0000
1001
1000
,  // measure 24
1001
0000
0001
0000
1000
0000
0010
0100
0000
0000
0001
0000
1100
0000
0100
0000
,  // measure 25
1100
0000
1000
0000
0002
0000
0000
0100
0000
0000
0103
0000
0010
0000
0000
0000
,  // measure 26
1001
0000
1000
0001
0000
1000
0001
0010
,  // measure 27
0100
0000
1000
0000
0010
0000
0000
0000
1000
0001
1000
0001
1000
0000
0001
0000
,  // measure 28
1001
0000
1000
0000
0001
0000
0100
0010
0000
0100
0000
0000
0101
0000
0001
0000
,  // measure 29
1001
0000
1000
0000
0020
0000
0000
0100
0000
0000
0130
0000
0001
0000
1000
0000
,  // measure 30
1001
0001
0010
0000
0001
1000
0100
0001
,  // measure 31
0100
0000
1000
0000
0001
1000
0000
0000
0100
1000
0100
1000
0001
0000
1000
0000
,  // measure 32
1001
0000
0001
0000
0100
0000
0010
0100
0000
0000
0001
0000
1001
0000
1000
0000
,  // measure 33
1010
0000
0010
0000
2000
0000
0000
0001
0000
0000
3001
0000
1000
0000
0010
0000
,  // measure 34
0110
0000
0100
0000
0002
0000
0000
1000
0000
0000
1003
0000
0001
0000
0010
0000
,  // measure 35
0100
0000
1000
0000
0010
0000
0000
0000
0100
0001
0100
0001
1000
0000
0001
0000
,  // measure 36
1001
0000
1000
0000
0001
0000
0100
0010
0000
0100
0000
0000
0101
0000
0100
0000
,  // measure 37
0110
0000
0010
0000
2000
0000
0000
0100
0000
0000
3100
0000
1000
0000
0001
0000
,  // measure 38
1001
1000
0010
0000
1000
0100
0001
0000
,  // measure 39
0100
0000
1000
0000
0001
1000
0000
0000
0100
1000
0100
1000
0001
0000
0000
1000
,  // measure 40
0001
0000
0000
1000
0001
0000
1000
0000
0010
0100
0010
0100
0000
0000
0000
0000
;

//---------------dance-single - ----------------
#NOTES:
     dance-single:
     :
     Beginner:
     2:
     0.105,0.130,0.121,0.000,0.000: // measure 1
1000
0000
1000
0000
,  // measure 2
0001
0000
0001
0000
,  // measure 3
0000
1001
0000
0000
,  // measure 4
1000
0000
0000
0000
,  // measure 5
0001
0000
0001
0000
,  // measure 6
1000
0000
1000
0000
,  // measure 7
0000
1001
0000
0000
,  // measure 8
0010
0000
0000
0000
,  // measure 9
0110
0000
0000
0000
,  // measure 10
0100
0000
0000
0000
,  // measure 11
0100
0000
0000
0000
,  // measure 12
0000
0000
0000
0000
,  // measure 13
0010
0000
0000
0000
,  // measure 14
0010
0000
0000
0000
,  // measure 15
0010
0000
0000
0000
,  // measure 16
0000
0000
0000
0000
,  // measure 17
1001
0000
1000
0000
,  // measure 18
1000
0000
0000
0000
,  // measure 19
1001
0000
0001
0000
,  // measure 20
0001
0000
0000
0000
,  // measure 21
1000
0000
1000
0000
,  // measure 22
0001
0000
0001
0000
,  // measure 23
1000
0000
1000
1001
,  // measure 24
0000
1000
0000
0001
,  // measure 25
0000
1000
0000
0000
,  // measure 26
1001
0000
0000
0010
,  // measure 27
0000
0000
0000
0100
,  // measure 28
0000
0010
0000
0100
,  // measure 29
0000
0010
0000
0000
,  // measure 30
0110
0000
0000
0100
,  // measure 31
0000
0000
0000
0001
,  // measure 32
0000
1000
0000
0001
,  // measure 33
0000
1000
0000
0000
,  // measure 34
1001
0000
0000
0010
,  // measure 35
0000
0000
0000
0100
,  // measure 36
0000
0010
0000
0100
,  // measure 37
0000
0010
0000
0000
,  // measure 38
0110
0000
0000
0001
,  // measure 39
0000
0000
0000
1000
,  // measure 40
0000
0000
1001
0000
;

//---------------dance-single - ----------------
#NOTES:
     dance-single:
     :
     Medium:
     6:
     0.306,0.283,0.484,0.176,0.000: // measure 1
2001
0100
0100
3000
,  // measure 2
1002
0010
0010
0003
,  // measure 3
1000
1001
1000
0001
,  // measure 4
0100
0010
0100
0000
0110
0000
0000
0000
,  // measure 5
1002
0100
0100
0103
,  // measure 6
2001
0010
0010
3010
,  // measure 7
1000
0001
1000
0000
1001
0000
0010
0000
,  // measure 8
0010
0001
1001
0000
,  // measure 9
0022
0000
0033
0000
,  // measure 10
2200
0000
3300
0000
,  // measure 11
0022
0000
0033
0000
,  // measure 12
0000
1000
0100
0000
0100
1000
0000
0000
,  // measure 13
2020
0000
3030
0000
,  // measure 14
0202
0000
0303
0000
,  // measure 15
2020
0000
3030
0000
,  // measure 16
0000
0100
0001
0000
0001
0100
0000
0000
,  // measure 17
0101
0000
0110
0000
,  // measure 18
1010
0000
0110
0000
,  // measure 19
1001
0000
1100
0000
,  // measure 20
0110
0000
0011
0000
,  // measure 21
1001
0001
1000
0001
,  // measure 22
1000
0100
0001
0100
,  // measure 23
1100
0000
1000
1001
,  // measure 24
1001
0100
1000
0110
,  // measure 25
0110
1000
0001
0010
,  // measure 26
1001
0000
0001
1000
0000
0010
1000
0000
,  // measure 27
0010
0110
0000
1001
,  // measure 28
1001
0010
0001
0110
,  // measure 29
0110
0001
1000
0010
,  // measure 30
0110
0000
0001
0000
1000
0010
1000
0000
,  // measure 31
0010
0100
0010
0000
0000
0000
1001
0000
,  // measure 32
1001
0010
1000
0110
,  // measure 33
0110
0001
1000
0010
,  // measure 34
1001
0000
1000
0000
0001
0100
0001
0000
,  // measure 35
0100
0000
0110
0000
0000
0000
1000
0001
,  // measure 36
1000
0000
0001
0100
0001
0000
0100
0010
,  // measure 37
0100
0000
0001
1000
0001
0000
1001
0000
,  // measure 38
0010
0000
1000
0000
0010
0100
0010
0000
,  // measure 39
0100
0010
0100
0000
0000
0000
1001
0000
,  // measure 40
0000
0000
0000
0000
1001
0001
0000
0000
;
