#TITLE:Arousing;
#SUBTITLE:;
#ARTIST:DJ TOTTO feat. 吉河順央;
#TITLETRANSLIT:;
#SUBTITLETRANSLIT:;
#ARTISTTRANSLIT:DJ TOTTO feat. SUNAO YOSHIKAWA;
#CREDIT:DigiMindAxel;
#BANNER:Arousing.png;
#BACKGROUND:Arousing-bg.png;
#LYRICSPATH:Arousing.lrc;
#CDTITLE:jubeat.png;
#MUSIC:Arousing.mp3;
#METERTYPE:DDR X;
#OFFSET:-13.021;
#SAMPLESTART:72.880;
#SAMPLELENGTH:12.000;
#SELECTABLE:YES;
#BPMS:0.000=179.000,104.000=89.500,132.000=179.000;
#STOPS:147.500=1.341
;
#BGCHANGES:;

//---------------dance-single - ----------------
#NOTES:
     dance-single:
     :
     Easy:
     5:
     0.220,0.289,0.102,0.110,0.000: // measure 1
1001
0000
0000
0000
,  // measure 2
0010
0000
0100
0000
,  // measure 3
0020
0000
0000
0030
,  // measure 4
0100
0000
0001
0000
,  // measure 5
2000
0000
0000
3000
,  // measure 6
0001
0000
1000
0000
,  // measure 7
0200
0000
0000
0300
,  // measure 8
1000
0000
0010
0000
,  // measure 9
0200
0000
0000
0300
,  // measure 10
0110
0000
0000
0000
,  // measure 11
0010
0000
0010
0000
,  // measure 12
0010
0000
0010
0000
,  // measure 13
0100
0000
0100
0000
,  // measure 14
0100
0000
0100
0000
,  // measure 15
0001
0000
0001
0000
,  // measure 16
1000
0000
1000
0000
,  // measure 17
0001
0000
0001
0000
,  // measure 18
0010
0000
0100
0000
,  // measure 19
1000
0000
1000
0000
,  // measure 20
0010
0000
0010
0000
,  // measure 21
0100
0000
0100
0000
,  // measure 22
0010
0000
0010
0000
,  // measure 23
1000
0000
0001
0000
,  // measure 24
1000
0000
0100
0000
,  // measure 25
0010
0000
0001
0000
,  // measure 26
0010
0000
0100
0000
,  // measure 27
1001
0000
0000
0000
,  // measure 28
1000
0000
0000
0000
,  // measure 29
0100
0000
0000
0000
,  // measure 30
0010
0000
0000
0000
,  // measure 31
1002
0000
0103
0000
,  // measure 32
2001
0000
3010
0000
,  // measure 33
2000
3001
2000
3001
,  // measure 34
1000
0001
1000
0000
,  // measure 35
0100
1000
0100
0000
,  // measure 36
0010
0001
0010
0001
,  // measure 37
1000
0000
0000
0000
,  // measure 38
1001
0001
1000
0000
,  // measure 39
0100
1000
0100
0000
,  // measure 40
1000
0001
1000
0000
,  // measure 41
0001
0100
0001
0000
,  // measure 42
0000
1001
0000
0000
,  // measure 43
1000
0100
1000
0000
,  // measure 44
0010
0100
0010
0000
,  // measure 45
1000
0001
1000
0000
,  // measure 46
0100
1000
0010
0000
,  // measure 47
0100
0010
0100
0000
,  // measure 48
0010
0100
0001
0000
,  // measure 49
1000
0001
1000
0000
,  // measure 50
0000
1001
0000
0000
,  // measure 51
0001
0100
0001
0000
,  // measure 52
0010
0001
0100
0000
,  // measure 53
0010
0100
0010
0100
,  // measure 54
0001
0000
0010
0000
,  // measure 55
0100
1000
0100
0000
,  // measure 56
1000
0000
0010
0000
,  // measure 57
0100
0001
0100
0000
,  // measure 58
0001
1000
0001
1000
,  // measure 59
0001
1000
0002
0000
,  // measure 60
1003
0100
1000
0100
,  // measure 61
1000
0001
1000
0000
,  // measure 62
0001
0100
0001
0100
,  // measure 63
0002
0000
2003
0000
,  // measure 64
3001
0100
0001
0100
,  // measure 65
0010
0100
0010
0000
,  // measure 66
1001
0000
0000
0110
,  // measure 67
0000
0000
0001
1000
,  // measure 68
1001
2002
0000
0000
,  // measure 69
0000
3003
0000
0000
;

//---------------dance-single - ----------------
#NOTES:
     dance-single:
     :
     Medium:
     8:
     0.402,0.433,0.161,0.246,0.000: // measure 1
2002
0000
0000
3003
,  // measure 2
1001
1000
0001
0000
,  // measure 3
0010
0001
0100
0010
,  // measure 4
0100
0001
0010
0100
,  // measure 5
1000
0010
0110
0000
,  // measure 6
0100
0010
0100
0001
,  // measure 7
1000
0100
0010
0100
,  // measure 8
1000
1000
0001
0001
,  // measure 9
1000
0100
0010
0001
,  // measure 10
2002
0000
0000
3003
,  // measure 11
1000
0100
1000
0100
,  // measure 12
1000
0001
1000
0001
,  // measure 13
1000
0100
1000
0100
,  // measure 14
1000
0010
0100
0010
,  // measure 15
0100
0001
0010
0100
,  // measure 16
1000
1000
1000
1000
,  // measure 17
0001
0001
0001
0001
,  // measure 18
1000
1000
1000
1000
,  // measure 19
1001
0010
0100
0001
,  // measure 20
1000
0100
0010
0001
,  // measure 21
1000
0100
1000
0010
,  // measure 22
0100
0001
0010
0100
,  // measure 23
1000
0001
1000
0010
,  // measure 24
0100
0100
0100
0100
,  // measure 25
0010
0010
0010
0010
,  // measure 26
1000
1000
1000
1000
,  // measure 27
1002
0013
0200
1300
,  // measure 28
0020
0130
0002
1003
,  // measure 29
0020
1030
0002
0103
,  // measure 30
0002
1003
0020
0130
,  // measure 31
1002
0000
0103
0000
0001
1000
0100
0000
,  // measure 32
2001
0000
3100
0000
1000
1000
0001
0000
,  // measure 33
0020
0000
0031
0000
0100
0010
1000
0000
,  // measure 34
0001
1000
0001
1000
,  // measure 35
0100
1000
0100
1000
,  // measure 36
0001
1000
0001
1000
,  // measure 37
0001
0000
0000
0000
0100
0000
0000
0000
0001
0000
0000
0000
0000
0000
0000
0000
0100
0000
0000
0000
0001
0000
0000
0000
0010
0000
0000
0000
0200
0300
0000
0000
,  // measure 38
1000
0001
0100
0000
0100
0000
0010
0100
,  // measure 39
0000
0001
0000
0001
0000
0000
1000
0001
,  // measure 40
1000
0000
0100
0000
0010
0000
0001
1000
,  // measure 41
0000
0010
0000
0010
0000
0010
0000
0010
,  // measure 42
0000
0000
2002
0000
3003
0000
0001
1000
,  // measure 43
0100
0010
0200
1000
,  // measure 44
1300
0000
0010
0100
0020
0000
0000
0000
,  // measure 45
1030
0001
1000
0000
0010
0100
0010
0000
,  // measure 46
1000
0001
0010
0000
0001
0000
1000
0001
,  // measure 47
0000
0100
0000
0100
0000
0000
0001
1000
,  // measure 48
0001
0000
0010
0000
0100
0000
1000
0001
,  // measure 49
0000
0001
0000
0001
1000
0000
0000
0000
,  // measure 50
0000
0000
2002
0000
3003
0000
1000
0001
,  // measure 51
1000
0010
0100
0001
,  // measure 52
0000
0000
1001
0000
0001
1000
0001
0000
,  // measure 53
0100
0100
0220
0330
,  // measure 54
0110
0020
1000
1030
,  // measure 55
0001
0010
0001
0000
0100
0010
0100
0000
,  // measure 56
0001
0000
1000
0000
0001
0000
1000
0100
,  // measure 57
0000
1000
0001
0001
,  // measure 58
1001
0000
0001
0000
0010
0100
0010
0000
,  // measure 59
0001
1000
0001
0000
2000
0000
0000
0000
,  // measure 60
3001
0010
0001
0000
0100
0010
1000
0000
,  // measure 61
0100
1000
0100
0010
0000
0010
0000
0010
,  // measure 62
0100
0000
1000
0001
1000
0000
0010
0100
,  // measure 63
0001
0001
0002
0000
,  // measure 64
1003
0001
1000
0000
0010
1000
0001
0000
,  // measure 65
0100
0010
0100
0010
0100
0000
0110
0000
,  // measure 66
0101
0000
0000
0101
0000
0000
1010
0000
,  // measure 67
0000
1010
0000
0000
0100
0000
0010
0000
,  // measure 68
1000
0001
2000
0002
0000
0000
0000
0000
,  // measure 69
0000
3003
0000
0000
;

//---------------dance-single - ----------------
#NOTES:
     dance-single:
     :
     Hard:
     12:
     0.573,0.578,0.373,0.271,0.030: // measure 1
1001
0000
0100
0000
0100
0100
0100
0000
,  // measure 2
1001
0000
0001
1000
0020
0000
2030
0000
,  // measure 3
3001
0010
0100
1000
0002
0000
1003
0000
,  // measure 4
0001
0010
0001
0010
0100
1000
0100
0020
,  // measure 5
0000
0000
0230
0000
0000
1300
0000
1000
,  // measure 6
1001
0000
1000
0010
0100
0100
0001
0001
,  // measure 7
2000
0000
3200
0000
1300
0001
0010
0000
,  // measure 8
0001
0010
0001
0010
0100
1000
0100
0020
,  // measure 9
0000
0130
1010
1010
,  // measure 10
2002
0000
0000
3003
,  // measure 11
0011
0000
0001
1000
0001
0000
0011
0000
,  // measure 12
1000
0100
1000
0001
1000
0100
1000
0000
,  // measure 13
1100
0000
1000
0001
1000
0000
1100
0000
,  // measure 14
1000
0001
0000
0001
0000
1000
0100
0000
,  // measure 15
1000
0000
1200
0000
1300
0000
0001
0010
,  // measure 16
0100
0010
0001
0010
0100
0010
0001
0000
,  // measure 17
1000
0010
0100
0010
1000
0010
0100
0000
,  // measure 18
0001
0010
0100
0010
0001
0010
0100
0000
,  // measure 19
1010
0000
0010
0100
0010
0000
1010
0000
,  // measure 20
0100
0001
1000
0001
0100
0001
1000
0000
,  // measure 21
1100
0000
0100
1000
0001
0000
0011
0000
,  // measure 22
0100
1000
0001
1000
0100
1000
0001
0000
,  // measure 23
1001
0000
0201
0000
0301
0000
1000
0100
,  // measure 24
0010
0100
1000
0100
0010
0100
1000
0000
,  // measure 25
0001
0100
0010
0100
0001
0100
0010
0000
,  // measure 26
1000
0010
0100
0010
1000
0010
0100
0000
,  // measure 27
1001
1000
0100
0010
0001
0100
1000
0000
,  // measure 28
0100
0010
1000
0100
0010
0001
1000
0000
,  // measure 29
0001
0010
1000
0010
0001
1000
0100
0000
,  // measure 30
1000
0010
0001
0010
1000
0001
0100
0000
,  // measure 31
1002
0000
0000
0000
0023
0000
0000
0000
0130
1000
0000
1000
0001
0000
0000
0000
,  // measure 32
2001
0000
0000
0000
3020
0000
0000
1030
0000
0001
0000
0001
0010
0000
0000
0000
,  // measure 33
0210
0000
0301
0000
0120
1000
2030
0000
,  // measure 34
3001
0100
0001
0000
1000
0010
1000
0000
,  // measure 35
0100
0010
0100
1000
0001
0010
0100
0000
,  // measure 36
1010
0101
1010
0101
,  // measure 37
0001
0000
0000
0000
0100
0000
0000
0000
1000
0000
0000
0000
0001
0000
0000
0000
0010
0000
0000
0000
1000
0000
0000
0000
0001
0000
0000
0000
2000
3000
0000
0000
,  // measure 38
0001
0100
1000
0100
0001
0000
1000
0020
,  // measure 39
0000
0100
0000
0130
0001
1000
0100
1000
,  // measure 40
0001
0010
1000
0010
0001
0000
1000
0020
,  // measure 41
0000
0100
0000
0130
0000
0001
0010
0100
,  // measure 42
0000
0000
1002
0000
0000
1000
1003
0100
,  // measure 43
0001
0000
0100
0000
1000
0000
0000
0000
0010
0000
0000
0100
0000
0000
0001
0000
,  // measure 44
0020
0000
0130
1000
0200
0000
0310
0000
,  // measure 45
0001
1000
0010
1000
0001
1000
0010
1000
,  // measure 46
0001
0010
1000
0010
0001
0000
1000
0020
,  // measure 47
0000
0100
0000
0130
0001
1000
0100
1000
,  // measure 48
0001
0010
1000
0010
0001
0000
1000
0020
,  // measure 49
0000
0100
0000
0130
0001
0000
1000
0001
,  // measure 50
1000
0000
2001
0000
0000
3001
0001
0010
,  // measure 51
1000
0010
0001
1000
0000
1000
0001
0000
,  // measure 52
0000
1001
0100
1001
,  // measure 53
0110
0000
0000
0000
0110
0000
0000
0000
0010
0000
0000
0100
0000
0000
0001
0000
,  // measure 54
1001
0000
1000
0100
1000
0001
0100
0000
,  // measure 55
0100
0001
0010
0100
1000
0100
0010
0000
,  // measure 56
0002
0000
1003
0010
0100
0010
0000
0110
,  // measure 57
0000
0000
0100
0010
1000
0000
1000
0000
,  // measure 58
1001
0000
1100
0000
0100
1000
0001
0000
,  // measure 59
1001
0000
0101
0000
0100
0001
1000
0000
,  // measure 60
0100
0010
0100
0010
0001
0100
0001
0100
,  // measure 61
0010
1000
0010
0100
0000
0100
0000
0100
,  // measure 62
0110
0000
0100
0001
1000
0100
1000
0001
,  // measure 63
0010
0100
1000
0001
0200
0000
0000
0000
,  // measure 64
0301
1000
0001
1000
0100
0001
0100
1000
,  // measure 65
0010
0100
0010
0100
0101
0000
0101
0000
,  // measure 66
0010
0010
0000
1000
1000
0000
0100
0100
,  // measure 67
0000
1000
1000
0000
1100
0000
0110
0000
,  // measure 68
0001
0001
0001
2002
0000
0000
0000
0000
,  // measure 69
0000
3003
0000
0000
;

//---------------dance-single - ----------------
#NOTES:
     dance-single:
     :
     Challenge:
     14:
     0.711,0.751,0.356,0.220,0.275: // measure 1
1001
0000
0000
0000
1000
0000
0000
0001
1000
0000
1000
0000
1001
0000
0000
0000
,  // measure 2
1000
0100
0010
0100
1000
1000
0001
0001
,  // measure 3
1000
0010
1000
0010
0200
0001
0302
0000
,  // measure 4
1003
0100
1000
0000
0001
0010
0001
0000
1000
0000
0010
0000
0100
0000
0001
0000
,  // measure 5
0000
0001
0010
0100
0010
0001
0000
0001
,  // measure 6
1000
0000
0000
0010
0000
0000
0100
0000
0000
0010
0000
0000
1000
0000
0000
1000
0000
0000
0001
0000
0010
0000
0001
0000
,  // measure 7
0200
0010
0320
0000
1030
0100
0010
0100
,  // measure 8
1000
0010
1000
0000
0001
0100
0001
0000
0010
0000
0100
0000
1000
0000
0001
0000
,  // measure 9
0000
0001
1000
0010
1010
0000
0101
0000
,  // measure 10
1001
0000
0000
0000
0001
0000
0000
1000
0001
0000
0001
0000
0002
0000
0000
0000
,  // measure 11
1003
0100
1000
0100
0010
0001
0010
0001
,  // measure 12
0100
0010
0100
0001
0010
0100
1100
0000
,  // measure 13
0001
0100
0001
0100
0010
1000
0010
1000
,  // measure 14
0100
0010
0100
1000
0010
0100
0001
0000
,  // measure 15
0001
0100
0020
1000
2030
0000
3001
0010
,  // measure 16
1000
0010
0001
0100
1000
0001
0010
1000
,  // measure 17
0001
0010
1000
0010
0001
0100
1000
0001
,  // measure 18
0010
0000
1000
0000
0001
0000
0100
0000
0010
1000
0001
0000
1001
0000
0000
0000
,  // measure 19
1000
0010
2000
0010
3010
0100
0001
0100
,  // measure 20
0001
0010
0100
0010
0001
1000
1010
0000
,  // measure 21
0010
0001
0010
0001
1000
0100
1000
0100
,  // measure 22
1000
0010
0100
0010
1000
0001
0010
0000
,  // measure 23
0001
1000
1020
0000
0130
0001
1000
0010
,  // measure 24
0001
0010
1000
0100
0001
1000
0010
0001
,  // measure 25
1000
0010
0001
0010
1000
0100
0001
1000
,  // measure 26
0010
0000
0001
0000
1000
0000
0010
1000
0010
1000
0001
0010
0001
0000
0000
0000
,  // measure 27
1001
0000
0001
0010
0001
0000
0001
1000
0010
0000
1000
0000
1010
0000
0000
0000
,  // measure 28
1000
0001
1000
0000
1000
0100
0010
0000
0100
1000
0000
1000
0001
0000
0000
0000
,  // measure 29
0100
0000
0100
0001
1000
0000
1000
0100
1000
0000
0010
0000
0110
0000
0000
0000
,  // measure 30
0100
0000
0100
1000
0001
0000
0001
0100
0010
1000
0000
1000
0001
0000
0000
0000
,  // measure 31
1002
0000
0000
0000
0000
0000
1000
0000
0000
0000
0000
0000
2003
0000
0000
0000
0000
0000
0010
0000
0000
0000
0000
0000
3010
0000
0000
1000
0000
0000
0100
0000
0000
0010
0000
0000
0001
0000
0000
0000
0000
0000
1000
0000
0001
0000
1000
0000
,  // measure 32
0002
0000
0000
0010
0000
0000
0023
0000
0000
0000
0000
0000
0130
0000
1000
0000
0010
0000
0200
0000
0000
0000
0000
0000
,  // measure 33
0302
0000
0000
0000
1003
0000
0010
0100
0020
0000
0100
0000
0130
0000
0000
0000
,  // measure 34
0001
0010
0001
0010
0001
1000
0001
0010
,  // measure 35
0001
1000
0010
0100
0010
1000
0001
0000
,  // measure 36
1001
0000
1000
0010
0110
0000
0100
0001
,  // measure 37
0100
0000
0001
0000
0100
0000
0001
0000
0100
0000
0001
0000
0100
0000
0001
0000
1000
0000
0001
0000
1000
0000
0001
0000
1000
0000
0001
0000
2000
3000
0000
0000
,  // measure 38
0001
0100
1000
0100
0001
0000
0100
0010
,  // measure 39
1000
0000
1000
0000
0001
0000
0000
0000
0001
0000
0001
0000
1000
0000
0010
0100
,  // measure 40
0001
0100
1000
0100
0001
0000
0010
0100
,  // measure 41
1000
0000
0001
1000
0000
1000
0010
0000
0010
0000
1000
0000
0100
0000
0010
0000
,  // measure 42
0100
0000
2100
0000
0000
0001
3001
1000
,  // measure 43
0010
0000
0010
0000
0100
0000
0000
0000
0001
0000
0000
0100
0000
0000
1000
0000
,  // measure 44
0200
0000
0310
1000
0001
0010
0100
0000
,  // measure 45
1000
0001
1000
0000
0010
0000
0100
0000
0001
1000
0001
1000
0001
1000
0001
0000
,  // measure 46
1000
0100
0001
0100
1000
0000
0010
0100
,  // measure 47
0001
0000
0001
0000
1000
0000
0000
0000
1000
0000
1000
0000
0001
0000
0100
0010
,  // measure 48
1000
0100
0001
0100
1000
0000
0100
0010
,  // measure 49
0001
0000
0100
0001
0000
0001
1000
0000
1000
0000
0100
0000
0010
0000
0001
0000
,  // measure 50
0100
0000
0102
0000
0000
1000
1003
0001
,  // measure 51
0100
0100
0010
0000
0010
0010
0100
1000
,  // measure 52
0001
0000
1001
0000
0001
0100
0110
0000
,  // measure 53
1001
0000
0000
0000
1001
0000
0000
0000
0011
0000
0000
0110
0000
0000
1100
0000
,  // measure 54
1001
0000
0001
0010
0100
0010
0001
0000
,  // measure 55
0001
0100
0010
1000
0010
0100
0001
0000
,  // measure 56
1000
0100
0010
0100
1000
0010
0100
0110
,  // measure 57
0000
0000
0010
0000
0100
0000
0001
0000
1000
0100
1000
0000
0001
0010
0001
0000
,  // measure 58
1001
0000
0011
0001
1000
0100
0010
0001
,  // measure 59
1001
0000
0000
1000
0010
0000
1000
0000
0002
0000
0010
0000
0023
0000
0000
0000
,  // measure 60
0130
1000
0100
0000
1000
0001
1000
0000
0001
0000
0100
0000
0010
0000
0100
0001
,  // measure 61
0100
0001
1000
1100
0000
1100
0000
1100
,  // measure 62
1001
0000
0000
0000
0000
0000
1000
0000
0000
0010
0000
0000
0200
0000
0000
0001
0000
0000
0301
0000
1000
0000
0100
0000
,  // measure 63
1000
0000
0001
1000
0001
0000
1000
0000
0020
0000
0000
0000
0000
0000
0000
0000
,  // measure 64
1030
0001
1000
0000
0001
0100
0001
0000
0010
0000
0100
0000
1100
0000
1000
0000
,  // measure 65
0001
0100
0001
0100
0010
1000
0010
1000
0010
0000
0000
0000
1010
0000
0000
0000
,  // measure 66
0100
0110
0000
0010
0011
0000
0100
1100
,  // measure 67
0000
1000
1001
0000
0101
0000
0110
0000
,  // measure 68
0010
0010
0010
2002
0000
0000
0000
0000
,  // measure 69
0000
3003
0000
0000
;

//---------------dance-single - ----------------
#NOTES:
     dance-single:
     :
     Beginner:
     3:
     0.105,0.142,0.102,0.000,0.000: // measure 1
1001
0000
0000
0000
,  // measure 2
1000
0000
0100
0000
,  // measure 3
1000
0000
0000
0000
,  // measure 4
0100
0000
0010
0000
,  // measure 5
0100
0000
0000
0000
,  // measure 6
1000
0000
0001
0000
,  // measure 7
1000
0000
0000
0000
,  // measure 8
0001
0000
0010
0000
,  // measure 9
0001
0000
0000
0000
,  // measure 10
0110
0000
0000
0000
,  // measure 11
0100
0000
0000
0000
,  // measure 12
0010
0000
0000
0000
,  // measure 13
0100
0000
0000
0000
,  // measure 14
0010
0000
0000
0000
,  // measure 15
0100
0000
0000
0000
,  // measure 16
0001
0000
0000
0000
,  // measure 17
0001
0000
0000
0000
,  // measure 18
0001
0000
0000
0000
,  // measure 19
1001
0000
0000
0000
,  // measure 20
1000
0000
0000
0000
,  // measure 21
0001
0000
0000
0000
,  // measure 22
1000
0000
0000
0000
,  // measure 23
0001
0000
0000
0000
,  // measure 24
0100
0000
0000
0000
,  // measure 25
0100
0000
0000
0000
,  // measure 26
0100
0000
0000
0000
,  // measure 27
0110
0000
0000
0000
,  // measure 28
0000
0000
0000
0000
,  // measure 29
0000
0000
0000
0000
,  // measure 30
0000
0000
0000
0000
,  // measure 31
0110
0000
0000
0000
,  // measure 32
0001
0000
0000
0000
,  // measure 33
1000
0000
0001
0000
,  // measure 34
1001
0000
0000
0000
,  // measure 35
1000
0000
0000
0000
,  // measure 36
0010
0000
0000
0000
,  // measure 37
0100
0000
0000
0000
,  // measure 38
1001
0000
0000
0000
,  // measure 39
0001
0000
0000
0000
,  // measure 40
0010
0000
0000
0000
,  // measure 41
0100
0000
0000
0000
,  // measure 42
0000
1001
0000
0000
,  // measure 43
1000
0000
0000
0000
,  // measure 44
0001
0000
0000
0000
,  // measure 45
1000
0000
0000
0000
,  // measure 46
0010
0000
0000
0000
,  // measure 47
0100
0000
0000
0000
,  // measure 48
0010
0000
0000
0000
,  // measure 49
1000
0000
0000
0000
,  // measure 50
0000
1001
0000
0000
,  // measure 51
0001
0000
0000
0000
,  // measure 52
1000
0000
0000
0000
,  // measure 53
0100
0000
0000
0000
,  // measure 54
1001
0000
0000
0000
,  // measure 55
0001
0000
0000
0000
,  // measure 56
0100
0000
0000
0000
,  // measure 57
0010
0000
0000
0000
,  // measure 58
1000
0000
1000
0000
,  // measure 59
1000
0000
0000
0000
,  // measure 60
0001
0000
0001
0000
,  // measure 61
0001
0000
0000
0000
,  // measure 62
0010
0000
0100
0000
,  // measure 63
1000
0000
0100
0000
,  // measure 64
0010
0000
0010
0000
,  // measure 65
0001
0000
0100
0000
,  // measure 66
0110
0000
0000
0000
,  // measure 67
0000
0000
0000
0000
,  // measure 68
1001
0000
0000
0000
;
