#TITLE:Ancient Scapes;
#SUBTITLE:;
#ARTIST:Durandal;
#TITLETRANSLIT:;
#SUBTITLETRANSLIT:;
#ARTISTTRANSLIT:;
#CREDIT:DigiMindAxel;
#BANNER:Ancient Scapes.png;
#BACKGROUND:Ancient Scapes-bg.png;
#LYRICSPATH:;
#CDTITLE:beatmania IIDX.png;
#MUSIC:Ancient Scapes.mp3;
#METERTYPE:DDR X;
#OFFSET:-12.740;
#SAMPLESTART:34.308;
#SAMPLELENGTH:12.000;
#SELECTABLE:YES;
#BPMS:0.000=178.000,192.000=89.000,206.000=178.000;
#STOPS:;
#BGCHANGES:;

//---------------dance-single - ----------------
#NOTES:
     dance-single:
     :
     Easy:
     5:
     0.235,0.311,0.111,0.150,0.000:
1000
0000
1000
0000
,
0100
0000
0100
0000
,
1000
0000
1000
0000
,
0002
0000
0000
0000
,
0103
0000
0100
0000
,
0001
0000
0001
0000
,
0100
0000
0100
0000
,
2002
0000
0000
3003
,
0001
1000
0001
0000
,
1000
0001
1000
0000
,
0001
1000
0001
0000
,
1000
0001
1000
0000
,
0100
1000
0100
0000
,
0010
0001
0010
0000
,
0001
0100
0001
0000
,
0200
0000
0000
0300
,
1001
0000
0001
0000
,
0010
0000
0001
0000
,
0100
0000
0010
0000
,
0100
0000
0010
0000
,
1000
0000
0001
0000
,
1000
0000
0001
0000
,
1000
0000
0010
0000
,
0010
0000
0000
0000
,
0110
0000
0100
0000
,
0010
0000
0100
0000
,
0001
0000
0001
0000
,
1000
0000
1000
0000
,
0010
0000
0100
0000
,
0010
0000
0100
0000
,
0001
0000
1000
0000
,
0002
0000
0000
0003
,
1001
0000
1000
0010
,
0100
0000
0010
0000
,
0100
0001
0010
0000
,
0001
0000
1000
0000
,
0001
0010
0001
0000
,
0100
0010
1000
0000
,
0010
0100
0010
0000
,
0220
0000
0000
0330
,
0100
0000
0001
0000
,
0010
0001
0010
0000
,
0001
0000
1000
0000
,
0100
1000
0100
0000
,
0010
0000
0010
0000
,
0110
0000
0100
0000
,
1001
0000
1001
0000
,
2002
0000
0000
3003
,
0210
0000
0300
0000
,
0020
0000
0030
0000
,
0200
0000
0300
0000
,
0002
0000
1003
0000
,
0000
0000
0001
0000
,
0001
0000
0010
0000
,
0010
0000
0100
0000
,
0100
0000
1000
0000
,
1000
0000
0001
1000
,
0001
0000
1000
0001
,
1000
0000
0100
0100
,
0100
0100
0220
0000
,
0000
0330
0010
0100
,
0001
0000
1000
0001
,
1000
0000
0100
1000
,
0010
0000
0100
0001
,
0010
0000
0001
1000
,
0001
0000
0010
0001
,
0010
0000
0001
1000
,
0010
0000
0100
0001
,
1000
0000
1001
0001
,
1000
0000
0100
1000
,
0100
0000
0010
0001
,
0010
0001
1000
0000
,
0001
0000
0100
0010
,
0100
0010
0100
0001
,
0100
0001
1000
0000
,
0001
0000
2002
0000
,
0000
3003
0220
0000
,
0000
0000
0000
0000
,
0000
0000
0330
0000
;

//---------------dance-single - ----------------
#NOTES:
     dance-single:
     :
     Medium:
     10:
     0.470,0.528,0.301,0.158,0.016: // measure 1
0001
0100
0001
0100
,  // measure 2
0010
0001
0010
1000
,  // measure 3
0001
1000
0001
1000
,  // measure 4
0010
0100
0000
0010
0200
0000
0000
0000
,  // measure 5
0301
0010
0001
0010
,  // measure 6
0100
0001
1000
0001
,  // measure 7
1000
0010
0100
0001
,  // measure 8
2002
0000
0000
3003
,  // measure 9
0110
0100
0100
0100
,  // measure 10
0101
0000
0001
0000
0001
1000
0001
0000
,  // measure 11
1001
1000
1000
1000
,  // measure 12
0100
0000
0100
0000
0100
0010
0100
0000
,  // measure 13
1000
0010
1000
0010
0100
0001
0100
0001
,  // measure 14
1000
0001
1000
0001
1000
0100
1000
0100
,  // measure 15
1000
0001
1000
0001
1000
0001
1000
0010
,  // measure 16
0220
0000
0000
0330
,  // measure 17
0110
0000
0010
0000
1000
0100
0010
0000
,  // measure 18
0100
0000
0010
0000
0001
0100
0010
0000
,  // measure 19
0100
0000
0010
1000
0100
0000
1000
0001
,  // measure 20
1000
0000
0010
1000
0100
0000
1000
0001
,  // measure 21
1000
0000
0001
0000
1000
0000
0001
0010
,  // measure 22
0100
0000
0010
0000
0100
0000
1000
0001
,  // measure 23
0100
0000
0001
0000
0100
0000
0010
1000
,  // measure 24
0100
0000
1000
0100
0010
0000
0010
0000
,  // measure 25
1001
0000
0001
0000
1000
0010
0100
0000
,  // measure 26
0010
0000
1000
0000
0100
0010
0001
0000
,  // measure 27
1000
0000
0010
0000
0100
0001
0010
0000
,  // measure 28
0001
0000
0010
0000
0100
1000
0010
0000
,  // measure 29
0100
0010
0100
0010
0100
0010
0100
0000
,  // measure 30
0001
1000
0001
1000
0001
1000
0001
0000
,  // measure 31
0011
0010
0110
0100
,  // measure 32
2200
0000
0000
3300
,  // measure 33
1001
0001
0101
0001
,  // measure 34
1001
0001
0101
0001
,  // measure 35
1001
1000
1100
1000
,  // measure 36
1100
1000
1100
0100
,  // measure 37
0110
0010
0110
0100
,  // measure 38
0110
0010
0110
0100
,  // measure 39
0101
0001
0101
0100
,  // measure 40
0001
1000
0001
1000
0100
0010
0001
0000
,  // measure 41
2001
0001
0001
3001
,  // measure 42
0200
0001
0001
0301
,  // measure 43
1002
1000
1000
1003
,  // measure 44
0200
1000
1000
1300
,  // measure 45
0001
1000
0001
0000
0100
0001
0100
0000
,  // measure 46
0001
1000
0001
0000
1000
0100
1000
0000
,  // measure 47
1001
1001
0110
0110
,  // measure 48
0202
0000
0000
0303
,  // measure 49
1001
0000
0000
0001
0000
0000
0010
0000
0000
0000
0000
0000
0000
0000
0000
0000
,  // measure 50
0001
0000
0000
1000
0000
0000
0100
0000
0000
0000
0000
0000
0000
0000
0000
0000
,  // measure 51
0010
0000
0000
0100
0000
0000
1000
0000
0000
0000
0000
0000
0000
0000
0000
0000
,  // measure 52
0010
0000
0000
0100
0000
0000
0001
0000
2002
0000
0000
0000
0000
0000
0000
0000
,  // measure 53
0000
3003
1000
0100
,  // measure 54
1000
0100
0010
0001
,  // measure 55
0010
0001
1000
0010
,  // measure 56
1000
0010
0100
0001
,  // measure 57
0100
0000
0001
0000
1000
0001
1000
0000
,  // measure 58
1000
0001
0100
0000
0001
1000
0001
0000
,  // measure 59
0001
0010
0100
0000
1000
0001
1000
0100
,  // measure 60
0010
0001
0010
0100
2000
0000
0000
0000
,  // measure 61
0000
0000
3000
0000
0001
0010
0100
0000
,  // measure 62
0010
0000
0001
1000
0010
1000
0100
0000
,  // measure 63
0010
0000
0001
0010
0100
1000
0010
0000
,  // measure 64
0100
0000
0001
1000
0100
0010
0100
0000
,  // measure 65
1000
0000
0010
0100
0001
0010
0001
0000
,  // measure 66
1000
0000
0010
0100
0001
1000
0100
0000
,  // measure 67
1000
0000
0001
0010
0100
0010
0001
0000
,  // measure 68
0100
0000
0010
1000
0100
0000
1100
0000
,  // measure 69
1100
0000
1001
0001
,  // measure 70
1000
0100
0010
0000
0100
0000
1000
0000
,  // measure 71
0010
0100
0001
0000
1000
0000
0100
0000
,  // measure 72
0010
0100
1000
0000
0010
0000
0100
0000
,  // measure 73
0001
0100
0010
0000
0100
0010
0100
0010
,  // measure 74
0100
0010
0100
0000
0001
1000
0001
1000
,  // measure 75
0001
1000
0001
0000
0010
0100
1000
0000
,  // measure 76
1000
0001
0100
0000
0202
0000
0000
0000
,  // measure 77
0000
0303
0220
0000
,  // measure 78
0000
0000
0000
0000
,  // measure 79
0000
0000
0330
0000
;

//---------------dance-single - ----------------
#NOTES:
     dance-single:
     :
     Hard:
     14:
     0.657,0.776,0.340,0.190,0.502: // measure 1
1001
1000
1000
0010
,  // measure 2
0100
0100
0100
0001
,  // measure 3
0010
0010
0010
0100
,  // measure 4
0010
0000
0001
0000
0000
0100
0000
0000
0010
0000
0000
0000
1000
0000
0001
0000
,  // measure 5
0011
0010
0010
0100
,  // measure 6
1000
1000
1000
0010
,  // measure 7
0100
0100
0100
0001
,  // measure 8
0202
0000
0000
0303
,  // measure 9
0001
0000
1000
0000
0000
0100
0000
0000
0001
0000
0000
0100
0000
0000
1000
0001
,  // measure 10
0000
0000
1000
0000
0000
0010
0000
0000
0001
0000
0000
0010
0000
0000
1000
0001
,  // measure 11
0000
0000
1000
0000
0000
1000
0000
0000
0100
0000
0000
0100
0000
0000
0001
1000
,  // measure 12
0000
0000
0001
0000
0000
0001
0000
0000
1000
0000
0000
1000
0000
0000
0010
0100
,  // measure 13
0010
1000
0100
1000
0001
0010
0100
0010
,  // measure 14
0001
0000
1000
0000
0010
0000
1000
0000
0001
0010
0000
0001
0010
0000
0001
1000
,  // measure 15
0001
0000
0010
0000
0100
0000
1000
0000
0001
0100
0001
0000
1000
0001
1000
0000
,  // measure 16
0000
0000
1001
0000
0000
0001
0000
0000
0010
0000
0000
0100
0000
0000
1000
0000
,  // measure 17
0001
0000
0100
0000
0010
0000
0100
0000
0001
0000
0100
0000
0010
0000
0100
0001
,  // measure 18
0000
0000
0010
0000
0100
0000
1000
0000
0100
0000
0010
0000
0100
0000
1000
0001
,  // measure 19
0000
0000
0010
0000
0000
0100
0000
0000
1000
0000
0000
0010
0000
0000
0100
0001
,  // measure 20
0000
0000
0010
0000
0000
0100
0000
0000
1000
0000
0000
0010
0000
0000
0100
0001
,  // measure 21
1000
0000
0100
0000
0010
0000
0100
0000
1000
0000
0100
0000
0010
0000
0001
0100
,  // measure 22
0000
0000
0010
0000
1000
0000
0100
0000
1000
0000
0010
0000
1000
0000
0100
0010
,  // measure 23
0000
0000
0001
0000
0000
0100
0000
0000
0010
0000
0000
1000
0000
0000
0100
0010
,  // measure 24
0000
0000
0001
0000
0000
0100
0000
0000
1010
0000
0000
1000
0000
0000
0100
0010
,  // measure 25
0100
0000
1000
0000
0100
0000
0001
0000
0001
0000
0100
0000
1000
0000
0001
1000
,  // measure 26
0000
0000
0001
0000
0100
0000
1000
0000
0100
0000
0001
0000
1000
0000
0100
1000
,  // measure 27
0000
0000
0001
0000
0100
0001
0000
0000
0010
0000
0100
0000
1000
0000
0001
0100
,  // measure 28
0000
0000
0001
0000
0100
0001
0000
0000
0010
0000
0100
0000
1000
0000
0001
0100
,  // measure 29
0001
0000
0100
0000
0001
0000
0100
0000
0010
0000
1000
0000
0010
0000
1000
0001
,  // measure 30
1000
0000
0100
0000
0010
0000
0100
0000
0010
0001
0000
0010
0001
0000
1000
0000
,  // measure 31
0100
1000
0100
0000
1000
0000
0100
0000
0010
0000
0001
0100
0001
0000
1000
0010
,  // measure 32
2000
0000
0000
3000
,  // measure 33
1001
1001
1100
1100
,  // measure 34
1001
1001
0101
0101
,  // measure 35
0110
0110
0101
0101
,  // measure 36
0110
0000
0110
0000
0110
0000
0010
1000
,  // measure 37
1001
1001
0011
0011
,  // measure 38
0110
0110
1010
1010
,  // measure 39
0110
0000
0000
0000
0110
0000
0000
0000
1001
0000
0000
0000
1000
0000
0001
0100
,  // measure 40
0001
0100
0001
0100
0001
0100
0001
0100
0001
0000
1000
0000
1100
0000
0000
0000
,  // measure 41
2001
0010
0100
3001
,  // measure 42
1002
0100
0010
1003
,  // measure 43
0100
1000
0100
0010
0001
1000
1000
0000
,  // measure 44
0001
1000
0010
0100
0001
1000
1000
0000
,  // measure 45
0001
0000
0010
0000
0100
0000
1000
0000
0001
0000
0010
0000
0100
0000
1000
0001
,  // measure 46
1000
0000
0010
0000
0100
0000
0001
0000
1000
0001
0000
1000
0001
0000
1000
0100
,  // measure 47
1000
0001
1000
1000
0001
0010
0001
0001
,  // measure 48
2002
0000
0000
3003
,  // measure 49
1200
0000
0000
0000
0000
0000
2300
0000
0000
0000
0000
0000
3002
0000
0000
0000
0000
0000
0000
0000
0000
0000
0000
0000
0000
0000
1003
0000
0000
0010
0000
0000
,  // measure 50
0200
0000
0000
0000
0000
0000
0302
0000
0000
0000
0000
0000
0203
0000
0000
0000
0000
0000
0000
0000
0000
0000
0000
0000
0301
0000
0000
0010
0000
0000
0100
0000
,  // measure 51
0020
0000
0000
0000
0000
0000
0032
0000
0000
0000
0000
0000
0023
0000
0000
0000
0000
0000
0000
0000
0000
0000
0000
0000
0000
0000
0031
0000
0000
1000
0000
0000
,  // measure 52
0020
0000
0000
0230
0000
0000
0310
0000
0202
0000
0000
0000
0000
0000
0000
0000
,  // measure 53
0000
0000
0000
0000
0303
0000
0000
0000
0001
0000
1000
0000
0001
1000
0001
1000
,  // measure 54
0001
1000
0001
1000
0001
0000
1000
0000
0100
0000
1000
0000
0100
1000
0100
1000
,  // measure 55
0100
1000
0100
1000
0100
0000
1000
0000
0001
0000
0100
0000
0001
0100
0001
0100
,  // measure 56
0001
0100
0001
0100
0001
0000
0100
0000
0001
0000
1000
0000
0001
1000
0001
1000
,  // measure 57
0001
1000
0001
1000
0001
0000
1000
0000
0001
0000
0010
0000
0100
0000
0000
0000
,  // measure 58
0100
1000
0001
0000
0001
0100
1000
0000
,  // measure 59
1000
0000
0100
0000
0001
0000
0000
0000
0010
0000
0100
0000
1000
0001
1000
0000
,  // measure 60
0010
1000
0010
0000
0100
0001
0100
0000
0002
0000
0000
0000
0000
0000
0000
0000
,  // measure 61
0000
0000
0000
0000
0000
0000
0000
0000
1003
0000
0010
0000
1000
0001
0000
0000
,  // measure 62
0010
0000
0100
0010
0100
0000
1000
0001
0000
0000
0010
0000
0100
0010
0000
0000
,  // measure 63
0001
0000
1000
0010
1000
0000
0100
0010
0000
0000
0001
0000
1000
0010
0000
0000
,  // measure 64
1000
0000
0000
1001
0000
0000
0001
0010
0000
0000
0001
0000
1000
0100
0000
0000
,  // measure 65
1000
0000
0000
1001
0000
0000
0001
0010
0001
0000
1000
0000
0010
0100
0000
0000
,  // measure 66
0010
0000
1000
0001
1000
0000
0001
0010
0000
0000
0001
0000
1000
0100
0000
0000
,  // measure 67
1000
0000
0001
1000
0001
0000
0100
0010
0000
0000
1000
0000
0001
1000
0000
0000
,  // measure 68
0010
0000
0000
0110
0000
0000
0100
0010
0100
0000
0000
0000
1001
0000
0000
0000
,  // measure 69
0110
0000
0000
0000
0000
0000
0000
0000
0100
0000
0001
0000
0000
1000
0000
0000
,  // measure 70
0100
0000
0000
0001
0000
0000
0100
1000
0000
0000
0001
0000
0000
1000
0000
0000
,  // measure 71
0010
0000
0000
0001
0000
0000
0010
1000
0000
0000
0100
0000
0000
0010
0000
0000
,  // measure 72
0100
0000
0000
1000
0000
0000
0001
0100
0000
0000
0010
0000
0000
0100
0000
0000
,  // measure 73
0001
0000
0000
0100
0000
0000
0001
1000
0001
0000
0010
0000
0100
0000
1000
0000
,  // measure 74
0010
0000
0001
0000
0010
0000
1000
0001
1000
0000
0100
0000
0010
0000
0001
0000
,  // measure 75
1000
0010
0000
1000
0010
0000
1000
0001
1000
0000
0001
0000
0010
0001
0010
0001
,  // measure 76
0010
0000
0100
0000
1000
0001
1000
0001
2000
0000
0000
0000
0000
0000
0000
0000
,  // measure 77
0000
3000
0220
0000
,  // measure 78
0000
0000
0000
0000
,  // measure 79
0000
0000
0330
0000
;

//---------------dance-single - ----------------
#NOTES:
     dance-single:
     :
     Challenge:
     16:
     0.860,0.839,0.601,0.174,0.918: // measure 1
1000
0010
0100
0000
0010
0000
0110
0000
,  // measure 2
0010
0010
0100
1000
0010
0000
1010
0000
,  // measure 3
1000
0001
0010
0000
0001
0000
0011
0000
,  // measure 4
0010
0000
0100
0000
0000
0100
0000
0000
0010
0100
0010
0000
1000
0001
1000
0000
,  // measure 5
1001
0000
0001
0010
0100
0000
0110
0000
,  // measure 6
0010
0010
1000
0010
0100
0000
0110
0000
,  // measure 7
0100
0010
0001
0000
0010
0000
0011
0000
,  // measure 8
2002
0000
0000
3003
,  // measure 9
0001
0000
1000
0001
0000
0001
1000
0000
0001
0000
0100
0001
0100
0000
0001
1000
,  // measure 10
0001
0000
0100
0010
0000
0010
0100
0000
0001
0000
1000
0010
1000
0000
0001
1000
,  // measure 11
0001
0000
1000
0100
0000
1000
0100
0000
0010
0001
0000
0100
0010
0000
1000
0001
,  // measure 12
1000
0000
0001
0100
0000
0001
0100
0000
0010
1000
0000
0100
0010
0000
0001
1000
,  // measure 13
0001
0000
0100
0000
0010
0000
0001
0000
0010
0000
1000
0000
0001
0000
1000
0001
,  // measure 14
1000
0000
0100
0000
0010
0000
0001
0000
1000
0010
0000
0010
0100
0000
0100
0001
,  // measure 15
1000
0100
1000
0100
1000
0100
1000
0100
1000
0001
1000
0001
1000
0001
1000
0000
,  // measure 16
0000
0000
1010
0000
0000
0110
0000
0000
0101
0000
0000
1001
0000
0000
0001
1000
,  // measure 17
0001
0000
0010
0000
0100
0010
0000
0000
0001
1000
0000
1000
0001
0000
0100
0001
,  // measure 18
0100
0000
0010
0000
1000
0100
0000
0000
1000
0001
0000
0001
1000
0000
0001
0100
,  // measure 19
0000
0000
1010
0000
0000
1010
0000
0000
0110
0000
0000
0101
0000
0000
0001
1000
,  // measure 20
0001
0000
0011
0000
0000
0011
0000
0000
0110
0000
0000
1100
0000
0000
1000
0001
,  // measure 21
1000
0000
0010
0000
0100
0001
0000
0000
1000
0001
0000
0001
1000
0000
0100
1000
,  // measure 22
0100
0000
1000
0000
0001
0010
0000
0000
0100
0010
0000
0010
0100
0000
1000
0010
,  // measure 23
1000
0000
1001
0000
0000
1001
0000
0000
0011
0000
0000
1100
0000
0000
0100
0010
,  // measure 24
0100
0000
0110
0000
0000
0110
0000
0000
0101
0000
0000
1010
0000
0000
1000
0000
,  // measure 25
0001
0000
0100
0000
0010
1000
0000
0000
0100
0010
0000
0010
0001
0000
1000
0001
,  // measure 26
1000
0000
0010
0000
0100
0001
0000
0000
0010
0100
0000
0100
1000
0000
0010
0100
,  // measure 27
0010
0000
1000
0100
0000
1000
0100
0000
0010
0100
0000
1000
0001
0000
0100
0001
,  // measure 28
0100
0000
0001
0010
0000
0001
0010
0000
0100
0010
0000
0001
1000
0000
0001
0010
,  // measure 29
0100
1000
0100
0000
1000
0000
0010
0000
0100
0001
0100
0000
0001
0000
0010
0100
,  // measure 30
1000
0000
0010
0000
0100
0000
0010
0000
1000
0001
0000
0001
1000
0100
0010
0001
,  // measure 31
1000
0010
1000
0010
1000
0001
1000
0001
1000
0000
1000
0010
0100
0000
0100
0001
,  // measure 32
0020
0000
0000
0030
,  // measure 33
1001
0000
0001
0100
0101
0000
0110
0000
,  // measure 34
1001
0000
1000
0010
1010
0000
0110
0000
,  // measure 35
0011
0000
0010
0100
0110
0000
1100
0000
,  // measure 36
0011
0000
0000
0000
0010
0000
0100
0000
0110
0000
0000
0000
0100
1000
0100
1000
,  // measure 37
0010
0000
0100
0001
0011
0000
0110
0000
,  // measure 38
1001
0000
0001
0100
0110
0000
1100
0000
,  // measure 39
1001
0000
0000
0000
1000
0000
0010
0000
0110
0000
0000
0000
1001
0000
1000
0100
,  // measure 40
1000
0100
1000
0100
1000
0100
1000
0100
1000
0000
0010
0100
0001
0000
0001
1000
,  // measure 41
0001
0010
0100
0010
0011
0000
1100
0000
,  // measure 42
1000
0010
0100
0001
0101
0000
1010
0000
,  // measure 43
0010
0100
1000
0100
0110
0000
0101
0000
,  // measure 44
0100
0000
0001
0000
0010
0000
0001
0000
0101
0000
0000
0000
0110
0000
0010
0100
,  // measure 45
0010
0000
1000
0000
0100
0000
1000
0001
0010
0000
0010
0000
0001
0000
0100
0010
,  // measure 46
1000
0000
1000
0000
0100
0000
0010
0001
0100
0010
0000
0010
0100
0000
0001
1000
,  // measure 47
0001
1000
0001
1000
0001
0010
0001
0010
0001
0010
0100
1000
0010
1000
0010
1000
,  // measure 48
0002
0000
0000
0000
0000
0000
0000
0000
0000
0000
0000
0000
1003
0001
1000
0001
,  // measure 49
2000
0000
0000
0000
0000
0000
3200
0000
0000
0000
0000
0000
0320
0000
0000
0000
0000
0000
0000
0000
0000
0000
0000
0000
0000
0000
0031
0000
0000
1000
0000
0000
,  // measure 50
0002
0000
0000
0000
0000
0000
0203
0000
0000
0000
0000
0000
0320
0000
0000
0000
0000
0000
0000
0000
0000
0000
1030
0001
1000
0000
0000
0010
0000
0000
0100
0000
,  // measure 51
0102
0000
0000
0000
0000
0000
2003
0000
0000
0000
0000
0000
3200
0000
0000
0000
0000
0000
0000
0000
0000
0000
0000
0000
0000
0000
1300
0000
0000
0001
0000
0000
,  // measure 52
0021
0000
0000
0230
0000
0000
1300
0000
2002
0000
0000
0000
0000
0000
0000
0000
,  // measure 53
0000
0000
0000
0000
3003
0000
0000
0000
1001
0000
0001
0000
1000
0100
0010
0100
,  // measure 54
1000
0100
0010
0100
1000
0000
0010
0000
0110
0000
0100
0000
0001
0010
0100
0010
,  // measure 55
0001
0010
0100
0010
0001
1000
0000
1000
0001
0000
1000
0000
0001
0100
0010
0100
,  // measure 56
0001
0100
0010
0100
0001
0000
0100
0000
0110
0000
0010
0000
1000
0010
0100
0010
,  // measure 57
1000
0010
0100
0010
1000
0001
0000
0001
1000
0000
1000
0000
0010
1000
0100
0010
,  // measure 58
0001
0000
0001
0000
0010
0100
1000
0010
0100
0000
0100
0000
0010
0100
0001
0010
,  // measure 59
0100
0000
0100
0000
1000
0001
0100
0010
1000
0000
1000
0000
0100
1000
0010
0100
,  // measure 60
0001
0010
0001
1000
0010
0100
0001
0010
0002
0000
0000
0000
0000
0000
0000
0000
,  // measure 61
0000
0000
0000
0000
1003
0001
1000
0001
1000
0000
0100
1000
0000
1000
0100
0000
,  // measure 62
0010
0001
0000
0100
0010
0000
1000
0001
1000
0000
0001
0100
0000
0100
0001
0000
,  // measure 63
0010
0100
0000
1000
0001
0000
0010
0001
0010
0000
0101
0000
0000
1010
0000
0000
,  // measure 64
0110
0000
0000
0101
0000
0000
0001
1000
0001
0000
0011
0000
0000
1100
0000
0000
,  // measure 65
0110
0000
0000
1001
0000
0000
1000
0001
1000
0000
0001
0100
0000
0100
0001
0000
,  // measure 66
1000
0100
0000
0010
0100
0000
1000
0001
1000
0000
0100
1000
0000
1000
0100
0000
,  // measure 67
0010
0001
0000
0100
0010
0000
1000
0001
1000
0000
1100
0000
0000
0011
0000
0000
,  // measure 68
0110
0000
0000
1001
0000
0000
0001
1000
0001
0000
0000
0000
0101
0000
0000
0000
,  // measure 69
0120
0000
0000
0100
0000
0000
0130
0000
0001
0000
1000
0100
0000
0100
0010
0000
,  // measure 70
0001
0100
0000
1000
0100
0000
0001
1000
0001
0000
1000
0010
0000
0010
0100
0000
,  // measure 71
0001
0100
0000
1000
0100
0000
0001
1000
0001
0000
0100
0001
0000
0001
1000
0000
,  // measure 72
0001
0100
0000
1000
0100
0000
0001
1000
0001
0000
0010
0001
0000
0001
1000
0000
,  // measure 73
0001
0100
0000
1000
0100
0000
0001
1000
0001
0000
0010
0000
1000
0000
0010
0000
,  // measure 74
0001
1000
0000
1000
0100
0000
0010
0100
1000
0000
0010
0000
0001
0000
0010
0000
,  // measure 75
1000
0001
0000
0001
0100
0000
0010
1000
0001
0010
0100
1000
0010
1000
0001
0010
,  // measure 76
0100
1000
0010
1000
0001
0100
0010
0100
0002
0000
0000
0000
0000
0000
0000
0000
,  // measure 77
1000
0000
0000
1000
0000
0000
1003
0000
0202
0000
0000
0000
0000
0000
0000
0000
,  // measure 78
0000
0000
0000
0000
,  // measure 79
0000
0000
0303
0000
;

//---------------dance-single - ----------------
#NOTES:
     dance-single:
     :
     Beginner:
     3:
     0.113,0.182,0.127,0.000,0.000:
0001
0000
0000
0000
,
0001
0000
0000
0000
,
0001
0000
0000
0000
,
0001
0000
0000
0000
,
1000
0000
0000
0000
,
1000
0000
0000
0000
,
1000
0000
0000
0000
,
1001
0000
0000
0000
,
0010
0000
0000
0000
,
0100
0000
0000
0000
,
0010
0000
0000
0000
,
0100
0000
0000
0000
,
0001
0000
1000
0000
,
0001
0000
1000
0000
,
0001
0000
0000
0000
,
1001
0000
0000
0000
,
1000
0000
0100
0000
,
1000
0000
0000
0000
,
0001
0000
0010
0000
,
0001
0000
0000
0000
,
1000
0000
0001
0000
,
1000
0000
0000
0000
,
0001
0000
1000
0000
,
0001
0000
0000
0000
,
0100
0000
0010
0000
,
0100
0000
0000
0000
,
0010
0000
0100
0000
,
0010
0000
0000
0000
,
1001
0000
0000
0000
,
1001
0000
0000
0000
,
0110
0000
0010
0000
,
0100
0000
0000
0000
,
0001
0000
0000
0000
,
0010
0000
0000
0000
,
0001
0000
0000
0000
,
0010
0000
0000
0000
,
0100
0000
0000
0000
,
1000
0000
0000
0000
,
0100
0000
0000
0000
,
1000
0000
0000
0000
,
1001
0000
0000
0000
,
0000
0000
0000
0000
,
0001
0000
0000
0000
,
0000
0000
0000
0000
,
1001
0000
0000
0000
,
1000
0000
0000
0000
,
1001
0000
0000
0000
,
0010
0000
0000
0000
,
0110
0000
0000
0000
,
0000
0000
0000
0000
,
0000
0000
0000
0000
,
0000
0000
0110
0000
,
0000
0000
0001
0000
,
0000
0000
1000
0000
,
0000
0000
0001
0000
,
0000
0000
1000
0000
,
0000
0000
0001
0000
,
1000
0000
0001
0000
,
1000
0000
0001
0000
,
0000
0000
1001
0000
,
0000
0000
0010
0000
,
0000
0000
0100
0000
,
0000
0000
0001
0000
,
0000
0000
0001
0000
,
0000
0000
0010
0000
,
0000
0000
0100
0000
,
0000
0000
1000
0000
,
0000
0000
1000
0000
,
0000
0000
1001
0000
,
0000
0000
0001
0000
,
0000
0000
0100
0000
,
0000
0000
0010
0000
,
0000
0000
0110
0000
,
0000
0000
0100
0000
,
0000
0000
0110
0000
,
0000
0000
1001
0000
,
0000
0000
1001
0000
;
