#TITLE:All I Want for X-MAS;
#SUBTITLE:;
#ARTIST:Banya;
#TITLETRANSLIT:;
#SUBTITLETRANSLIT:;
#ARTISTTRANSLIT:;
#CREDIT:DigiMindAxel;
#BANNER:All I Want for X-MAS.png;
#BACKGROUND:All I Want for X-MAS-bg.PNG;
#LYRICSPATH:All I Want for X-MAS.lrc;
#CDTITLE:PUMP IT UP.png;
#MUSIC:All I Want for X-MAS.MP3;
#METERTYPE:DDR X;
#OFFSET:-7.700;
#SAMPLESTART:22.454;
#SAMPLELENGTH:12.000;
#SELECTABLE:YES;
#BPMS:0.000=130.000;
#STOPS:;
#BGCHANGES:-16.000=All I Want for X-MAS.avi=1.000=1=1=0,
99999=-nosongbg-=1.000=0=0=0 // don't automatically add -songbackground-
;

//---------------dance-single - ----------------
#NOTES:
     dance-single:
     :
     Beginner:
     3:
     0.153,0.170,0.041,0.000,0.000:
1000
0000
0001
0000
,
1000
0000
1000
0000
,
0001
0000
1000
0000
,
0001
0000
0001
0000
,
0100
0000
0010
0000
,
0100
0000
0100
0000
,
0010
0000
0100
0000
,
0010
0000
0010
0000
,
1000
0001
1000
0000
,
0001
1000
0001
0000
,
1000
0001
1000
0000
,
0001
1000
0001
0000
,
0100
0010
0100
0000
,
0010
0100
0010
0000
,
0100
0010
0100
0000
,
0001
1000
0001
0000
,
0001
0000
0000
0000
,
0000
0000
0000
0000
,
1000
0000
0000
0000
,
0001
0000
0000
0000
,
1001
0000
1000
0000
,
1000
0000
0010
0000
,
0100
0000
0001
0000
,
0001
0000
0001
0000
,
1000
0001
1000
0000
,
0001
1000
0001
0000
,
1000
0000
1000
0000
,
0001
0000
0001
0000
,
1001
0000
1000
0000
,
0010
0100
0010
0000
,
1000
0000
1000
0000
,
0001
1000
0001
0000
,
0001
0000
0001
0000
,
0100
0010
0100
0000
,
0001
0000
0001
0000
,
1000
0001
1000
0000
,
1001
0000
1000
0000
,
0010
0000
0000
0000
,
0100
0000
0001
0000
,
1000
0000
0000
0000
,
0001
0000
0001
0000
,
1000
0000
0000
0000
,
0010
0000
0100
0000
,
0010
0000
0010
0000
,
1000
0000
0001
0000
,
1000
0000
0000
0000
,
0010
0000
0100
0000
,
0010
0000
0000
1001
;

//---------------dance-single - ----------------
#NOTES:
     dance-single:
     :
     Medium:
     7:
     0.386,0.365,0.285,0.031,0.000: // measure 1
1000
1000
0001
0001
,  // measure 2
0100
0010
1000
0100
0010
0001
0100
0000
,  // measure 3
0110
0000
0010
0000
1000
0001
0100
0001
,  // measure 4
0101
1000
1010
0001
,  // measure 5
1000
1000
0001
0001
,  // measure 6
0100
0010
0100
0010
0100
0000
1001
0000
,  // measure 7
0001
0000
1000
0000
0001
1000
0010
0000
,  // measure 8
0110
1001
0110
0000
,  // measure 9
0010
0000
0010
0000
0010
0000
1000
0001
,  // measure 10
0000
1000
0100
1000
1100
0000
0011
0000
,  // measure 11
0001
0100
0010
0100
0001
0000
0010
0100
,  // measure 12
1000
0001
1001
0000
,  // measure 13
0010
0000
0010
0000
0010
0000
1000
0001
,  // measure 14
0000
1000
0100
1000
0000
0001
0001
0000
,  // measure 15
0000
1000
0001
0010
0001
0010
0001
0000
,  // measure 16
0100
0010
1000
0000
0001
0000
1000
0000
,  // measure 17
1001
0000
0000
0001
0000
0000
0000
0000
,  // measure 18
1001
0000
0000
1000
0000
0000
0000
0000
,  // measure 19
0110
0000
0000
0010
0000
0000
0000
0000
,  // measure 20
0110
0000
0000
0100
0000
0000
0000
0000
,  // measure 21
0010
0010
0010
0000
1000
1000
1000
0000
,  // measure 22
0001
0010
0100
1000
0001
0000
0100
0000
,  // measure 23
1100
0000
1000
0100
0010
0001
1000
0000
,  // measure 24
0100
0000
0101
0000
0001
0001
0001
0000
,  // measure 25
1000
1000
1000
0000
0001
0000
1000
0000
,  // measure 26
0100
0100
0100
0000
1000
0000
0001
0000
,  // measure 27
1000
0001
1000
0001
1000
0010
0100
0000
,  // measure 28
0010
0100
0001
1000
0001
1000
0001
0000
,  // measure 29
0100
0000
0100
0000
0001
0010
0001
0000
,  // measure 30
1000
0100
0010
0100
2000
0000
0000
3001
,  // measure 31
0000
1000
0100
1000
0000
0001
0001
0000
,  // measure 32
0100
0100
0100
1001
,  // measure 33
1000
0100
1000
0000
0001
0100
0010
0100
,  // measure 34
0002
0000
0000
1003
0000
0000
0000
0000
,  // measure 35
0010
0100
0010
0000
1000
0001
1000
0000
,  // measure 36
0010
0010
0110
0000
,  // measure 37
1001
0000
0011
0000
1001
0000
1000
0001
,  // measure 38
0000
0100
0010
0100
0001
0000
1001
0000
,  // measure 39
1000
0100
1000
0000
0001
0010
0001
1000
,  // measure 40
0020
0000
0000
1030
0000
0000
0000
0000
,  // measure 41
1001
0000
1100
0000
1001
0000
0001
1000
,  // measure 42
0000
0010
0100
0010
0000
1000
1000
0000
,  // measure 43
0100
0010
0100
0010
0001
0010
0001
1000
,  // measure 44
0010
0110
1001
0000
,  // measure 45
1000
1000
0001
0001
,  // measure 46
0100
0010
0100
0001
0010
0100
1000
0000
,  // measure 47
0001
0001
1000
1000
,  // measure 48
0010
0100
0010
1000
0100
0000
1001
0000
;

//---------------dance-single - ----------------
#NOTES:
     dance-single:
     :
     Easy:
     5:
     0.250,0.267,0.143,0.071,0.000: // measure 1
1000
0001
1000
0001
,  // measure 2
0100
0000
0100
0000
,  // measure 3
0010
0100
0010
0100
,  // measure 4
0001
0000
0001
0000
,  // measure 5
1000
0001
1000
0001
,  // measure 6
1000
0000
0010
0000
,  // measure 7
0010
0100
0010
0100
,  // measure 8
0001
0001
1001
0000
,  // measure 9
1001
0001
0001
1000
,  // measure 10
0100
0010
0001
1001
,  // measure 11
1000
0100
0010
0001
,  // measure 12
0010
0100
1000
0000
,  // measure 13
1001
1000
1000
0001
,  // measure 14
0010
0100
0000
1000
,  // measure 15
0001
0100
0010
1000
,  // measure 16
0010
0100
0001
1001
,  // measure 17
0002
0000
0000
0000
,  // measure 18
2003
0000
0000
0000
,  // measure 19
3002
0000
0000
0000
,  // measure 20
0203
0000
0000
0300
,  // measure 21
1001
0000
1001
0000
,  // measure 22
0010
0100
0010
0010
,  // measure 23
1000
0001
1000
1000
,  // measure 24
0010
0100
0001
0001
,  // measure 25
1001
0000
0100
0100
,  // measure 26
1001
0000
0100
0100
,  // measure 27
0001
0010
0100
1000
,  // measure 28
0001
0010
0100
1000
,  // measure 29
0001
0000
0010
0100
,  // measure 30
0010
0001
1000
0000
,  // measure 31
0010
0010
0100
0100
,  // measure 32
0001
1000
0001
0000
,  // measure 33
1000
0100
0010
0001
,  // measure 34
1000
0000
0001
0000
,  // measure 35
0100
0010
0100
0001
,  // measure 36
1000
1000
1001
0000
,  // measure 37
1001
1000
1000
0001
,  // measure 38
0010
0100
1000
0001
,  // measure 39
1000
0100
0010
0100
,  // measure 40
1000
0001
1000
0000
,  // measure 41
1001
0001
0001
0010
,  // measure 42
0100
1000
0000
0001
,  // measure 43
0100
0010
1000
0100
,  // measure 44
0010
0001
1000
0000
,  // measure 45
1002
0000
1003
0000
,  // measure 46
0020
0000
0130
0000
,  // measure 47
0002
0000
1003
0000
,  // measure 48
0000
0010
0000
0010
0000
0000
0110
0000
;

//---------------dance-single - ----------------
#NOTES:
     dance-single:
     :
     Hard:
     9:
     0.496,0.462,0.438,0.092,0.061: // measure 1
0001
0100
0001
1000
0010
1000
0001
0010
,  // measure 2
0200
0000
1000
2300
0000
0000
3001
0000
,  // measure 3
1000
0010
1000
0001
0100
0001
1000
0100
,  // measure 4
0020
0000
0001
0032
0000
0000
1003
0000
,  // measure 5
0001
0010
0001
1000
0100
1000
0001
0100
,  // measure 6
0020
0000
1000
2030
0000
0001
3001
0000
,  // measure 7
1000
0100
1000
0001
0010
0001
1000
0000
,  // measure 8
1010
0110
1001
0000
,  // measure 9
0101
0000
0110
0000
0101
0000
0001
0010
,  // measure 10
0100
1000
0100
0001
0100
1000
1100
0000
,  // measure 11
0001
1000
0100
0010
0001
1000
0001
0100
,  // measure 12
0020
0000
1000
1030
0001
0000
0000
0000
,  // measure 13
1010
0000
0110
0000
1010
0000
1000
0100
,  // measure 14
0010
0001
0100
0100
0000
0010
0110
0000
,  // measure 15
0001
1000
0100
0010
0001
1000
0001
0100
,  // measure 16
0010
0010
0110
0000
1001
0000
0110
0000
,  // measure 17
1001
0000
0000
1100
0000
0000
0000
0000
,  // measure 18
1001
0000
0000
0011
0000
0000
0000
0000
,  // measure 19
1001
0000
0000
1010
0000
0000
0000
0000
,  // measure 20
1001
0000
0000
0101
0000
0000
0000
0010
,  // measure 21
0100
0000
0000
0100
0000
0000
0001
0000
1000
0000
0000
1000
0000
0000
0001
1000
,  // measure 22
0001
0000
0010
0000
0100
0000
1000
0000
0010
0000
0000
0100
0000
0000
0010
0000
,  // measure 23
1000
0000
0100
0000
0010
0000
0001
0000
1000
0000
0000
0001
0000
0000
1000
0000
,  // measure 24
0001
0000
0010
0000
0100
0000
1000
0000
0010
0100
0001
0000
0101
0000
0000
0000
,  // measure 25
1000
1000
0100
0000
0010
0100
1000
1000
,  // measure 26
0001
0001
0010
0000
0100
0010
0001
0001
,  // measure 27
1000
0010
1000
0010
1000
0000
0001
0000
0010
0000
0100
0000
0010
0000
0000
0000
,  // measure 28
0001
0100
0001
0100
0001
0000
1000
0000
0100
0000
0010
0000
0100
0000
0000
0000
,  // measure 29
1000
0001
1000
0100
0010
0001
0010
1000
,  // measure 30
0010
0001
1000
0100
1000
0100
1000
0001
,  // measure 31
0000
0010
0100
1000
0000
0100
0010
0000
,  // measure 32
0101
0110
0101
1001
,  // measure 33
0001
1000
0001
0010
0100
1000
0100
0001
,  // measure 34
0100
1000
0001
0010
0001
0010
0001
0000
,  // measure 35
0010
0100
1000
0100
0001
0100
1000
0000
,  // measure 36
0110
1001
0110
0000
,  // measure 37
1001
0000
1100
0000
1001
0000
1000
0100
,  // measure 38
1000
0001
0100
0001
1001
0000
1001
0000
,  // measure 39
0001
0010
0001
1000
0100
1000
0010
0100
,  // measure 40
0002
0000
1000
1003
0001
0000
0000
0000
,  // measure 41
1001
0000
0011
0000
1001
0000
1000
0100
,  // measure 42
0010
0001
0100
0100
0000
0010
0110
0000
,  // measure 43
1000
0010
1000
0001
0010
0100
1000
0001
,  // measure 44
0010
0011
1001
0011
,  // measure 45
0001
1000
1000
0100
0000
0010
0100
1000
,  // measure 46
0001
0000
0000
0100
0000
0000
0001
0000
1000
0000
0100
0000
0010
0000
0001
1000
,  // measure 47
0001
1000
1000
0010
0000
0100
0001
0010
,  // measure 48
0200
1000
0000
1300
0001
0100
0101
0000
;
