#TITLE:証;
#SUBTITLE:;
#ARTIST:阿部靖広 feat. 森亜紀子;
#TITLETRANSLIT:AKASHI;
#SUBTITLETRANSLIT:;
#ARTISTTRANSLIT:YASUHIRO ABE feat. AKIKO MORI;
#GENRE:;
#CREDIT:DigiMindAxel;
#BANNER:AKASHI.png;
#BACKGROUND:AKASHI-bg.png;
#LYRICSPATH:AKASHI.lrc;
#CDTITLE:pop'n music.png;
#MUSIC:AKASHI.mp3;
#METERTYPE:DDR X;
#OFFSET:-11.648;
#SAMPLESTART:66.206;
#SAMPLELENGTH:12.000;
#SELECTABLE:YES;
#BPMS:0.000=175.000
;
#STOPS:
;
#BGCHANGES:;
#KEYSOUNDS:;
#ATTACKS:;

//---------------dance-single - ----------------
#NOTES:
     dance-single:
     :
     Easy:
     6:
     0.277,0.253,0.036,0.036,0.000,205.000,4.000,4.000,0.000,0.000,0.000,0.277,0.253,0.036,0.036,0.000,205.000,4.000,4.000,0.000,0.000,0.000: // measure 0
1000
0100
1000
0000
,  // measure 1
0100
0010
0100
0000
,  // measure 2
0010
0001
0010
0001
,  // measure 3
0010
0001
0010
0000
,  // measure 4
0001
1000
0001
0000
,  // measure 5
0100
0010
0100
0000
,  // measure 6
1001
0000
1000
0000
,  // measure 7
0001
0000
1000
0000
,  // measure 8
0010
0100
0010
1000
,  // measure 9
0100
1000
0001
0100
,  // measure 10
0001
0000
0010
0000
,  // measure 11
0100
0000
1000
0000
,  // measure 12
0010
0100
0010
1000
,  // measure 13
0100
1000
0001
0100
,  // measure 14
0001
0000
0010
0000
,  // measure 15
0100
0000
1000
0000
,  // measure 16
0002
0000
1003
0000
,  // measure 17
0010
0000
0100
0000
,  // measure 18
0002
0000
1003
0000
,  // measure 19
0100
0000
0010
0000
,  // measure 20
2000
0000
3001
0000
,  // measure 21
0010
0000
0100
0000
,  // measure 22
2000
0000
3001
0000
,  // measure 23
0000
0000
0000
0000
,  // measure 24
1000
0100
1000
0100
,  // measure 25
1000
0000
0001
0000
,  // measure 26
0010
0001
0010
0001
,  // measure 27
0010
0000
0100
0000
,  // measure 28
1000
0010
1000
0010
,  // measure 29
1000
0000
0010
0000
,  // measure 30
0100
0001
0100
0001
,  // measure 31
0100
0000
1001
0000
,  // measure 32
1001
0000
0001
0000
,  // measure 33
1000
0000
0001
0000
,  // measure 34
0010
0000
0100
0000
,  // measure 35
0010
0000
0100
0000
,  // measure 36
1000
0000
0001
0000
,  // measure 37
1000
0000
0001
0000
,  // measure 38
1000
0000
0010
0000
,  // measure 39
0100
0000
0001
0000
,  // measure 40
1000
0100
1000
0100
,  // measure 41
1000
0001
1000
0001
,  // measure 42
1000
0100
0010
0001
,  // measure 43
0010
0000
0000
0000
,  // measure 44
0001
1000
0001
1000
,  // measure 45
0001
0100
0001
0100
,  // measure 46
0001
0010
0100
1000
,  // measure 47
0001
0000
0000
0000
,  // measure 48
1000
0010
1000
0010
,  // measure 49
1000
0001
1000
0001
,  // measure 50
1000
0100
0010
0001
,  // measure 51
0010
0100
1000
0000
,  // measure 52
0010
0100
0010
0100
,  // measure 53
0001
1000
0001
0000
,  // measure 54
1000
0100
1000
0100
,  // measure 55
1000
0001
1000
0001
,  // measure 56
0100
0001
0100
0001
,  // measure 57
1000
0100
0010
0000
,  // measure 58
0001
0100
0001
0100
,  // measure 59
0001
1000
0001
1000
,  // measure 60
0001
0010
0001
0010
,  // measure 61
0001
0100
0010
0000
,  // measure 62
1000
0100
1000
0100
,  // measure 63
1000
0001
1000
0001
,  // measure 64
1000
0010
1000
0010
,  // measure 65
1000
0100
0010
0000
,  // measure 66
0001
0100
0001
1000
,  // measure 67
0100
0000
1000
0000
,  // measure 68
1001
0000
0001
0000
,  // measure 69
1000
0001
0100
0000
;

//---------------dance-single - ----------------
#NOTES:
     dance-single:
     :
     Medium:
     8:
     0.416,0.379,0.073,0.145,0.000,296.000,8.000,16.000,0.000,0.000,0.000,0.416,0.379,0.073,0.145,0.000,296.000,8.000,16.000,0.000,0.000,0.000: // measure 0
1000
0010
1000
0001
,  // measure 1
0010
0001
1000
0100
,  // measure 2
1000
0001
1000
0001
1000
0000
0100
0000
,  // measure 3
0010
0001
1000
0000
,  // measure 4
0001
1000
0001
0010
,  // measure 5
0001
0010
0100
1000
,  // measure 6
1002
0000
0103
0000
,  // measure 7
0001
1000
0100
1000
0100
0000
0000
0000
,  // measure 8
1001
0000
1000
0001
0000
1000
0001
0000
,  // measure 9
0010
0000
0100
0000
0010
0001
0010
0000
,  // measure 10
0002
0000
0000
0203
0000
0000
0320
0000
,  // measure 11
0000
0000
1030
0001
,  // measure 12
1000
0000
0001
1000
0000
0001
1000
0000
,  // measure 13
0100
0000
0010
0000
0100
1000
0100
0000
,  // measure 14
2000
0000
0000
3002
0000
0000
0203
0000
,  // measure 15
0000
0000
0301
0000
1000
0001
0000
0000
,  // measure 16
1000
0100
0010
0000
,  // measure 17
0100
1000
0010
0000
,  // measure 18
0100
0001
0010
0000
,  // measure 19
0001
0010
0100
0000
,  // measure 20
1000
0001
1000
0000
,  // measure 21
0100
1000
0010
0000
,  // measure 22
0100
0000
0001
0000
0010
0000
0001
1000
,  // measure 23
0000
0000
0000
0000
0000
0001
1000
0000
,  // measure 24
0001
0100
0010
0100
0001
0000
0010
0000
,  // measure 25
0100
0010
0002
1000
,  // measure 26
1003
0100
0010
0100
1000
0000
0010
0000
,  // measure 27
0100
0010
1000
0001
,  // measure 28
0100
0001
0010
0001
0100
0000
0010
0000
,  // measure 29
1000
0001
1000
0000
0020
0000
0000
0000
,  // measure 30
0130
0000
0001
0000
0010
0100
0010
0000
,  // measure 31
0001
1000
0001
1000
0001
0100
0000
0000
,  // measure 32
1002
0000
0013
0000
,  // measure 33
0200
0000
1300
0000
,  // measure 34
0002
0000
0103
0000
,  // measure 35
0020
0000
1030
0000
,  // measure 36
0002
0000
1003
0000
,  // measure 37
0020
0000
0130
0000
,  // measure 38
0001
1000
0000
0001
1000
0000
0000
0000
,  // measure 39
0100
0010
0011
0000
,  // measure 40
1001
0000
0001
1000
0000
0000
0100
1000
,  // measure 41
0100
0000
1000
0001
0000
0000
0100
0000
,  // measure 42
0001
0100
0001
0000
0010
0100
0010
0000
,  // measure 43
0001
1000
0100
1000
,  // measure 44
0001
0000
1000
0100
1000
0000
0001
1000
,  // measure 45
0001
0000
0100
0000
0010
0100
0010
0100
,  // measure 46
0001
0010
0100
1000
,  // measure 47
0001
0000
0100
0000
0010
0100
0010
0100
,  // measure 48
0010
0000
1000
0001
0000
0000
0010
0001
,  // measure 49
0010
0000
0001
1000
0000
0000
0001
0000
,  // measure 50
1000
0010
0100
0010
1000
0000
0100
0000
,  // measure 51
0010
0100
0010
0000
0001
0000
1000
0000
,  // measure 52
0010
0000
0100
0001
0100
0000
0010
0100
,  // measure 53
0000
0001
1000
0001
1000
0100
0000
0000
,  // measure 54
1000
0000
0001
1000
0000
0000
0010
1000
,  // measure 55
0010
0000
1000
0001
0000
0000
0010
0000
,  // measure 56
0100
1000
0100
0000
1000
0001
1000
0000
,  // measure 57
0100
0010
0100
0000
,  // measure 58
1000
0000
0001
0010
0001
0000
0010
0100
,  // measure 59
0010
0000
0001
0000
1000
0010
1000
0010
,  // measure 60
0100
0001
0100
0010
,  // measure 61
1000
0000
0100
0000
0010
0001
0010
0000
,  // measure 62
1001
0000
0001
1000
0000
0000
0010
1000
,  // measure 63
0010
0000
1000
0001
0000
0000
1000
0000
,  // measure 64
0001
0010
0100
0010
0001
0000
1000
0000
,  // measure 65
0100
1000
0100
0000
0010
0000
0001
0000
,  // measure 66
1001
0000
1000
0001
1000
0000
0010
0100
,  // measure 67
0001
0010
0100
1000
,  // measure 68
1200
0000
0310
0000
,  // measure 69
0001
0100
0010
1000
0001
0000
0000
0000
;

//---------------dance-single - ----------------
#NOTES:
     dance-single:
     :
     Hard:
     10:
     0.540,0.506,0.191,0.164,0.000,377.000,21.000,18.000,0.000,0.000,0.000,0.540,0.506,0.191,0.164,0.000,377.000,21.000,18.000,0.000,0.000,0.000: // measure 0
1001
0000
1000
0010
0000
0010
1000
0000
,  // measure 1
0001
0000
0010
0001
0000
0001
0010
0000
,  // measure 2
0001
1000
0100
0010
0100
1000
0001
0000
,  // measure 3
1000
0010
0100
0000
0110
0000
0100
0000
,  // measure 4
0001
0000
1000
0100
0000
0100
1000
0000
,  // measure 5
0001
0000
0100
0001
0000
0001
0100
0000
,  // measure 6
0120
0000
0000
0000
1000
1030
0000
0001
,  // measure 7
1000
0100
0001
0100
1000
0000
0000
0000
,  // measure 8
2100
0000
0001
3001
0000
1000
0100
1000
,  // measure 9
0001
0100
0000
0100
0001
0010
0100
1000
,  // measure 10
0002
0000
0100
0203
0000
0010
0310
0000
,  // measure 11
1000
0010
0100
0000
0110
0000
0100
0000
,  // measure 12
0002
0000
1000
1003
0000
0001
0010
0001
,  // measure 13
1000
0010
0000
0010
1000
0100
0010
0001
,  // measure 14
2000
0000
0010
3020
0000
0100
0130
0000
,  // measure 15
0001
0010
0100
1000
0001
0001
0000
0000
,  // measure 16
1000
0010
0001
0010
,  // measure 17
1000
0100
0010
0000
,  // measure 18
0001
0100
1000
0100
,  // measure 19
0001
0010
0100
0000
,  // measure 20
1000
0010
0100
1000
,  // measure 21
0100
0001
1000
0000
,  // measure 22
0001
0000
0010
0000
0100
0000
1000
1001
,  // measure 23
0000
0000
0000
0000
0000
0001
1001
0000
,  // measure 24
1000
0010
0100
0010
1000
0010
0100
0010
,  // measure 25
1000
0000
0001
0000
0010
0001
1000
0000
,  // measure 26
0100
0010
0001
0010
0100
0010
0001
0010
,  // measure 27
0100
0000
1000
0000
0010
1000
0001
0000
,  // measure 28
1000
0001
0010
0001
1000
0001
0010
0001
,  // measure 29
1000
0000
0010
0000
0100
0010
1000
0000
,  // measure 30
0200
0000
0310
0100
1000
0000
0001
0100
,  // measure 31
0001
0001
1000
1000
0001
1001
0000
0000
,  // measure 32
0201
0000
0310
0000
,  // measure 33
1000
0100
0000
0100
1000
0000
0000
0000
,  // measure 34
0021
0000
0130
0000
,  // measure 35
1000
0010
0000
0010
1000
0000
0000
0002
,  // measure 36
0100
0103
0000
0020
1000
1030
0000
0002
,  // measure 37
1000
1003
0000
0200
0010
0310
0000
0002
,  // measure 38
1000
1003
0000
0100
0110
0000
0010
0100
,  // measure 39
0001
0010
0100
1000
1001
0000
0000
0000
,  // measure 40
0001
1000
0000
1000
0001
0000
0010
0100
,  // measure 41
1000
0000
1000
0001
0000
0001
1000
0000
,  // measure 42
0001
1000
0010
1000
0001
1000
0010
1000
,  // measure 43
0001
0010
0100
0000
0110
0000
0010
0000
,  // measure 44
1000
0100
0001
0000
0100
0000
1000
0010
,  // measure 45
0001
0000
0010
0000
1000
0001
0010
0100
,  // measure 46
2000
0001
3001
0200
,  // measure 47
0001
0000
0301
0000
1000
1000
0001
0001
,  // measure 48
1000
0000
0001
0100
0000
0100
0001
0000
,  // measure 49
0010
0100
1000
0001
0000
0001
1000
0000
,  // measure 50
0100
1000
0001
1000
0100
1000
0001
1000
,  // measure 51
0100
0010
0100
0000
0110
0000
0010
0000
,  // measure 52
1000
0000
0001
0010
0000
0010
0001
0000
,  // measure 53
1000
1000
0001
0001
1000
1001
0000
0000
,  // measure 54
0001
0000
0100
0001
0000
0001
1000
0000
,  // measure 55
0010
0100
0001
1000
0000
1000
0001
0000
,  // measure 56
0010
0100
1000
0100
0010
0100
1000
0100
,  // measure 57
0010
0001
0100
0000
0110
0000
0010
0000
,  // measure 58
1000
0000
0100
1000
0000
1000
0001
0100
,  // measure 59
0010
0000
0100
0000
0001
0010
0100
1000
,  // measure 60
0001
0010
1000
0010
,  // measure 61
0001
0100
1000
0000
0100
0000
0001
0000
,  // measure 62
1001
0000
0001
0100
0000
0100
1000
0000
,  // measure 63
0010
0100
0001
0010
0100
0000
1100
0000
,  // measure 64
1000
0001
0100
0001
1000
0001
0100
0001
,  // measure 65
1000
0100
0010
0000
0110
0000
0100
0000
,  // measure 66
0001
0000
1000
0100
0000
0100
0001
0010
,  // measure 67
0100
0000
1000
0001
0100
0001
0010
0100
,  // measure 68
2100
0000
0000
0001
3001
1000
0010
0100
,  // measure 69
0001
0001
1000
1000
1100
0000
0000
0000
;

//---------------dance-single - ----------------
#NOTES:
     dance-single:
     :
     Beginner:
     3:
     0.157,0.158,0.091,0.000,0.000,111.000,10.000,0.000,0.000,0.000,0.000,0.157,0.158,0.091,0.000,0.000,111.000,10.000,0.000,0.000,0.000,0.000: // measure 0
1001
0000
1000
0000
,  // measure 1
0001
0000
1000
0000
,  // measure 2
0100
0000
0000
0000
,  // measure 3
0010
0000
0001
0000
,  // measure 4
0010
0000
0001
0000
,  // measure 5
1000
0000
0001
0000
,  // measure 6
1001
0000
0000
0000
,  // measure 7
0000
0000
0000
0000
,  // measure 8
0100
0000
1000
0000
,  // measure 9
0100
0000
1000
0000
,  // measure 10
0001
0000
0000
0000
,  // measure 11
1000
0000
0000
0000
,  // measure 12
0001
0000
0100
0000
,  // measure 13
0001
0000
0100
0000
,  // measure 14
0001
0000
0000
0000
,  // measure 15
1000
0000
0000
0000
,  // measure 16
1001
0000
0001
0000
,  // measure 17
1000
0000
0000
0000
,  // measure 18
0001
0000
1000
0000
,  // measure 19
0001
0000
0000
0000
,  // measure 20
1000
0000
0001
0000
,  // measure 21
1000
0000
0000
0000
,  // measure 22
0001
0000
1000
0000
,  // measure 23
0000
0000
0000
0000
,  // measure 24
1001
0000
1000
0000
,  // measure 25
0001
0000
0000
0000
,  // measure 26
0010
0000
0001
0000
,  // measure 27
0100
0000
0000
0000
,  // measure 28
0010
0000
1000
0000
,  // measure 29
0100
0000
0000
0000
,  // measure 30
1000
0000
0001
0000
,  // measure 31
0100
0000
0000
0000
,  // measure 32
0110
0000
0000
0000
,  // measure 33
0010
0000
0000
0000
,  // measure 34
0110
0000
0000
0000
,  // measure 35
0010
0000
0000
0000
,  // measure 36
0110
0000
0000
0000
,  // measure 37
0010
0000
0000
0000
,  // measure 38
0110
0000
0000
0000
,  // measure 39
0010
0000
0000
0000
,  // measure 40
1001
0000
1000
0000
,  // measure 41
0001
0000
1000
0000
,  // measure 42
0001
0000
0100
0000
,  // measure 43
0001
0000
0100
0000
,  // measure 44
0010
0000
1000
0000
,  // measure 45
0010
0000
1000
0000
,  // measure 46
0001
0000
1000
0000
,  // measure 47
0001
0000
1000
0000
,  // measure 48
0100
0000
1000
0000
,  // measure 49
0100
0000
1000
0000
,  // measure 50
0001
0000
0010
0000
,  // measure 51
0001
0000
0010
0000
,  // measure 52
0001
0000
1000
0000
,  // measure 53
0001
0000
0000
0000
,  // measure 54
1000
0000
0100
0000
,  // measure 55
1000
0000
0001
0000
,  // measure 56
1000
0000
0010
0000
,  // measure 57
1000
0000
0010
0000
,  // measure 58
1000
0000
0001
0000
,  // measure 59
1000
0000
0001
0000
,  // measure 60
0010
0000
0001
0000
,  // measure 61
0010
0000
0000
0000
,  // measure 62
0001
0000
1000
0000
,  // measure 63
0001
0000
0100
0000
,  // measure 64
0001
0000
0010
0000
,  // measure 65
0001
0000
0010
0000
,  // measure 66
0001
0000
1000
0000
,  // measure 67
0001
0000
1000
0000
,  // measure 68
0100
0000
0000
0000
,  // measure 69
0000
0000
0110
0000
;
