#TITLE:ABANDONED CYBER-beijyu-;
#SUBTITLE:;
#ARTIST:Yanagi/remixed Paraoka;
#TITLETRANSLIT:;
#SUBTITLETRANSLIT:;
#ARTISTTRANSLIT:;
#CREDIT:DigiMindAxel;
#BANNER:ABANDONED CYBER-beijyu-.png;
#BACKGROUND:ABANDONED CYBER-beijyu--bg.png;
#LYRICSPATH:;
#CDTITLE:DigiMindAxel original simfile.png;
#MUSIC:ABANDONED CYBER-beijyu-.mp3;
#METERTYPE:DDR X;
#OFFSET:-6.278;
#SAMPLESTART:61.595;
#SAMPLELENGTH:12.000;
#SELECTABLE:YES;
#BPMS:0.000=155.000;
#STOPS:;
#BGCHANGES:;

//---------------dance-single - ----------------
#NOTES:
     dance-single:
     :
     Easy:
     4:
     0.256,0.388,0.246,0.331,0.000:
1000
1000
0000
0010
,
0100
0100
0000
0001
,
1000
1000
1001
1001
,
0010
0100
0110
0110
,
0001
0001
0000
0010
,
0100
0100
0000
1000
,
0100
0100
0110
0110
,
2001
0000
0000
0000
,
3020
0000
0230
0000
,
0000
0301
0010
0000
,
0001
0000
0010
0000
,
0200
0000
0000
0000
,
2300
0000
3020
0000
,
0000
1030
0100
0000
,
1000
0000
0100
0000
,
0020
0000
0000
0000
,
0032
0000
0203
0000
,
0000
0320
0000
0000
,
1030
0100
0020
0000
,
0032
0000
0023
0000
,
0230
0000
0000
0000
,
0000
1300
0010
0000
,
0100
0000
0001
0000
,
2000
0000
0000
3000
,
1001
0000
0000
0000
,
0110
0000
0000
0000
,
1001
0000
0000
0000
,
0220
0000
0000
0330
,
0010
0010
1000
0100
,
1001
0000
0000
0000
,
0100
0100
0001
0010
,
1001
0000
0000
0000
,
0010
0010
1000
0010
,
1001
0000
0000
0000
,
0100
0100
0001
0100
,
2002
0000
0000
3003
,
0200
0000
0000
1300
,
0002
0000
0000
0003
,
0020
0000
0000
0031
,
0010
0100
1000
0100
,
0020
0000
0000
0000
,
0032
0000
0000
0003
,
1000
0000
0100
0000
,
1000
1001
0000
1001
,
0020
0000
0000
0031
,
0200
0000
0000
0310
,
2000
0000
0000
3100
,
0010
0001
0010
0100
,
2000
0000
0000
0000
,
3002
0000
0000
0000
,
0103
0000
0010
0000
,
1001
1000
1001
0000
,
1001
0000
0000
0000
,
0110
0000
0000
0000
,
1001
0000
0000
0000
,
2002
0000
0000
0000
0000
0000
0000
3003
;

//---------------dance-single - ----------------
#NOTES:
     dance-single:
     :
     Hard:
     10:
     0.533,0.509,0.577,0.278,0.134: // measure 1
1000
0000
1001
0000
0000
0001
0100
0010
,  // measure 2
0100
0000
0110
0000
0000
0010
0100
1000
,  // measure 3
0001
1001
0100
0110
,  // measure 4
1000
1100
1001
1001
,  // measure 5
0011
0000
0001
0001
0000
1000
0001
0010
,  // measure 6
0001
0000
1000
1000
0000
0001
1000
0010
,  // measure 7
1000
1010
0100
0101
,  // measure 8
2002
0000
0000
3003
,  // measure 9
0201
0000
0301
1000
0200
0000
0000
0000
,  // measure 10
0000
0000
0000
0000
1300
0000
0001
0000
1000
0000
0000
1000
0000
0000
0010
0000
,  // measure 11
0100
0000
0000
0100
0000
0000
0001
0000
2000
0000
0000
0000
0000
0000
0000
0000
,  // measure 12
3001
0010
0100
1000
0100
0010
0001
0000
,  // measure 13
2001
0000
3001
0100
0020
0000
0000
0000
,  // measure 14
0000
0000
0000
0000
1030
0000
0001
0000
1000
0000
0000
1000
0000
0000
0100
0000
,  // measure 15
0010
0000
0000
0010
0000
0000
0001
0000
2000
0000
0000
0000
0000
0000
0000
0000
,  // measure 16
3001
0100
0010
1000
0010
0100
0001
0000
,  // measure 17
2001
0000
3001
1000
0200
0000
0000
0000
,  // measure 18
0000
0000
0000
0000
0310
0000
0001
0000
0010
0000
0000
0010
0000
0000
0001
0000
,  // measure 19
0100
0000
0000
0100
0000
0000
0001
0000
2000
0000
0000
0000
0000
0000
0000
0000
,  // measure 20
3001
0010
0100
1000
0100
0010
0001
0000
,  // measure 21
2001
0000
3001
1000
0200
0000
0000
0000
,  // measure 22
0000
0000
0000
0000
0310
0000
0001
0000
0010
0000
0000
0010
0000
0000
0001
0000
,  // measure 23
1000
0000
0000
1000
0000
0000
0010
0000
0200
0000
0000
0000
0000
0000
0000
0000
,  // measure 24
0301
0100
0010
1000
0010
0100
0001
0000
,  // measure 25
0011
0000
0000
0000
0000
0011
0000
0000
0000
0000
0000
0000
1000
0000
0000
0000
,  // measure 26
1100
0000
0000
0000
0000
1100
0000
0000
0000
0000
0000
0000
0010
0000
0000
0000
,  // measure 27
0110
0000
0000
0000
0000
0110
0000
0000
0000
0000
0000
0000
1000
0000
0000
0000
,  // measure 28
1001
0020
0000
0030
,  // measure 29
1001
0000
0000
0000
1000
0000
0000
0100
0000
0000
0010
0000
0000
0001
0000
0000
,  // measure 30
0100
0100
0100
0000
0001
1000
1001
0000
,  // measure 31
0110
0000
0000
0000
0010
0000
0000
1000
0000
0000
0100
0000
0000
0010
0000
0000
,  // measure 32
0001
0001
0001
0000
1000
0001
1001
0000
,  // measure 33
0110
0000
0000
0000
0100
0000
0000
0001
0000
0000
0100
0000
0000
0010
0000
0000
,  // measure 34
1000
1000
1000
0000
0010
0100
0110
0000
,  // measure 35
1001
0000
0000
0000
1000
0000
0000
0010
0000
0000
0100
0000
0000
0001
0000
0000
,  // measure 36
1000
0001
2000
0000
0000
0000
0000
0000
0000
0000
0000
0000
3000
0000
0000
0000
,  // measure 37
0001
0010
0100
0010
0001
0000
0011
0000
,  // measure 38
0001
1000
0010
0100
0010
0000
1000
0100
,  // measure 39
1000
0001
0010
0100
0010
0001
0200
0000
,  // measure 40
0320
2030
3200
0310
,  // measure 41
1001
0000
0011
0000
0100
1000
0100
0000
,  // measure 42
1001
0000
1100
0000
0010
0001
0010
0000
,  // measure 43
1001
1000
0110
0001
,  // measure 44
0100
0100
0110
0000
0001
1000
1001
0000
,  // measure 45
0001
0100
0010
0100
0001
0000
0101
0000
,  // measure 46
0010
0100
1000
0100
0010
0000
0001
0100
,  // measure 47
0001
0010
0100
1000
0010
0100
0020
0000
,  // measure 48
2030
3200
0320
0032
,  // measure 49
0103
0010
0100
0000
1001
0000
0001
1000
,  // measure 50
0001
0110
1001
1000
,  // measure 51
1001
0001
0110
1000
,  // measure 52
0010
0010
0010
0000
1000
0001
1001
0000
,  // measure 53
1001
0000
0000
0000
0000
1001
0000
0000
0000
0000
0000
0000
0110
0000
0000
0000
,  // measure 54
1010
0000
0000
0000
0000
1010
0000
0000
0000
0000
0000
0000
0110
0000
0000
0000
,  // measure 55
0011
0000
0000
0000
0000
0011
0000
0000
0000
0000
0000
0000
0110
0000
0000
0000
,  // measure 56
1000
0001
1000
0001
2000
0000
0000
0000
0000
0000
0000
0000
0000
0000
0000
0000
,  // measure 57
3000
0000
0000
0000
;

//---------------dance-single - ----------------
#NOTES:
     dance-single:
     :
     Challenge:
     13:
     0.708,0.628,0.321,0.235,0.518: // measure 1
0001
0000
0000
0001
1000
0000
0100
0000
0000
0000
0010
0000
0010
0000
0100
0000
,  // measure 2
1000
0000
0000
1000
0001
0000
0100
0000
0000
0000
0001
0000
0001
0000
1000
0000
,  // measure 3
0100
0000
0000
0100
1000
0000
0001
0000
0100
0010
0100
0000
0110
0000
0000
0000
,  // measure 4
0001
0000
0000
0001
1000
0000
0100
0000
1100
0000
0000
0000
1100
0000
0000
0000
,  // measure 5
1000
0000
0000
1000
0001
0000
0010
0000
0000
0000
0001
0000
0001
0000
0010
0000
,  // measure 6
0100
0000
0000
0100
1000
0000
0010
0000
0000
0000
0100
0000
0100
0000
0001
0000
,  // measure 7
1000
0000
0000
1000
0001
0000
0010
0000
0001
1000
0001
0000
1000
0001
1000
0000
,  // measure 8
0020
0000
0200
0330
,  // measure 9
0101
0000
0000
0001
1000
0000
0100
0000
0020
0000
0000
0000
0001
0000
0000
0000
,  // measure 10
0100
0000
0000
0000
0031
0000
1000
0000
0100
0000
0000
0100
0000
0000
0010
0000
,  // measure 11
0100
0000
0000
0100
0000
0000
1000
0000
0002
0000
0000
0000
1000
0000
0000
0000
,  // measure 12
1003
0100
1000
0100
1000
0000
0001
1000
0001
1000
0001
0000
1000
0100
1000
0000
,  // measure 13
0001
0000
0000
0001
1000
0000
0010
0000
0200
0000
0000
0000
0001
0000
0000
0000
,  // measure 14
0010
0000
0000
0000
0301
0000
1000
0000
0010
0000
0000
0010
0000
0000
0100
0000
,  // measure 15
0010
0000
0000
0010
0000
0000
1000
0000
0200
0000
0000
0000
1000
0000
0000
0000
,  // measure 16
1300
0001
1000
0001
1000
0000
0001
0100
0001
0100
0001
0000
1000
0001
1000
0000
,  // measure 17
0001
0000
0000
0001
0100
0000
0010
0000
2000
0000
0000
0000
0100
0000
0000
0000
,  // measure 18
0001
0000
0000
0000
3100
0000
1000
0000
0001
0000
0000
0001
0000
0000
0010
0000
,  // measure 19
0001
0000
0000
0001
0000
0000
1000
0000
0002
0000
0000
0000
1000
0000
0000
0000
,  // measure 20
0103
0001
0100
0001
0100
0000
0010
0100
0010
0100
0010
0000
0100
0001
0100
0000
,  // measure 21
0001
0000
0000
0001
0010
0000
0100
0000
2000
0000
0000
0000
0001
0000
0000
0000
,  // measure 22
0010
0000
0000
0000
3001
0000
1000
0000
0100
0000
0000
0100
0000
0000
0010
0000
,  // measure 23
0100
0000
0000
0100
0000
0000
1000
0000
0020
0000
0000
0000
1000
0000
0000
0000
,  // measure 24
0130
0010
0100
0010
0100
0000
0001
1000
0001
1000
0001
0000
0100
0010
0100
0000
,  // measure 25
0001
0010
0001
0010
0000
0001
1000
0001
1000
0000
0000
0000
1001
0000
0000
0000
,  // measure 26
1000
0100
1000
0100
0000
1000
0001
1000
0001
0000
0000
0000
1001
0000
0000
0000
,  // measure 27
1000
0010
1000
0010
0000
0100
0010
0100
0010
0000
0000
0000
1001
0000
0000
0000
,  // measure 28
0100
0010
0100
0010
0200
0000
0000
0000
0000
0000
0000
0000
0000
0000
0000
0000
,  // measure 29
0301
1000
0001
0000
1000
0100
0000
0100
1000
0000
0010
0100
0000
0100
0010
0000
,  // measure 30
1000
0000
1000
0000
1001
0000
0000
0000
0100
0001
0100
0000
0101
0000
0000
0000
,  // measure 31
0001
1000
0001
0000
0010
0001
0000
0001
0010
0000
0100
0010
0000
0010
0100
0000
,  // measure 32
1000
0000
1000
0000
1010
0000
0000
0000
0010
1000
0010
0000
1010
0000
0000
0000
,  // measure 33
0100
0010
0100
0000
0001
1000
0000
1000
0001
0000
0010
0001
0000
0001
0010
0000
,  // measure 34
0100
0000
0100
0000
0110
0000
0000
0000
1000
0100
1000
0000
1100
0000
0000
0000
,  // measure 35
1000
0001
1000
0000
0010
0100
0000
0100
0010
0000
0100
0001
0000
0001
0100
0000
,  // measure 36
0002
0000
0000
0000
0000
0000
0000
0000
1003
0001
0000
0001
1000
0000
0100
0000
,  // measure 37
0010
0001
0100
0010
0100
0001
0010
1000
,  // measure 38
0010
0001
1000
0100
1000
0001
0100
1000
,  // measure 39
0100
0001
0010
0100
0010
0001
1000
0010
,  // measure 40
0200
0320
2030
3002
,  // measure 41
1003
0010
0110
0000
1001
0000
0001
0000
,  // measure 42
0010
0001
1001
0000
1100
0000
0100
0000
,  // measure 43
1000
0001
0010
0100
1000
0000
1100
0000
,  // measure 44
0001
0000
0001
0000
1001
0000
0000
0000
0010
0100
0010
0000
0110
0000
0000
0000
,  // measure 45
1000
0100
1000
0010
0100
0001
0100
1000
,  // measure 46
0100
0001
0010
0100
0010
0001
0010
1000
,  // measure 47
0010
0001
1000
0010
0100
0010
1000
0001
,  // measure 48
0020
0230
0320
0032
,  // measure 49
1003
0010
0110
0000
0101
0000
0010
0000
,  // measure 50
1000
0001
1001
0000
0110
0000
0100
0000
,  // measure 51
0001
1000
0100
0010
0001
0000
1001
0000
,  // measure 52
1000
0000
1000
0000
1100
0000
0000
0000
0001
1000
0001
0000
1001
0000
0000
0000
,  // measure 53
0100
0010
0100
0010
0000
1000
0100
1000
0100
0000
0000
0000
1001
0000
0000
0000
,  // measure 54
1000
0010
1000
0010
0000
1000
0001
1000
0001
0000
0000
0000
1001
0000
0000
0000
,  // measure 55
0001
0100
0001
0100
0000
0010
0100
0010
0100
0000
0000
0000
1001
0000
0000
0000
,  // measure 56
0100
0010
0100
0010
0200
0000
0000
0000
0020
0000
0000
0000
0000
0000
0000
0000
,  // measure 57
0330
0000
0000
0000
;

//---------------dance-single - ----------------
#NOTES:
     dance-single:
     :
     Medium:
     7:
     0.403,0.417,0.299,0.556,0.000:
0001
1001
1000
0010
,
0100
0000
0110
0000
0001
0010
0100
0000
,
1000
1001
0110
0110
,
1000
0001
1001
1001
,
0010
0011
0100
1000
,
0010
0000
0110
0000
0100
0001
0010
0000
,
0001
1001
0110
0110
,
2002
0000
0000
3003
,
2000
0000
3002
0000
,
0000
0000
0103
0010
0100
0000
0001
0000
,
0010
0100
2000
0000
,
3020
0000
0000
0230
0000
0000
0301
0000
,
0020
0000
0230
0000
,
0000
0000
1300
0001
1000
0000
0100
0000
,
0010
0001
2000
0000
,
3020
0000
0000
0230
0000
0000
0310
0000
,
2000
0000
3020
0000
,
0000
0000
0130
0010
0100
0000
0001
0000
,
0010
0100
2000
0000
,
3002
0000
0000
0203
0000
0000
0310
0000
,
2000
0000
3002
0000
,
0000
0000
1003
0100
1000
0000
0010
0000
,
0100
0001
2000
0000
,
3002
0000
0000
0203
0000
0000
0310
0000
,
2002
0000
3003
0000
,
0220
0000
0330
0000
,
2002
0000
3003
0000
,
0220
0000
0330
0000
,
0001
0100
0001
0000
0010
0000
0100
0000
,
1000
1001
0010
0110
,
1000
0010
1000
0000
0100
0000
0010
0000
,
0001
1001
0100
0110
,
0001
0010
0001
0000
0100
0000
0010
0000
,
1000
0000
1001
0000
1000
0100
1000
0000
,
0010
0100
0010
0000
0100
0000
0001
0000
,
0010
0000
0000
0000
0000
0000
0001
0100
,
0002
0000
0000
2003
,
0010
0000
3010
0000
0100
0000
0010
1000
,
0020
0000
0000
0230
,
0320
0230
0302
0023
,
0130
0100
0100
0000
,
1000
1000
1000
0000
,
0001
1000
0001
0000
0001
0000
1000
0000
,
1001
0000
0010
0000
0010
0100
0010
0000
,
1000
0100
0010
0002
,
0100
0000
0103
0000
0001
0000
0100
0010
,
0100
0001
0010
0200
,
2300
3020
0230
0302
,
1003
1000
1000
0000
,
0001
0001
0001
0000
,
1000
0001
1000
0000
1000
0000
0010
0000
,
0110
0001
0010
0100
,
2002
0000
3003
0000
,
0220
0000
0330
0000
,
2002
0000
3003
0000
,
0220
0000
0000
0330
;

//---------------dance-single - ----------------
#NOTES:
     dance-single:
     :
     Beginner:
     1:
     0.096,0.176,0.203,0.000,0.000:
1000
0000
0000
0000
,
0001
0000
0000
0000
,
1000
0000
0000
0000
,
0001
0000
0000
0000
,
0100
0000
0000
0000
,
0010
0000
0000
0000
,
0100
0000
0000
0000
,
0110
0000
0000
0000
,
1001
0000
0000
0000
,
0000
0000
0000
0000
,
0000
0000
0000
0000
,
1001
0000
0000
0000
,
0110
0000
0000
0000
,
0000
0000
0000
0000
,
0000
0000
0000
0000
,
0110
0000
0000
0000
,
1001
0000
0000
0000
,
0000
0000
0000
0000
,
0000
0000
0000
0000
,
1001
0000
0000
0000
,
0110
0000
0000
0000
,
0000
0000
0000
0000
,
0000
0000
0000
0000
,
0110
0000
0000
0000
,
1001
0000
0000
0000
,
1001
0000
0000
0000
,
1001
0000
0000
0000
,
1001
0000
0000
0000
,
1000
0000
0000
0000
,
0100
0000
0000
0000
,
1000
0000
0000
0000
,
0001
0000
0000
0000
,
1000
0000
0000
0000
,
0001
0000
0000
0000
,
0010
0000
0000
0000
,
0001
0000
0000
0000
,
0100
0000
0000
0000
,
0100
0000
0000
0000
,
0100
0000
0000
0000
,
0100
0000
0000
0000
,
1001
0000
0000
0000
,
0000
0000
0000
0000
,
0000
0000
0000
0000
,
0000
0000
0000
0000
,
0010
0000
0000
0000
,
0010
0000
0000
0000
,
0010
0000
0000
0000
,
0010
0000
0000
0000
,
1001
0000
0000
0000
,
0000
0000
0000
0000
,
0000
0000
0000
0000
,
1000
0000
0001
0000
,
1001
0000
0000
0000
,
1001
0000
0000
0000
,
1001
0000
0000
0000
,
1001
0000
0000
0000
;
