#TITLE:2.14.13;
#SUBTITLE:;
#ARTIST:dj nagureo;
#TITLETRANSLIT:;
#SUBTITLETRANSLIT:;
#ARTISTTRANSLIT:;
#CREDIT:DigiMindAxel;
#BANNER:2.14.13.png;
#BACKGROUND:2.14.13-bg.png;
#LYRICSPATH:2.14.13.lrc;
#CDTITLE:beatmania.png;
#MUSIC:2.14.13.mp3;
#METERTYPE:DDR X;
#OFFSET:-7.455;
#SAMPLESTART:44.840;
#SAMPLELENGTH:12.000;
#SELECTABLE:YES;
#BPMS:0.000=130.000;
#STOPS:;
#BGCHANGES:;

//---------------dance-single - ----------------
#NOTES:
     dance-single:
     :
     Hard:
     9:
     0.400,0.437,0.316,0.405,0.069:
0010
0100
0020
0000
0000
0000
0000
0000
,
0030
0000
0000
0000
,
0100
0010
0200
0000
0000
0000
0000
0000
,
0300
0000
0000
0000
,
0001
0010
1000
0000
0010
0000
1001
0000
,
1000
0001
0100
0000
0010
0000
1001
0000
,
0001
0010
1000
0000
0010
0000
1001
0000
,
1000
0001
0010
0000
0100
0000
1001
0000
,
0001
1020
0130
0210
,
0301
0021
0130
0210
,
1300
1001
1000
0100
,
0001
0010
1000
0000
0001
0000
1000
0100
,
0001
0000
0000
0000
0010
0000
0000
0000
1001
0000
0000
0000
0001
0000
0000
0001
,
1000
0000
0100
0000
1000
0000
0000
0000
1100
0000
0000
0000
1000
0000
0000
1000
,
0001
0000
0100
0000
0001
0000
0000
0000
0101
0000
0000
0000
0100
0000
0000
0100
,
0010
0000
1000
0000
0010
0000
0000
0000
1010
0000
0000
0000
1000
0000
0000
1000
,
0001
0010
0022
0000
0000
0000
0000
0033
,
0000
0220
0000
0000
0000
0000
0300
0130
,
0000
0000
2200
0000
0000
0000
0000
3300
,
0000
0220
0000
0000
0000
0030
0000
0310
,
0000
1020
0130
0201
,
0310
1200
0310
0120
,
0031
0000
0000
0000
1001
0000
0000
0000
1000
0000
0000
0000
0001
0000
0000
0001
,
1000
0000
0100
0000
0010
0000
0000
0000
0001
0000
0000
0000
1000
0000
0000
1000
,
0001
0000
0100
0000
0010
0000
0000
0000
1000
0000
0100
0000
0010
0000
0000
0010
,
0100
0000
1000
0000
0001
0000
0000
0000
1000
0000
0010
0000
0100
0000
0000
0100
,
0010
0000
1000
0000
0001
0000
0000
0000
0010
0000
0100
0000
1000
0000
0000
1000
,
0001
0000
0010
0000
0100
0000
0000
0100
0010
0000
0001
0000
1000
0000
0010
0000
,
0100
0010
2000
0000
0000
0000
3200
0000
,
0000
0320
0000
0000
,
0031
1000
0001
0000
0010
0000
1000
0000
,
0100
0001
1000
0001
,
1000
0000
0000
0000
0001
0000
0010
0000
0100
0000
1000
0000
0001
0000
0000
0100
,
0001
0000
1000
0000
1000
0000
0100
0000
0010
0000
0001
0000
1000
0000
0000
0010
,
1000
0000
0001
0000
0001
0000
0010
0000
0100
0000
1000
0000
0001
0000
0000
0010
,
0001
0000
1000
0000
1000
0000
0010
0000
0100
0000
0001
0000
1000
0000
0000
0100
,
1000
0001
0001
0100
0010
1000
0100
0001
,
0100
1000
0001
0100
0010
1000
0100
0001
,
0100
1000
0001
0010
0100
0010
0001
1000
,
0010
0001
0010
1000
0100
0010
0100
1000
,
0001
0100
0202
0000
0303
0000
0220
0000
,
0330
2020
3030
2002
,
3003
0220
0000
0000
,
0330
2020
0000
0000
,
3030
2002
0000
0000
,
3003
0022
0000
0000
,
0033
0220
0000
0000
,
0330
2002
0000
0000
,
0000
0000
0000
0000
,
0000
3003
0000
0000
;

//---------------dance-single - ----------------
#NOTES:
     dance-single:
     :
     Medium:
     6:
     0.293,0.340,0.296,0.148,0.020:
0001
1000
0000
0000
,
0000
0000
0000
0000
,
1000
0001
0000
0000
,
0000
0000
0000
0000
,
1001
0001
0001
0100
,
1000
1000
1000
0100
,
0001
0001
0100
1000
,
1000
0000
0100
0000
0001
0000
0001
1000
,
0001
0011
0010
0011
,
0010
1010
0010
1010
,
0010
2002
0000
0000
,
3003
0000
0100
0001
1000
0000
1000
0000
,
0010
0000
1000
0000
0001
0000
0000
0000
1001
0000
0000
0000
1000
0000
0000
0010
,
0000
0000
0010
0000
1000
0000
0000
0000
1001
0000
0000
0000
0001
0000
0000
0100
,
0000
0000
0100
0000
0001
0000
0000
0000
1001
0000
0000
0000
1000
0000
0000
0010
,
0000
0000
0010
0000
1000
0000
0000
0000
1001
0000
0000
0000
0001
0000
0000
0100
,
0000
0100
0002
0000
0000
0000
0000
0000
,
0000
2003
0000
0000
0000
0000
0000
3010
,
0000
2000
0000
0000
,
0000
3002
0000
0000
0000
0000
0103
0000
,
0110
1010
0010
1010
,
0010
0011
0010
0011
,
0010
2002
0000
0000
,
3003
0000
0010
0000
0100
0000
0010
1000
,
0001
0000
0100
0010
0100
0000
0010
1000
,
0000
0000
0100
0010
0100
0000
1000
0001
,
0000
0000
0010
0100
0010
0000
0001
0100
,
0000
0000
0010
0100
0010
0000
1000
0010
,
0100
0002
0000
0000
,
0000
0000
0000
0000
,
1000
1003
0100
0010
,
0001
1000
0010
0100
,
0001
0000
1000
0010
1000
0000
0001
0000
,
0101
0000
0001
0100
0001
0000
1000
0000
,
1010
0000
1000
0100
1000
0000
0001
0000
,
0011
0000
0001
0010
0001
0000
1000
0000
,
1100
0000
1000
0001
1000
0000
0010
0100
,
0001
0000
0100
0010
0100
0000
0001
0010
,
0100
0000
1000
0010
1000
0000
0100
0010
,
0100
0000
1000
0001
0010
0000
0100
1000
,
0010
1010
0000
1010
,
0000
0011
0000
0011
,
0000
2002
0000
0000
,
3003
0220
0000
0000
,
0330
0101
0000
0000
,
0000
1100
0000
0000
,
0000
0011
0000
0000
,
0000
2002
0000
0000
,
0000
0000
0000
0000
,
0000
3003
0000
0000
;

//---------------dance-single - ----------------
#NOTES:
     dance-single:
     :
     Easy:
     3:
     0.173,0.194,0.118,0.049,0.000:
1000
1000
0000
0000
,
0000
0000
0000
0000
,
0001
0001
0000
0000
,
0000
0000
0000
0000
,
0001
0001
1000
0000
,
1000
1000
0001
0000
,
0001
0001
0100
0000
,
1000
1000
0010
0000
,
0001
1001
0000
1000
,
0000
1001
0000
0001
,
0000
0110
0000
1000
,
0000
1000
0000
0001
,
0000
1000
1000
0010
,
0000
0100
0100
0001
,
0000
0001
0001
0010
,
0000
0100
0100
1000
,
0000
0020
0000
0000
,
0000
0130
0000
0000
0000
0000
0000
0000
,
0000
0200
0000
0000
,
0000
0310
0000
0000
0000
0000
0000
0000
,
0000
1000
0001
1000
,
0000
0010
0100
0001
,
0000
0010
0001
1000
,
0000
0001
0010
1000
,
0000
0010
0100
0001
,
0000
0001
1000
0010
,
0000
1000
0100
0001
,
0000
0100
0010
1000
,
0001
2000
0000
0000
,
0000
0000
0000
0000
,
0001
3001
0000
0000
,
1000
1000
0000
0000
,
0000
1001
0001
1000
,
0000
1000
0010
0100
,
0000
0001
0100
1000
,
0000
0010
0100
0001
,
0000
1000
0010
0001
,
0000
0100
0001
1000
,
0000
0010
1000
0001
,
0000
0010
0100
1000
,
0001
1000
0000
1001
,
0000
0110
0000
1001
,
0000
0110
0000
0000
,
0000
0001
0000
0000
,
0000
0110
0000
0000
,
0000
1001
0000
0000
,
0000
0110
0000
0000
,
0000
0220
0000
0000
,
0000
0000
0000
0000
,
0000
0330
0000
0000
;

//---------------dance-single - ----------------
#NOTES:
     dance-single:
     :
     Challenge:
     11:
     0.478,0.510,0.079,0.336,0.178: // measure 1
1000
1000
0002
0000
0100
0000
0000
0000
,  // measure 2
0100
0000
0100
0003
,  // measure 3
1000
1000
0002
0000
0010
0000
0000
0000
,  // measure 4
0010
0000
0010
0003
,  // measure 5
1000
0000
0100
0000
2000
0000
0001
0000
3001
0000
1000
0100
1000
0000
0000
0000
,  // measure 6
0010
0000
0100
0000
0002
0000
1000
0000
1003
0000
0001
0100
0001
0000
0000
0000
,  // measure 7
0010
0000
0100
0000
0020
0000
0001
0000
0031
0000
1000
0010
1000
0000
0000
0000
,  // measure 8
0001
0000
1000
0000
0200
0000
0010
0000
0310
0000
0001
1000
0001
0000
0000
0000
,  // measure 9
1000
0000
0100
0000
1000
0000
0002
0000
0000
0000
1003
0010
0100
0000
0020
0000
,  // measure 10
0000
0000
1030
0001
0010
0000
0002
0000
0000
0000
1003
0100
0010
0000
0200
0000
,  // measure 11
0000
0000
1300
0001
0100
0000
0002
0000
0000
0000
0013
0000
0100
0000
1000
0000
,  // measure 12
0000
1000
0001
0100
0000
0100
0001
0010
,  // measure 13
0000
0000
0010
0000
0100
0000
1000
0000
1100
0000
0000
0000
0100
0000
0000
0100
,  // measure 14
1000
0000
1000
0000
0010
0000
0100
0000
0110
0000
0000
0000
0010
0000
0000
0010
,  // measure 15
0001
0000
0001
0000
0100
0000
0010
0000
0110
0000
0000
0000
0010
0000
0000
0010
,  // measure 16
1000
0000
1000
0000
0001
0000
0010
0000
0011
0000
0000
0000
0001
0000
0000
0001
,  // measure 17
1000
1000
0001
0100
0010
0100
0000
0100
,  // measure 18
0000
0101
0000
0001
0000
0001
0000
1000
,  // measure 19
0000
0100
1000
0100
0000
0100
0000
0100
,  // measure 20
0000
0110
0000
0010
0000
0010
0000
1000
,  // measure 21
0001
0000
0000
0000
1001
0000
0000
1000
0001
0000
0010
0000
0100
0000
0000
0100
,  // measure 22
1000
0000
0001
0000
0100
0000
0000
0100
0001
0000
0010
0000
0100
0000
0000
0100
,  // measure 23
0010
0000
0001
0000
1000
0000
0000
1000
0001
0000
0010
0000
0100
0000
0000
0100
,  // measure 24
1000
0000
0010
0000
0100
0000
0000
0100
0001
0000
1000
0000
0010
0000
0000
0010
,  // measure 25
0100
0000
0001
0000
1000
0000
0100
0000
0010
0000
0100
1000
0100
0000
1000
0001
,  // measure 26
0100
0000
0100
0000
0001
0000
0010
0000
0100
0000
0010
0001
0010
0000
0001
1000
,  // measure 27
0010
0000
0010
0000
1000
0000
0001
0000
0010
0000
0100
0010
0100
0000
0010
0001
,  // measure 28
1000
0000
1000
0000
0010
0000
0100
0000
0001
0000
1000
0100
1000
0000
0001
0100
,  // measure 29
0010
0010
2000
0000
0000
0000
3200
0000
,  // measure 30
0000
0320
0000
0030
,  // measure 31
0001
1000
0001
0000
0100
1000
0100
0000
,  // measure 32
0001
1000
0001
0000
0010
1000
0010
0000
,  // measure 33
0001
0000
1000
0000
0001
0000
0010
0000
0100
0000
0010
0000
0001
0000
0000
0001
,  // measure 34
1000
0000
1000
0000
0010
0000
0100
0000
0010
0000
1000
0000
0100
0000
0000
0100
,  // measure 35
0010
0000
0010
0000
0100
0000
1000
0000
0001
0000
0010
0000
0001
0000
0000
0001
,  // measure 36
1000
0000
1000
0000
0001
0000
0100
0000
0010
0000
0100
0000
0001
0000
0000
0001
,  // measure 37
1000
0000
1000
0000
0100
0000
0001
0000
0100
0000
1000
0000
0001
0000
0100
0001
,  // measure 38
1000
0000
1000
0000
0010
0000
0001
0000
0010
0000
1000
0000
0001
0000
0010
0001
,  // measure 39
1000
0000
1000
0000
0100
0000
0010
0000
1000
0000
0010
0000
0001
0000
0100
0001
,  // measure 40
1000
0000
1000
0000
0010
0000
0100
0000
1000
0000
0100
0000
0001
0000
0010
0001
,  // measure 41
1000
1000
0200
2000
0000
3300
0200
0020
,  // measure 42
0000
0330
0020
0002
0000
0033
0002
2000
,  // measure 43
0000
3003
0020
0200
0000
0000
0000
0000
,  // measure 44
0330
0000
0002
0200
0000
0000
0000
0000
,  // measure 45
0000
0303
0200
0020
0000
0000
0000
0000
,  // measure 46
0000
0330
0020
2000
0000
0000
0000
0000
,  // measure 47
0000
3030
2000
0002
0000
0000
0000
0000
,  // measure 48
3003
0220
0000
0000
,  // measure 49
0000
0000
0000
0000
,  // measure 50
0000
0330
0000
0000
;

//---------------dance-single - ----------------
#NOTES:
     dance-single:
     :
     Beginner:
     1:
     0.068,0.093,0.000,0.000,0.000:
1000
0000
0000
0000
,
0000
0000
0000
0000
,
1000
0000
0000
0000
,
0000
0000
0000
0000
,
0001
0000
0000
0000
,
1000
0000
0000
0000
,
0001
0000
0000
0000
,
1000
0000
0000
0000
,
0000
0010
0000
0010
,
0000
0010
0000
0010
,
0000
0010
0000
0000
,
0000
0000
0000
0000
,
0000
1000
0000
0000
,
0000
0001
0000
0000
,
0000
1000
0000
0000
,
0000
0001
0000
0000
,
0000
0100
0000
0000
,
0000
0000
0000
0000
,
0000
0100
0000
0000
,
0000
0000
0000
0000
,
0000
0100
0000
0100
,
0000
0100
0000
0100
,
0000
0100
0000
0000
,
0000
0001
0000
0000
,
0000
0001
0000
0000
,
0000
1000
0000
0000
,
0000
0001
0000
0000
,
0000
0010
0000
0000
,
0000
0100
0000
0000
,
0000
0000
0000
0000
,
0000
0100
0000
0000
,
0000
0100
0000
0000
,
0000
0100
0000
0000
,
0000
0010
0000
0000
,
0000
0100
0000
0000
,
0000
0010
0000
0000
,
0000
0001
0000
0000
,
0000
1000
0000
0000
,
0000
0001
0000
0000
,
0000
1000
0000
0000
,
0000
0100
0000
0100
,
0000
0100
0000
0100
,
0000
0100
0000
0000
,
0000
0010
0000
0000
,
0000
0010
0000
0000
,
0000
0010
0000
0000
,
0000
0010
0000
0000
,
0000
0001
0000
0000
;
