#TITLE:0時20分のRoulette;
#SUBTITLE:;
#ARTIST:ApachE with T_da;
#TITLETRANSLIT:0JI 20PUN NO Roulette;
#SUBTITLETRANSLIT:;
#ARTISTTRANSLIT:;
#CREDIT:DigiMindAxel;
#BANNER:0JI 20PUN NO Roulette.png;
#BACKGROUND:0JI 20PUN NO Roulette-bg.png;
#LYRICSPATH:0JI 20PUN NO Roulette.lrc;
#CDTITLE:GITADORA.png;
#MUSIC:0JI 20PUN NO Roulette.mp3;
#METERTYPE:DDR X;
#OFFSET:-5.785;
#SAMPLESTART:45.878;
#SAMPLELENGTH:12.000;
#SELECTABLE:YES;
#BPMS:0.000=178.000;
#STOPS:;
#BGCHANGES:;

//---------------dance-single - ----------------
#NOTES:
     dance-single:
     :
     Easy:
     6:
     0.246,0.334,0.103,0.051,0.000:
0001
1000
0001
1000
,
0100
1000
0100
1000
,
0002
1000
0000
1000
,
0000
1000
1003
0001
,
2000
0001
0000
0001
,
0000
0001
3001
1000
,
1001
0000
0000
0000
,
0000
0000
0000
0000
,
1001
0000
0000
0000
,
0000
0000
0000
0000
,
0110
0000
0000
0000
,
0000
0000
0000
0000
,
0110
0000
0000
0000
,
0010
0000
0100
0000
,
0010
0100
0010
0000
,
1000
0001
1000
0000
,
0001
1000
0001
0000
,
0010
0001
0010
0000
,
0100
1000
0100
0000
,
1000
0001
1000
0000
,
0010
1000
0010
0000
,
0100
0001
0100
0001
,
1000
0000
0000
0000
,
1000
0000
0000
0000
,
0001
0000
0000
0000
,
0001
0000
0000
0000
,
1001
0000
1000
0000
,
0001
0000
1000
0000
,
0220
0000
0000
0000
,
0000
0000
0330
0000
,
0010
0100
0010
0100
,
0001
0100
0001
1000
,
0100
0000
0010
0000
,
0001
0000
1000
0000
,
0010
0100
0010
0100
,
0001
0010
0100
1000
,
0001
0000
0010
0000
,
0100
0000
1000
0000
,
0001
0100
0001
0100
,
0001
1000
0001
1000
,
0100
0000
0010
0000
,
0001
0000
1000
0000
,
0010
1000
0010
1000
,
0001
0010
0100
1000
,
0100
0000
0010
0000
,
0001
0000
0000
0000
,
1001
0000
0000
1000
0000
0000
0001
0000
,
0000
1000
0000
0000
0001
0000
1000
0000
,
1001
0000
0010
0000
,
0100
0000
0010
0000
,
1000
0000
0001
0000
,
1000
0000
0001
0000
,
0010
0000
0100
0000
,
1000
0001
1000
0000
,
0100
1000
0100
1000
,
0100
1000
0100
1000
,
1001
0000
0000
0000
,
0010
0000
0000
0000
,
0010
0000
0000
0000
,
0010
0000
0000
0000
,
0110
0000
0000
0000
,
0100
0000
0000
0000
,
0010
0100
0010
0100
,
0010
0000
0000
0000
,
1000
0100
1000
0000
,
0100
0010
0001
0010
,
0100
0010
0100
0010
,
0100
1000
0001
1000
,
0001
0100
0001
0000
,
0010
0100
1000
0100
,
0010
0100
0010
0100
,
0010
0001
1000
0001
,
1001
0000
0000
1000
0000
0000
0001
0000
,
0000
1000
0000
0000
0001
0000
1000
0000
,
1002
0000
0000
0000
,
2000
0000
0000
0000
,
0000
0000
0000
0000
,
0000
0000
0000
0000
,
3003
0000
0000
0000
;

//---------------dance-single - ----------------
#NOTES:
     dance-single:
     :
     Medium:
     8:
     0.460,0.501,0.266,0.223,0.000:
1000
0100
1000
0100
1000
0000
0001
0000
,
1000
0000
0010
0000
0100
0001
0000
1000
,
0000
0001
2000
0000
0000
0000
0000
0000
,
0000
3000
1001
1001
,
0002
0000
0000
0000
,
2003
0000
0000
0000
0000
0001
3001
0000
,
1001
1000
0001
1000
,
0001
1000
0001
1000
,
0110
0010
0100
0010
,
0100
0010
0100
0010
,
1001
1000
0001
1000
,
0001
1000
0001
1000
,
0110
0100
0010
0100
,
1001
1000
0001
1000
,
0001
0010
0001
0000
1000
0000
0100
0000
,
1000
0001
1000
0000
0001
0000
0100
0000
,
0010
0100
0010
0000
1000
0000
0100
0000
,
1000
0001
1000
0000
0100
0000
1000
0000
,
0001
0100
0001
0000
1000
0000
0001
0000
,
1000
0000
0010
1000
0010
0000
1000
0000
,
0001
1000
0001
0000
1000
0100
1000
0000
,
0001
0000
1000
0000
0001
1000
0001
0000
,
2000
0100
3100
0000
,
0020
0001
0031
0000
,
2000
0010
3010
0000
,
0200
0001
0301
1001
,
1001
1000
0001
1000
,
0001
0010
0100
1000
,
0010
0100
0010
0100
0000
0001
0000
0001
,
0000
1000
0001
0000
0001
0000
0000
0000
,
1000
0100
1000
0100
1000
0000
0000
0000
,
0010
0100
0001
1000
,
0200
1300
0020
0130
,
0002
1003
0000
0001
,
0100
0001
0100
0001
0100
0000
0001
0000
,
1000
0100
1000
0001
,
2002
0000
3003
0000
0001
1000
0001
1000
,
0000
0010
0100
0000
0001
0000
0001
0000
,
1000
0010
1000
0010
1000
0000
0001
0000
,
0010
0100
0010
0000
0001
1000
0001
0000
,
0020
0031
0200
0310
,
2000
3001
0000
1000
,
0001
0010
0001
0010
0001
0000
1000
0000
,
0010
0100
0010
0000
1000
0000
0001
0000
,
2002
0000
3003
0000
1000
0001
1000
0001
,
0000
0100
0010
0000
1000
0000
1000
0000
,
1001
0000
0000
1001
0000
0000
0110
0000
,
0000
0110
0000
0000
0001
0000
1000
0000
,
1001
0001
0100
0010
,
1000
0000
1001
0000
0001
0000
0100
0010
,
0100
0001
1000
0001
,
1000
0000
0010
0100
0010
0000
1000
0000
,
0001
0010
0001
0010
0001
0010
0001
0000
,
1000
0100
1000
0100
1000
0000
0001
0000
,
0110
0100
0100
0100
,
0100
0010
0100
0010
0100
0010
0100
0000
,
0001
1000
0001
1000
0000
0000
0000
0000
,
1001
0000
0000
1001
0000
0000
0000
0000
,
1000
0001
1000
0001
0000
0000
0000
0000
,
1001
0000
0000
1001
0000
0000
0000
0000
,
0120
0000
0130
0000
,
0002
0000
1003
0000
,
1001
0000
0001
0000
0001
0000
1000
0001
,
0000
1000
0001
0000
1000
0000
1000
0000
,
1001
0000
0001
0100
0001
0000
0010
0000
,
0100
0010
0100
0000
1000
0001
1000
0000
,
0020
1030
0002
0103
,
0002
0000
1003
0000
0001
0000
1000
0001
,
1000
0100
1000
0100
1000
0000
0010
0000
,
0100
0010
0100
0000
0001
0010
0001
0000
,
2002
0000
3003
0000
1000
0001
1000
0001
,
0000
1000
0001
0000
1000
0000
1000
0000
,
1001
0000
0000
1001
0000
0000
0110
0000
,
0000
0110
0000
0000
0001
1000
0001
0000
,
2001
0000
0000
0000
,
0200
0000
0000
0000
,
0000
0000
0000
0000
,
0000
0000
0000
0000
,
3300
0000
0000
0000
;

//---------------dance-single - ----------------
#NOTES:
     dance-single:
     :
     Hard:
     12:
     0.629,0.602,0.677,0.369,0.013: // measure 1
0001
1000
0100
1000
0001
0000
0101
0000
,  // measure 2
1001
0000
1001
0000
1000
0010
0000
0200
,  // measure 3
0000
0001
0302
0000
0000
0000
1000
0000
,  // measure 4
0000
1003
1100
1100
,  // measure 5
2001
0000
0000
0000
0001
0000
0000
0000
0000
0000
0000
0000
3001
0000
1000
0001
,  // measure 6
1000
0100
0010
0001
1000
0100
1100
0000
,  // measure 7
1000
0001
1000
0000
0000
0000
1000
0000
,  // measure 8
0000
0000
1000
0000
0000
1000
1000
0001
,  // measure 9
1000
0010
0100
0000
0000
0000
0100
0000
,  // measure 10
0000
0000
0100
0000
0000
0100
0100
0001
,  // measure 11
0010
0100
1000
0000
0000
0000
1000
0000
,  // measure 12
0000
0000
1000
0000
0000
1000
1000
0010
,  // measure 13
0100
0001
1000
0000
0000
0000
1000
0001
,  // measure 14
0001
0010
0100
2000
0000
3001
1001
0000
,  // measure 15
0001
1000
0001
1000
0001
0010
0001
2000
,  // measure 16
0100
0000
3200
0010
0000
0320
0001
0000
,  // measure 17
0031
1000
0001
1000
0001
0100
0001
0200
,  // measure 18
0010
0000
0302
1000
0000
2003
0010
0000
,  // measure 19
3001
0010
0001
0010
0001
1000
0001
2000
,  // measure 20
0100
0000
3200
0010
0000
2300
0100
0000
,  // measure 21
3001
1000
0100
0010
0100
1000
0010
0000
,  // measure 22
0100
0001
0010
0100
0010
0001
0101
0000
,  // measure 23
0001
1000
0100
0010
0000
0000
0010
0000
,  // measure 24
0001
1000
0010
0100
0000
0000
0100
0000
,  // measure 25
0001
0010
0100
1000
0000
0000
1000
0000
,  // measure 26
0001
0100
0010
1000
0000
0000
1001
0000
,  // measure 27
1000
0100
1000
0100
1000
0001
1000
0001
,  // measure 28
0100
0001
0010
0001
0100
0001
0010
0100
,  // measure 29
1000
1000
1000
1001
0000
0101
0000
0101
,  // measure 30
0000
0010
0110
0000
0110
0000
0000
0000
,  // measure 31
0201
0000
0320
1000
1030
0001
0000
0001
,  // measure 32
1000
1100
0110
0011
,  // measure 33
1002
0103
2001
3010
,  // measure 34
1000
0001
0010
0002
0000
0000
1003
0000
,  // measure 35
1200
0000
2300
0001
3001
1000
0000
1000
,  // measure 36
0001
0101
0110
1010
,  // measure 37
1001
0000
0001
1000
0100
0010
0100
2000
,  // measure 38
0000
0001
3001
0000
0101
0000
0101
0000
,  // measure 39
1002
0000
0203
0010
0310
1000
0000
1000
,  // measure 40
0001
0011
0110
1100
,  // measure 41
2001
3010
1002
0103
,  // measure 42
0001
0100
0001
2000
0000
0000
3001
0000
,  // measure 43
0021
0000
0032
1000
1003
0010
0000
0010
,  // measure 44
1000
1010
0110
0101
,  // measure 45
1001
0000
0001
0100
0010
1000
0010
0200
,  // measure 46
0000
0001
0301
0000
1001
0000
1001
0000
,  // measure 47
1001
0000
1000
1100
0000
0100
0110
0000
,  // measure 48
0010
0011
0000
0001
1001
0000
1001
0000
,  // measure 49
0201
0000
0000
0000
0010
0000
0000
0000
0310
0000
1000
0001
2000
0000
0000
0000
,  // measure 50
0100
0000
3100
1000
0001
0100
0010
0200
,  // measure 51
0000
0000
0301
1000
0100
0001
0100
1000
,  // measure 52
0002
0000
0000
0000
1003
0001
2000
0000
0000
0000
0000
0000
3001
0000
0000
0000
,  // measure 53
1000
0001
0010
1000
0010
0001
1000
0000
,  // measure 54
0010
0100
0001
0020
0000
0000
0130
0000
,  // measure 55
1000
0010
0001
0010
1000
0010
0001
0010
,  // measure 56
1000
1000
0001
0001
1000
1000
1001
0000
,  // measure 57
0100
0100
0100
1100
0000
0000
0000
0000
,  // measure 58
0110
0000
0000
0110
0000
0000
0000
0000
,  // measure 59
0100
0100
0100
0101
0000
0000
0000
0000
,  // measure 60
0110
0000
0000
0110
0000
0000
0000
0000
,  // measure 61
1001
1000
1100
0000
,  // measure 62
0010
0100
0101
0000
,  // measure 63
0001
1000
0001
1000
0001
1000
0010
0110
,  // measure 64
0000
0100
0101
0000
1001
0000
1001
0000
,  // measure 65
1200
0000
1000
2300
0000
0001
3001
0000
,  // measure 66
1000
0001
0010
0100
0010
0001
1000
0000
,  // measure 67
1020
0130
0201
0310
,  // measure 68
1000
0100
0010
0001
0010
0100
1000
0001
,  // measure 69
1002
0000
0203
0001
0301
1000
0000
1000
,  // measure 70
0001
0101
0110
1010
,  // measure 71
1001
0000
1000
0010
0100
0001
1000
1001
,  // measure 72
0000
0001
0101
0000
0110
0000
0110
0000
,  // measure 73
1001
0000
0100
1100
0000
1000
1001
0000
,  // measure 74
0001
0101
0000
0100
0101
0010
0100
1000
,  // measure 75
0020
0000
0000
0000
,  // measure 76
2000
0000
0000
0000
,  // measure 77
0000
0000
0000
0000
,  // measure 78
0000
0000
0000
0000
,  // measure 79
3030
0000
0000
0000
;

//---------------dance-single - ----------------
#NOTES:
     dance-single:
     :
     Beginner:
     2:
     0.105,0.193,0.111,0.000,0.000:
1000
0000
0000
0000
,
0100
0000
0000
0000
,
1000
0000
0000
0000
,
0100
0000
0000
0000
,
0010
0000
0000
0000
,
0001
0000
0000
0000
,
1001
0000
0000
0000
,
0000
0000
0000
0000
,
0100
0000
0000
0000
,
0000
0000
0000
0000
,
0110
0000
0000
0000
,
0000
0000
0000
0000
,
0010
0000
0000
0000
,
0100
0000
0000
0000
,
0001
0000
0000
0000
,
0001
0000
0000
0000
,
0001
0000
0000
0000
,
0000
0000
0000
0000
,
1000
0000
0000
0000
,
1000
0000
0000
0000
,
1000
0000
0000
0000
,
0000
0000
0000
0000
,
1001
0000
0000
0000
,
1000
0000
0000
0000
,
0001
0000
0000
0000
,
1000
0000
0000
0000
,
0100
0000
0000
0000
,
0010
0000
0000
0000
,
0100
0000
0000
0000
,
0000
0000
0000
0000
,
0110
0000
0000
0000
,
0010
0000
0000
0000
,
0100
0000
0000
0000
,
0010
0000
0000
0000
,
1000
0000
0000
0000
,
0100
0000
0000
0000
,
1000
0000
0000
0000
,
1001
0000
0000
0000
,
0001
0000
0000
0000
,
0100
0000
0000
0000
,
0001
0000
0000
0000
,
0100
0000
0000
0000
,
0010
0000
0000
0000
,
0100
0000
0000
0000
,
0010
0000
0000
0000
,
0110
0000
0000
0000
,
0001
0000
0000
0000
,
0000
0000
0000
0000
,
1001
0000
0000
0000
,
1000
0000
0000
0000
,
0001
0000
0000
0000
,
1000
0000
0000
0000
,
0010
0000
0010
0000
,
0100
0000
0100
0000
,
0110
0000
0000
0000
,
0010
0000
0000
0000
,
0110
0000
0000
0000
,
0000
0000
0000
0000
,
0110
0000
0000
0000
,
0000
0000
0000
0000
,
1000
0000
0000
0000
,
0001
0000
0000
0000
,
1000
0000
0000
0000
,
1001
0000
0000
0000
,
0001
0000
0000
0000
,
0100
0000
0010
0000
,
0100
0000
0000
0000
,
0001
0000
0000
0000
,
1000
0000
0100
0000
,
0010
0000
0100
0000
,
0010
0000
0100
0000
,
1000
0000
0000
0000
,
1001
0000
0000
0000
,
0000
0000
0110
0000
,
0010
0000
0000
0000
,
0010
0000
0000
0000
;
