#TITLE:spring pony;
#SUBTITLE:;
#ARTIST:S-C-U;
#TITLETRANSLIT:;
#SUBTITLETRANSLIT:;
#ARTISTTRANSLIT:;
#CREDIT:DigiMindAxel;
#BANNER:spring pony.png;
#BACKGROUND:spring pony-bg.png;
#LYRICSPATH:;
#CDTITLE:pop'n music.png;
#MUSIC:spring pony.mp3;
#OFFSET:-6.860;
#SAMPLESTART:19.600;
#SAMPLELENGTH:12.000;
#SELECTABLE:YES;
#DISPLAYBPM:150.000;
#BPMS:0.000=150.000,205.000=300.000,217.000=150.000;
#STOPS:140.000=1.200
;
#BGCHANGES:;

//---------------dance-single - ----------------
#NOTES:
     dance-single:
     :
     Easy:
     3:
     0.286,0.283,0.090,0.081,0.000:
0001
1000
0001
1000
,
0001
0100
0001
0100
,
0010
1000
0010
1000
,
0100
0010
0001
1000
,
0100
1000
0100
1000
,
0001
1000
0001
1000
,
0001
0010
0001
0010
,
0001
1000
0001
0000
,
1000
1000
1000
0000
,
0100
0100
0100
0000
,
0020
0000
0032
0000
,
1003
0000
0000
0000
,
0001
1000
0001
0000
,
0100
0010
0100
0000
,
0001
0001
0001
0000
,
0010
0010
0010
0000
,
0200
0000
0320
0000
,
0031
0000
0000
0000
,
1000
0001
1000
0000
,
0010
0100
0010
0010
,
0110
0000
1001
0000
,
0100
1000
0100
0000
,
1001
0000
0110
0000
,
0010
0001
0010
0000
,
0001
1000
0001
1000
,
0001
0100
0001
0100
,
0010
1000
0010
1000
,
0001
0010
0100
1000
,
1001
0000
0110
0000
,
1000
0001
1000
0000
,
1001
0000
0110
0000
,
0010
0100
0010
0000
,
1000
0001
1000
0001
,
1000
0100
1000
0100
,
0220
0000
0000
0330
,
0000
0001
1000
0001
,
1000
0100
1000
0100
,
1000
0001
0100
0001
,
0100
0001
1000
0001
,
1000
0001
0010
0001
,
0010
0001
1000
0100
,
1000
0010
0100
0001
,
0010
0100
1000
0100
,
1000
0001
0001
0010
,
0010
0100
0100
1000
,
1000
0001
0001
0010
,
0010
0100
0100
1000
,
1000
0001
0001
0100
,
0100
0001
0001
1000
,
1000
0010
0010
1000
,
1000
0100
0010
0001
,
0010
0200
0000
0000
,
0000
0000
0000
0000
,
0000
0000
0000
0000
,
0000
1300
0001
1000
,
0100
1000
0001
1000
,
0100
1000
0010
0100
,
0001
0010
0100
1000
,
0001
0010
0001
0100
,
0001
0010
0001
0100
,
0001
0010
0100
1000
,
0100
0010
0001
1000
,
0000
2002
0000
0000
,
0000
3003
0000
0000
0000
0000
0000
0000
;

//---------------dance-single - ----------------
#NOTES:
     dance-single:
     :
     Medium:
     6:
     0.403,0.425,0.126,0.171,0.009:
1000
1000
0100
0100
,
1000
1000
0100
0100
,
1000
1000
0001
0001
,
1000
1000
0001
0001
,
0100
0100
0001
0001
,
0010
0010
0100
0100
,
0010
0010
0001
0001
,
1000
0000
1000
0000
0001
1000
0001
1000
,
0001
0100
0010
0000
0100
0000
0100
0000
,
0001
0010
0100
0000
0010
0000
0010
0000
,
0002
0000
0000
1003
0000
0020
0000
0000
,
0130
0000
0010
0000
0100
0010
0100
0000
,
0002
1000
1003
0001
,
2000
0000
0001
0000
3001
1000
0100
0000
,
1001
1000
0010
0010
,
1000
1000
0001
0001
,
0100
0100
0010
0010
,
0100
0000
0100
0000
0001
1000
0001
1000
,
0020
0100
0130
0001
,
2000
0000
0100
0000
3100
0010
0001
1000
,
0000
1100
0000
0000
1001
0000
0000
0000
,
0220
0000
0000
0330
,
0000
0101
0000
0000
1001
0000
0000
0000
,
0220
0000
0000
0330
,
1000
0100
0001
0100
,
1000
0010
0100
0001
,
1000
1000
0001
0001
,
0100
0100
0010
0010
,
0000
1001
0000
0000
1100
0000
0000
0000
,
0220
0000
0000
0330
,
0000
0101
0000
0000
1001
0000
0000
0000
,
0220
0000
0000
0330
,
0001
0010
1000
0010
,
0001
0100
0010
1000
,
0220
0000
0000
0000
0030
0000
0001
0301
,
0000
0000
1000
0100
0010
0100
1000
0000
,
0001
0000
1000
0100
0010
0100
1000
0000
,
0001
0000
0100
0001
0010
0001
0100
0000
,
0001
2000
0000
0100
,
3100
0000
0010
0100
1000
0100
0010
0000
,
0001
0000
0010
0100
1000
0100
0010
0000
,
0001
0000
0100
0001
0010
0001
0100
0000
,
0001
2000
0000
0100
,
3100
0000
0010
0001
0010
0000
0100
0010
,
0100
0000
0010
0001
0010
0000
0100
0010
,
0100
0000
1000
0010
1000
0000
0010
0100
,
0010
0000
1000
0010
1000
0000
0010
0100
,
0010
0000
1000
0100
0010
0000
0001
1000
,
0001
0000
1000
0100
0010
0000
0001
1000
,
0001
0000
1000
0010
0100
0000
0001
0100
,
0010
0000
0100
0010
0100
0010
0100
0010
,
1000
0001
2000
0000
0000
0000
0000
0000
,
0000
0000
0000
0000
,
0000
0000
0000
0000
,
0000
0000
3001
1000
0001
0010
0100
1000
,
0010
0000
1000
0001
1000
0100
0010
0001
,
0100
0000
0001
0001
0000
1000
1000
0000
,
0001
0001
1000
0100
0010
0000
0001
1000
,
0010
0000
0100
0010
0100
0001
0010
0100
,
1000
0000
0010
0100
0010
1000
0010
0100
,
0001
0000
1000
1000
0000
0001
0001
0000
,
1000
1000
0001
0010
0100
1000
0100
0010
,
0001
0000
0000
0000
1000
0000
1000
0000
1000
0000
0000
0010
0000
0100
0000
0000
,
0001
0001
0000
0000
0000
0000
0000
0000
;

//---------------dance-single - ----------------
#NOTES:
     dance-single:
     :
     Hard:
     9:
     0.762,0.765,0.081,0.153,0.907: // measure 1
1000
0000
0001
0000
0000
0100
0000
0000
1000
0000
0000
0100
0000
0000
0001
0000
,  // measure 2
0000
0000
1000
0000
0000
0100
0000
0000
0001
0000
0000
0100
0000
0000
1000
0000
,  // measure 3
0001
0000
0000
0010
0000
0000
0100
0000
0000
0001
0000
0000
0100
0000
1000
0000
,  // measure 4
0010
0000
0000
0100
0000
0000
0010
0000
1000
0000
0100
0000
0010
0000
0001
0000
,  // measure 5
1000
0000
0001
0000
0000
0010
0000
0000
1000
0000
0000
0010
0000
0000
0001
0000
,  // measure 6
0000
0000
1000
0000
0000
0010
0000
0000
0001
0000
0000
0010
0000
0000
1000
0000
,  // measure 7
0001
0000
0000
0100
0000
0000
0010
0000
0000
0001
0000
0000
0010
0000
1000
0000
,  // measure 8
0001
0000
0000
0010
0000
0000
0100
0000
1000
0000
0001
0000
0010
0000
0100
0000
,  // measure 9
1000
0000
1000
0000
0010
0000
0100
0001
0000
1000
0100
1000
0100
1000
0100
0000
,  // measure 10
1000
0000
1000
0000
0100
0000
0010
0001
0000
1000
0010
1000
0010
1000
0010
0000
,  // measure 11
0100
0000
0001
2000
0000
0000
3100
0000
0000
0000
1000
0000
0001
0020
0000
0000
,  // measure 12
0031
0100
0010
0100
0000
0010
0100
0001
,  // measure 13
0001
0000
1000
0100
0000
1000
0000
0100
1000
0000
0010
0000
0100
0001
0000
0001
,  // measure 14
1000
0000
0001
0010
0000
0001
0000
0010
0001
0000
0100
0000
0010
0000
1000
0000
,  // measure 15
0001
0000
0001
0000
0100
0000
0010
1000
0000
0100
0010
0100
0010
0100
0010
0000
,  // measure 16
0001
0000
0001
0000
0010
0000
0100
1000
0000
0010
0100
0010
0100
0010
0100
0000
,  // measure 17
0001
0000
1000
0200
0000
0000
0310
0000
0000
0000
0001
0000
1000
0020
0000
0000
,  // measure 18
0130
0001
0100
0010
0000
1000
1000
0001
,  // measure 19
0010
0000
0100
1000
0000
0010
0000
1000
0100
0000
0010
0000
0001
1000
0000
1000
,  // measure 20
0010
0000
0100
0001
0000
0010
0000
0001
0100
0010
0100
0010
0100
0010
0100
0010
,  // measure 21
0000
0000
1000
0100
1000
0001
0100
0000
0001
0100
0001
1000
0100
0000
1000
0001
,  // measure 22
1000
0000
0010
0100
0000
0001
0000
0020
0000
0000
0001
0000
0031
0000
1000
0001
,  // measure 23
1000
0010
1000
0100
0010
0000
0001
0100
0001
0010
0100
0000
1000
0001
1000
0001
,  // measure 24
1000
0000
0010
0000
0100
0001
0000
0020
0000
0000
0100
0000
0130
0000
1000
0001
,  // measure 25
1000
0000
0010
0000
0100
0000
0001
0100
0000
0200
0000
0000
0301
0000
1000
0001
,  // measure 26
1000
0000
0100
0000
0010
0000
0001
0020
0000
0000
0001
0000
0031
0000
1000
0000
,  // measure 27
1100
0000
0000
0110
0000
0000
1001
0000
0000
0000
1000
0000
0100
0000
0001
0000
,  // measure 28
0100
1000
0001
0010
1000
0010
0001
1000
,  // measure 29
0000
0000
0001
0100
0001
1000
0100
0000
1000
0100
1000
0001
0100
0000
0001
1000
,  // measure 30
0001
0000
0010
0100
0000
1000
0000
0010
0000
0100
0010
0100
0001
0000
1000
0001
,  // measure 31
1000
0100
0010
0001
1000
0000
0001
0100
0010
1000
0001
0000
0100
0010
0100
0010
,  // measure 32
0100
0000
0001
0000
1000
0100
0000
0010
0000
0001
0100
0010
0100
0000
0001
0100
,  // measure 33
0001
1000
0000
0100
0000
0010
0000
0002
0000
0000
1000
0000
1003
0000
0001
0010
,  // measure 34
0001
1000
0000
0010
0000
0100
0000
0002
0000
0000
1000
0000
1003
0000
0001
1000
,  // measure 35
0001
0100
0000
0100
0000
0010
0000
0010
0000
1000
0000
1000
0001
0000
0001
0000
,  // measure 36
0000
0000
0000
0000
0101
0000
0010
0000
0100
0000
1000
0001
0000
0001
0000
1000
,  // measure 37
0001
0000
0001
0000
1000
0000
0100
0000
0010
0000
0001
1000
0000
1000
0000
0001
,  // measure 38
1000
0000
1000
0000
0010
0000
0100
0000
0001
0100
0000
1000
0000
0100
0001
0000
,  // measure 39
1000
0000
0010
0100
0002
0000
0000
1000
0000
0000
1003
0000
0100
0000
0010
0000
,  // measure 40
0001
0000
1000
0000
1010
0000
0100
0000
0010
0000
0001
1000
0000
1000
0000
0001
,  // measure 41
1000
0000
1000
0000
0001
0000
0100
0000
0010
0000
1000
0001
0000
0001
0000
1000
,  // measure 42
0001
0000
0001
0000
0010
0000
0100
0000
1000
0010
0000
0001
0000
0010
1000
0000
,  // measure 43
0001
0000
0100
0010
0200
0000
0000
0001
0000
0000
0301
0000
1000
0000
0100
0000
,  // measure 44
0010
0000
0001
0000
1000
0000
0100
1000
0100
0000
0010
0000
0100
0000
1000
0000
,  // measure 45
0001
0000
1000
0000
0001
0000
0010
0001
0010
0000
0100
0000
0010
0000
0001
0000
,  // measure 46
1000
0000
0001
0000
1001
0000
0010
1000
0010
0000
0100
0000
0001
0000
0010
0000
,  // measure 47
0100
0000
1000
0000
0001
0000
0100
0001
0100
0000
0001
0000
0010
0000
0100
0000
,  // measure 48
1000
0000
0010
0000
0110
0000
0100
0010
1000
0000
0100
0000
0001
0000
0100
1000
,  // measure 49
0010
0000
0010
0000
0110
0000
0100
0001
1000
0000
0010
0000
0001
0000
0010
1000
,  // measure 50
0100
0000
0100
0000
0110
0000
0010
0001
0100
0000
0010
0000
0100
1000
0010
0000
,  // measure 51
0100
0000
0001
0010
0100
0000
0010
0000
0001
0100
0010
0000
1000
0001
0100
0001
,  // measure 52
1000
0100
0020
0000
0000
0000
0000
0000
,  // measure 53
0000
0000
0000
0000
,  // measure 54
0000
0000
0000
0000
,  // measure 55
0000
0000
0000
0000
0031
0000
1000
0010
1000
0001
0000
0200
0000
0301
1000
0001
,  // measure 56
1000
0001
1000
0000
0001
0000
1000
0100
1000
0001
0000
0020
0000
0031
1000
0001
,  // measure 57
1000
0001
1000
0000
0001
0010
0100
1000
0000
0000
1000
0100
0010
0001
0000
0000
,  // measure 58
0001
0010
0100
1000
0010
0100
0010
0100
0010
0000
1000
0001
0000
0001
1000
0010
,  // measure 59
1000
0001
0010
0000
0100
0000
1000
0010
1000
0100
0000
0020
0000
0031
1000
0001
,  // measure 60
1000
0001
1000
0000
0100
0000
0010
0001
0010
0100
0000
0020
0000
0031
1000
0001
,  // measure 61
1000
0001
1000
0000
0001
0100
0010
1000
0000
0000
1000
0010
0100
0001
0000
0000
,  // measure 62
0001
0100
0010
1000
0001
0010
0001
0010
0100
0000
1000
0010
0000
0010
0100
0001
,  // measure 63
0100
0001
1000
0000
0010
0000
0010
0000
0010
0000
1000
0001
0000
0001
0000
1000
,  // measure 64
0001
0001
0000
0000
0000
0000
0000
0000
;

//---------------dance-single - ----------------
#NOTES:
     dance-single:
     :
     Beginner:
     2:
     0.106,0.196,0.171,0.000,0.000:
0001
0000
0000
0000
,
0001
0000
0000
0000
,
1000
0000
0000
0000
,
1000
0000
0000
0000
,
1001
0000
0000
0000
,
0001
0000
0000
0000
,
1000
0000
0000
0000
,
1000
0000
0000
0000
,
0010
0000
0000
0000
,
0010
0000
0000
0000
,
0100
0000
0000
0000
,
0000
0000
0000
0000
,
0001
0000
0000
0000
,
1000
0000
0000
0000
,
1001
0000
0000
0000
,
0100
0000
0000
0000
,
0100
0000
0000
0000
,
0000
0000
0000
0000
,
0010
0000
0000
0000
,
0100
0000
0000
0000
,
0100
0000
0000
0000
,
1001
0000
0000
0000
,
0100
0000
0000
0000
,
1001
0000
0000
0000
,
0001
0000
0000
0000
,
1000
0000
0000
0000
,
0001
0000
0000
0000
,
0010
0000
0000
0000
,
0010
0000
0000
0000
,
1001
0000
0000
0000
,
0010
0000
0000
0000
,
1001
0000
0000
0000
,
1000
0000
0000
0000
,
0001
0000
0000
0000
,
1001
0000
0000
0000
,
0000
1001
0000
0000
,
0000
1000
0000
0000
,
0000
0001
0000
0000
,
0000
0010
0000
0000
,
0000
1001
0000
0000
,
0000
0001
0000
0000
,
0000
1000
0000
0000
,
0000
0100
0000
0000
,
0000
1001
0000
1000
,
0000
0001
0000
0000
,
0000
1001
0000
0001
,
0000
1000
0000
0000
,
0000
1001
0000
0001
,
0000
1001
0000
1000
,
0000
1001
0000
1001
,
0000
1001
0000
0000
,
0000
1001
0000
0000
,
0000
0000
0000
0000
,
0000
0000
0000
0000
,
0000
1000
0000
0000
,
0000
0001
0000
0000
,
0000
1000
0000
0000
,
0000
0010
0000
0000
,
0000
1001
0000
0000
,
0000
0001
0000
0000
,
0000
1000
0000
0000
,
0000
0010
0000
0000
,
0000
0110
0000
0000
;
