#TITLE:rottel-the-Mercury;
#SUBTITLE:;
#ARTIST:sampling masters MEGA;
#TITLETRANSLIT:;
#SUBTITLETRANSLIT:;
#ARTISTTRANSLIT:;
#CREDIT:DigiMindAxel;
#BANNER:rottel-the-Mercury.png;
#BACKGROUND:rottel-the-Mercury-bg.png;
#LYRICSPATH:;
#CDTITLE:beatmania IIDX.png;
#MUSIC:rottel-the-Mercury.mp3;
#OFFSET:-5.188;
#SAMPLESTART:5.140;
#SAMPLELENGTH:12.000;
#SELECTABLE:YES;
#BPMS:0.000=200.000;
#STOPS:;
#BGCHANGES:-18.000=rottel-the-Mercury.avi=1.000=1=1=0,
99999=-nosongbg-=1.000=0=0=0 // don't automatically add -songbackground-
;

//---------------dance-single - ----------------
#NOTES:
     dance-single:
     :
     Easy:
     4:
     0.324,0.386,0.126,0.207,0.000:
0001
1000
0001
0000
,
0010
0001
0010
0001
,
1000
0001
1000
0000
,
0010
0100
0010
0100
,
0001
1000
0001
0000
,
0010
0001
0010
0001
,
1000
0001
1000
0000
,
0020
0000
0000
0030
,
0200
0000
0000
0000
,
0320
0000
0000
0000
,
0230
0000
0000
0000
,
0302
0000
0000
0000
,
2003
0000
0000
0000
,
3200
0000
0000
0000
,
0310
0000
0000
0000
,
1001
0000
0000
0000
,
0002
0000
0000
0000
,
0000
0000
0000
0000
,
2003
0000
0000
0000
,
0000
0000
0000
0000
,
3001
0000
1000
0000
,
0001
0000
0100
0000
,
0010
0000
1000
0000
,
0001
0200
0000
0000
,
0310
0000
0100
0000
,
0010
0000
1000
0000
,
0001
0000
1000
0000
,
0000
0000
0000
0000
,
0001
1000
0001
1000
,
0001
0100
0001
0000
,
1000
0001
1000
0001
,
1000
0100
1000
0000
,
0010
0100
0010
0100
,
0001
1000
0001
0010
,
0110
0000
0100
0000
,
1001
0000
0000
0000
,
1000
0100
1000
0001
,
1000
0100
1000
0000
,
0001
0100
0001
1000
,
0001
0100
0001
0000
,
0010
0100
0010
0001
,
0010
0100
1000
0000
,
0100
0010
0100
1000
,
0001
0000
1001
0000
,
0100
0100
0110
0000
,
1000
0100
0010
0001
,
0100
0100
0110
0000
,
0001
0010
0100
1000
,
0010
0010
0110
0000
,
1000
0010
0100
0001
,
1001
0000
0110
0000
,
1001
0000
0000
0000
,
0020
0000
0000
0030
,
0100
0001
1000
0100
,
2000
0000
0000
3000
,
0010
0100
0010
0100
,
0002
0000
0000
0003
,
0010
0100
0010
0100
,
2000
0000
0000
0000
,
3001
0000
0000
0000
,
1001
0000
0000
0000
,
1000
0000
0000
0000
,
0001
0000
0000
0000
,
0100
0110
0000
0000
,
0001
0100
0001
1000
,
0001
0100
0001
1000
,
0100
0000
0010
0000
,
0001
1000
0001
1000
,
0020
0000
0230
0000
,
0302
0000
1003
0100
,
2000
0000
3002
0000
,
0203
0000
0301
0100
,
0001
0000
1000
0000
,
0010
0000
0100
0000
,
0001
0001
1000
1000
,
0020
0000
0000
0030
,
0100
0010
0100
0000
,
0001
1000
0001
0010
,
0001
1000
0001
0000
,
1000
0100
1000
0010
,
0100
0010
1000
0000
,
0001
0010
0100
1000
,
0001
0001
1000
1000
,
0001
0001
1000
1000
,
0010
0010
0100
0100
,
0220
0000
0330
0110
;

//---------------dance-single - ----------------
#NOTES:
     dance-single:
     :
     Hard:
     8:
     0.641,0.656,0.630,0.396,0.018:
0101
0000
0101
0000
0000
0010
1000
0100
,
0010
0001
0000
0001
0000
0001
0100
0010
,
1000
0000
1010
0000
0000
0100
0001
0010
,
0100
0001
0100
1000
,
1100
0000
1100
0000
0010
0100
1000
0100
,
0010
0001
0000
0001
0000
0001
1000
0100
,
0010
0000
0001
0010
0001
0010
0100
1000
,
0000
0001
0000
0001
0000
0001
1000
0000
,
1001
0000
0000
0110
0000
0000
1001
0000
,
0010
0100
0000
0010
0100
0001
0000
1000
,
0000
1001
0000
0000
0110
0000
0000
0100
,
0010
1000
0000
0100
0010
0001
0000
0000
,
1001
0000
0000
0110
0000
0000
1001
0000
,
0100
0010
0000
0100
0010
0001
0000
0001
,
1000
0000
0020
0000
0130
0000
0000
0001
,
0000
0001
0000
0001
1000
0000
0000
0000
,
2001
0000
3020
0000
,
0230
0000
0301
0010
,
0210
0000
0302
0000
,
0023
0000
0130
1000
,
0110
0001
1001
1000
,
0110
0010
0100
0010
,
1000
0100
1000
0100
0010
0001
0010
0001
,
1000
0010
0200
0000
0000
0000
0000
0000
,
0301
1000
0000
1000
0010
0100
0000
0001
,
0010
0100
0000
0100
0000
1000
0001
1000
,
0001
0100
0000
0100
0010
1000
0000
0001
,
0200
0000
0000
0000
,
0301
0100
1000
0100
,
0010
1000
0001
0000
0010
0000
0100
0000
,
1000
0010
0001
0010
,
0100
0001
1000
0000
0100
0000
0010
0000
,
1001
0000
1000
0000
0001
0000
1000
0010
,
0100
0010
0100
0010
,
2002
3003
0220
0330
,
2002
0000
0000
3003
,
0000
1000
0010
0000
0010
1000
0000
0001
,
0000
1000
0100
0010
0100
1000
0001
0100
,
0000
0001
0100
0000
0100
0001
0000
1000
,
0000
0001
0010
0100
0010
0001
1000
0010
,
0000
0100
0010
0000
0010
0100
0000
0001
,
0000
1000
0010
0100
0010
1000
0010
0100
,
0000
0001
1000
0000
1000
0001
0000
1000
,
0010
0010
0200
0000
0310
0010
0200
0000
,
0310
0110
0110
0000
,
0101
0000
0010
1000
0000
1000
0001
0000
,
1001
1001
1001
0000
,
0011
0000
0100
1000
0000
1000
0001
0000
,
0110
0110
0110
0000
,
0110
0000
1000
0001
0000
0001
1000
0010
,
0100
0100
0020
0000
0130
0100
0020
0000
,
1030
0002
0000
0000
0000
1000
1003
0000
,
0001
0000
0000
0001
0000
0000
0001
0000
1000
0000
0000
0000
1001
0000
0000
0000
,
0001
0010
0001
1000
0010
1000
0001
0000
,
1000
0000
0000
1000
0000
0000
1000
0000
0001
0000
0000
0000
1001
0000
0000
0000
,
1000
0100
1000
0001
0100
0001
1000
0000
,
0001
0000
0000
0001
0000
0000
0001
0000
1000
0000
0000
0000
1001
0000
0000
0000
,
0010
0100
0010
1000
0100
0010
0001
0000
,
1000
0000
0000
1000
0000
0000
1000
0000
0001
0000
0000
0000
1001
0000
0000
0000
,
0200
0000
0000
0300
,
1000
0001
0100
0000
1000
0000
0100
0000
,
0001
1000
0100
0000
0001
0000
0100
0000
,
1000
0001
0100
0000
0010
0000
0100
0000
,
1001
2002
0000
3003
,
0001
0100
0010
1000
0100
0000
0001
0000
,
0100
1000
0010
0100
0001
0000
1000
0000
,
1001
0000
0110
0000
,
1001
1001
1001
1001
,
0022
0033
0220
0330
,
2200
3300
1000
0001
,
0202
0303
0220
0330
,
2020
3030
0001
1000
,
1001
0100
1100
0010
,
0011
0100
1001
0100
,
0110
0110
1001
1001
,
2002
0000
0000
3003
,
0101
0110
0101
0000
,
0100
0010
0001
0100
1000
0100
0001
0000
,
1100
0110
1100
0000
,
1001
0000
0001
1000
0000
1000
0100
0000
,
1001
0110
1001
0000
,
0100
0001
0010
1000
0010
0001
0100
0000
,
0001
0100
0020
0000
1030
0100
0020
0000
,
0031
0010
0200
0000
1300
0010
0200
0000
,
0301
1000
0020
0000
1030
0001
0200
0000
,
0320
0000
0000
0000
0000
0100
0130
0000
;

//---------------dance-single - ----------------
#NOTES:
     dance-single:
     :
     Challenge:
     9:
     0.736,0.694,0.567,0.360,0.018: // measure 1
1001
0000
1000
0001
0000
0001
0100
0010
,  // measure 2
0100
0000
0001
1000
0000
1000
0100
1000
,  // measure 3
0010
0000
0100
0010
0000
0010
1000
0001
,  // measure 4
0020
0230
2300
3001
,  // measure 5
0101
0000
0010
0100
0001
0010
0100
0010
,  // measure 6
0001
0000
0001
1000
0000
1000
0010
0100
,  // measure 7
0001
0000
0001
1000
0100
0010
0100
1000
,  // measure 8
0000
1001
0000
1001
0000
0110
0000
0000
,  // measure 9
0101
0000
0010
1000
0000
1000
0100
0000
,  // measure 10
1000
0001
0000
0001
0010
0100
1000
0001
,  // measure 11
0000
1001
0000
0100
0010
0000
0010
0100
,  // measure 12
0001
0010
0100
1000
0001
0100
0000
0000
,  // measure 13
1001
0000
0100
0001
0000
0001
1000
0000
,  // measure 14
0100
0010
0000
0001
0100
0010
0000
1000
,  // measure 15
0010
0100
0000
0100
0000
0100
0000
0100
,  // measure 16
2002
0000
3003
0000
,  // measure 17
2200
3300
0220
0330
,  // measure 18
0022
0033
0010
0100
,  // measure 19
0202
0303
0220
0330
,  // measure 20
2020
3030
1000
0001
,  // measure 21
1001
1000
1100
0001
,  // measure 22
0011
1100
0011
1001
,  // measure 23
0001
0010
0100
1000
0010
0100
0001
0010
,  // measure 24
0100
1000
0001
0010
1000
0010
0001
0000
,  // measure 25
1000
0001
0000
0001
1000
0010
0000
1000
,  // measure 26
0010
0100
0000
0001
0000
0001
0010
1000
,  // measure 27
0010
0001
0000
0010
0100
1000
0000
0020
,  // measure 28
0200
0000
0000
0330
,  // measure 29
1100
0011
1100
0011
,  // measure 30
1000
0100
0010
0001
0010
0100
1000
0000
,  // measure 31
1010
0101
1010
0101
,  // measure 32
0001
0100
0010
1000
0010
0100
0001
0000
,  // measure 33
1000
0100
1000
0001
0100
0001
1000
0010
,  // measure 34
1000
0001
0010
0001
1000
0100
0010
0000
,  // measure 35
2002
3003
0220
0330
,  // measure 36
2002
0000
0000
3003
,  // measure 37
1000
0001
0010
0001
1000
0100
0010
0001
,  // measure 38
0000
0001
1000
0100
0001
0100
1000
0001
,  // measure 39
0000
0001
1000
0010
1000
0001
0010
0001
,  // measure 40
0000
0001
1000
0010
0100
0100
0001
0001
,  // measure 41
0000
1000
0001
0100
0001
1000
0100
1000
,  // measure 42
0000
1000
0001
0010
1000
0010
0001
1000
,  // measure 43
0000
1000
0001
0010
0100
0010
0001
1000
,  // measure 44
0010
1010
0000
0000
0100
0110
0000
0000
,  // measure 45
1100
1100
1100
0000
,  // measure 46
1000
0100
0001
0100
1000
0001
1000
0000
,  // measure 47
0101
0101
0101
0000
,  // measure 48
0001
0100
1000
0100
0001
1000
0001
0000
,  // measure 49
0110
0110
0110
0000
,  // measure 50
0010
0100
0001
0010
1000
0010
0001
1000
,  // measure 51
0010
0100
0001
0001
0010
0100
1000
1000
,  // measure 52
0020
0000
0000
0000
0000
1030
1001
0000
,  // measure 53
0001
0000
0000
0100
0000
0000
1000
0000
0100
0000
0000
0000
1001
0000
0000
0000
,  // measure 54
0001
0010
1000
0010
0001
1000
0001
0000
,  // measure 55
1000
0000
0000
0010
0000
0000
0001
0000
0010
0000
0000
0000
1001
0000
0000
0000
,  // measure 56
1000
0010
0001
0010
1000
0001
1000
0010
,  // measure 57
0001
0000
0000
0010
0000
0000
1000
0000
0001
0000
0000
0000
1001
0000
0000
0000
,  // measure 58
1000
0100
0001
0100
1000
0001
1000
0100
,  // measure 59
0001
0000
0000
0100
0000
0000
1000
0000
0001
0000
0000
0000
1001
0000
0000
0000
,  // measure 60
0010
0100
0000
0100
0000
0100
0000
0100
,  // measure 61
0001
0010
0100
1000
0200
0000
0310
0000
,  // measure 62
0001
0010
0100
1000
0200
0000
0310
0000
,  // measure 63
0001
0010
0100
1000
0200
0000
0310
0000
,  // measure 64
1001
1001
1000
0001
,  // measure 65
1000
0010
0100
0001
0010
1000
0010
0001
,  // measure 66
1000
0010
0100
0001
0010
1000
0010
0001
,  // measure 67
2002
3003
0220
0330
,  // measure 68
1100
0011
1001
1001
,  // measure 69
0200
0000
1300
0000
0020
0000
0130
0001
,  // measure 70
0020
0000
0130
0000
1000
0000
0010
0100
,  // measure 71
0020
0000
1030
0000
0200
0000
0310
0001
,  // measure 72
2000
0000
3100
0000
0010
0000
0100
1000
,  // measure 73
0001
0001
1000
0000
0100
0100
0010
0000
,  // measure 74
0001
0001
0100
0000
0010
0010
0100
0000
,  // measure 75
1100
1100
0011
0011
,  // measure 76
1001
1000
1000
0000
,  // measure 77
0001
0100
0001
1000
0100
0010
0000
0001
,  // measure 78
0100
0000
0100
0001
0010
0100
1000
0000
,  // measure 79
0100
0010
0100
1000
0010
0100
0000
0001
,  // measure 80
0010
0000
0010
0001
1000
0010
0100
0000
,  // measure 81
0001
1000
0001
0010
0100
1000
0000
0010
,  // measure 82
0100
0000
0100
0010
1000
0100
0010
0000
,  // measure 83
0001
0001
0100
0010
1000
1000
0100
0010
,  // measure 84
0001
0001
0010
0100
1000
1000
0010
0100
,  // measure 85
0001
0001
0010
0100
1000
1000
0010
0100
,  // measure 86
0210
0000
0000
0000
0000
0301
1001
0000
;

//---------------dance-single - ----------------
#NOTES:
     dance-single:
     :
     Medium:
     6:
     0.483,0.540,0.495,0.225,0.000:
0001
0000
0001
1000
0000
1000
0001
0000
,
0010
0100
1000
0010
,
0100
0000
0001
1000
0000
1000
0001
0000
,
1000
0100
0010
0001
,
1001
0000
1000
0001
1000
0100
0010
0001
,
0100
0000
0001
1000
0000
1000
0001
0000
,
1000
0000
0100
0010
0100
0010
0100
1000
,
0000
0001
0000
0001
0000
0001
1000
0000
,
0100
0000
0000
0010
0000
0000
0100
0000
,
1000
0001
0000
0000
0010
0000
0100
0000
,
0000
1000
0000
0000
1000
0000
0001
0000
,
1000
0001
0000
0000
0100
0000
0000
0000
,
1001
0000
0000
0010
0000
0000
0100
0000
,
0001
0100
0000
0010
1000
0010
0000
1000
,
0001
0000
0000
0000
,
1001
0000
0000
0000
,
1001
0000
0100
0000
,
1001
0000
0010
0100
,
0101
0000
1010
0000
,
1001
0000
0010
0100
,
0110
0000
1001
0000
,
0001
1000
0001
1000
,
1001
0100
0010
0001
,
1000
2002
0000
3003
,
0010
0100
0000
0100
0010
0100
0000
0001
,
1000
0001
0000
1000
0000
0001
0010
0100
,
1000
0001
0000
0100
0010
0100
0000
0001
,
2000
0000
0000
3000
,
1001
0010
0100
1000
,
0100
0001
0100
1000
,
0010
0100
0001
0010
,
1000
0010
0001
1000
,
0100
0010
0100
1000
,
0010
0100
0010
0000
1000
0000
0001
0000
,
2002
3003
0220
0330
,
2002
0000
0000
3003
,
0000
1001
0000
0000
0010
0000
0000
0100
,
0000
1000
0001
0000
0010
0000
0100
0000
,
1000
0001
0000
0000
0100
0000
0000
0010
,
0000
1000
0001
0000
0010
0000
0100
0010
,
0000
0001
0000
0000
1000
0000
0000
0100
,
0000
0010
0100
0000
1000
0000
0010
0000
,
0100
0000
0001
0000
1000
0000
0001
1000
,
0001
0001
0000
0000
1000
1000
0000
0000
,
0110
0110
0110
0000
,
1001
0100
0010
0100
,
1001
1001
1001
0000
,
1001
0001
1000
0001
,
0110
0110
0110
0000
,
0110
1000
0001
0100
,
0010
0010
0000
0000
0100
0100
0000
0000
,
0002
2000
0000
0000
0000
0000
3003
0000
,
0220
0000
0000
0330
,
0100
0010
0100
0000
1000
0010
0100
0000
,
0220
0000
0000
0330
,
0010
0100
0010
0000
0001
0100
0010
0000
,
0220
0000
0000
0330
,
0100
0010
0100
0000
1000
0100
0010
0000
,
0220
0000
0000
0330
,
0110
0000
0000
0000
,
1001
0010
0100
0010
,
1001
0010
0100
0010
,
1001
0100
0010
0100
,
1001
2002
0000
3003
,
1001
0100
0010
0001
,
0100
1000
0100
0001
,
1001
0000
0110
0000
,
0200
0020
0000
0330
,
1000
0000
0100
0000
,
0011
0000
0010
0100
,
0001
0000
0010
0000
,
1100
0000
0100
0010
,
1001
0000
0011
0000
,
1100
0000
1001
0000
,
1100
1100
0011
0011
,
1001
0000
0000
0000
,
0010
0000
1000
0000
0010
0000
0000
0100
,
0000
0001
0100
0000
0010
0000
0100
0000
,
0010
0100
0010
0000
,
1001
0010
0100
0010
,
1000
0100
1000
0000
,
0001
0010
0001
1000
,
0001
0001
0000
0000
0010
0010
0000
0000
,
0100
0100
0000
0000
1000
1000
0000
0000
,
0010
0010
0000
0000
0100
0100
0000
0000
,
2002
0000
0000
3003
;

//---------------dance-single - ----------------
#NOTES:
     dance-single:
     :
     Beginner:
     2:
     0.128,0.231,0.180,0.000,0.000:
0001
0000
0000
0000
,
1000
0000
0000
0000
,
0001
0000
0000
0000
,
1001
0000
0000
0000
,
0100
0000
0000
0000
,
0010
0000
0000
0000
,
0100
0000
0000
0000
,
0110
0000
0000
0000
,
1000
0000
0000
0000
,
0000
0000
0000
0000
,
0001
0000
0000
0000
,
0000
0000
0000
0000
,
1000
0000
0000
0000
,
0001
0000
0000
0000
,
0100
0000
0000
0000
,
0010
0000
0000
0000
,
1001
0000
0000
0000
,
0000
0000
0000
0000
,
1001
0000
0000
0000
,
0000
0000
0000
0000
,
1001
0000
0000
0000
,
0000
0000
0000
0000
,
1001
0000
0000
0000
,
0000
0000
0000
0000
,
0000
0000
0000
0000
,
0000
0000
0000
0000
,
0000
0000
0000
0000
,
0001
0000
0000
0000
,
0010
0000
0000
0000
,
0001
0000
0000
0000
,
1000
0000
0000
0000
,
0100
0000
0000
0000
,
1000
0000
0000
0000
,
0001
0000
0000
0000
,
1000
0000
0000
0000
,
0000
0000
0000
0000
,
0001
0000
0000
0000
,
0100
0000
0000
0000
,
0001
0000
0000
0000
,
0100
0000
0000
0000
,
0010
0000
0000
0000
,
0100
0000
0000
0000
,
0010
0000
0000
0000
,
1000
0000
0000
0000
,
0100
0000
0000
0000
,
0000
0000
0000
0000
,
1001
0000
0000
0000
,
0000
0000
0000
0000
,
1001
0000
0000
0000
,
0000
0000
0000
0000
,
0010
0000
0010
0000
,
0010
0000
0000
0000
,
0100
0000
0000
0000
,
0100
0000
0000
0000
,
0100
0000
0000
0000
,
1001
0000
0000
0000
,
0001
0000
0000
0000
,
0001
0000
0000
0000
,
1000
0000
0000
0000
,
1000
0000
0000
0000
,
1001
0000
0000
0000
,
1001
0000
0000
0000
,
1001
0000
0000
0000
,
1001
0000
0000
0000
,
0010
0000
0000
0000
,
0100
0000
0000
0000
,
0010
0000
0000
0000
,
1001
0000
0000
0000
,
0100
0000
0100
0000
,
0100
0000
0000
0000
,
0001
0000
0001
0000
,
0001
0000
0000
0000
,
1000
0000
1000
0000
,
1000
0000
0010
0000
,
0010
0000
0010
0000
,
0010
0000
0000
0000
,
1001
0000
0000
0000
,
0100
0000
0000
0000
,
1001
0000
0000
0000
,
0010
0000
0000
0000
,
1001
0000
0000
0000
,
0100
0000
0000
0000
,
1001
0000
0000
0000
,
0010
0000
0000
0000
,
0100
0000
0000
0000
,
1001
0000
0000
1001
;
