#TITLE:neu;
#SUBTITLE:BSP style;
#ARTIST:cosMo@暴走P;
#TITLETRANSLIT:;
#SUBTITLETRANSLIT:;
#ARTISTTRANSLIT:cosMo@BousouP;
#CREDIT:DigiMindAxel;
#BANNER:neu BSP style.png;
#BACKGROUND:neu BSP style-bg.png;
#LYRICSPATH:neu BSP style.lrc;
#CDTITLE:SOUND VOLTEX.png;
#MUSIC:neu BSP style.mp3;
#OFFSET:-11.110;
#SAMPLESTART:64.634;
#SAMPLELENGTH:12.000;
#SELECTABLE:YES;
#DISPLAYBPM:130.000:199.000;
#BPMS:0.000=130.000,148.000=199.000,216.000=99.500;
#STOPS:;
#BGCHANGES:;

//---------------dance-single - ----------------
#NOTES:
     dance-single:
     :
     Easy:
     4:
     0.260,0.260,0.027,0.090,0.000:
1000
0100
1000
0100
,
1000
0001
1000
0001
,
1000
0010
1000
0010
,
1000
1000
1000
1000
,
1001
0001
0001
0000
,
0010
0010
0010
0000
,
0100
0100
0100
0000
,
1000
1000
1000
0000
,
0010
0100
0010
0100
,
0001
1000
0001
0010
,
0200
0000
1300
0000
,
0001
1000
0001
0000
,
1000
0100
1000
0100
,
1000
0001
1000
0001
,
1000
0010
1000
0010
,
0100
0001
0110
0000
,
0001
0100
0001
0100
,
0001
1000
0001
1000
,
0001
0010
0001
0010
,
0001
1000
0100
0010
,
0002
0000
2003
0000
,
3002
0000
2003
0000
,
3002
0000
2003
0000
,
3010
0100
0001
0100
,
0010
0100
0001
0010
,
0100
1000
0010
0100
,
0010
0000
0010
0000
,
0010
0100
0010
0100
,
0010
0000
0000
0000
,
1000
0100
0010
0001
,
1000
0010
0100
0001
,
1000
0100
0010
0001
,
1000
0010
0100
0010
,
1000
0100
0010
0100
,
1000
0001
0010
0001
,
1000
0010
0100
0010
,
1000
0100
0010
0001
,
2000
0000
0000
0000
,
3001
0100
0001
1000
,
0100
1000
0100
1000
,
0000
0001
0100
0001
,
0010
0100
1000
0010
,
0100
0000
0001
0000
,
1000
0100
0010
0000
,
0001
0100
0001
0010
,
0001
1000
0100
0000
,
0010
0001
0010
0001
,
1000
0100
0010
0001
,
0000
0100
0010
0100
,
0001
0010
0100
1000
,
0010
0100
0001
0000
,
0010
0001
0010
0100
,
1000
0001
1000
0100
,
1000
0001
0100
0010
,
0220
0000
0000
0000
,
0000
0000
0000
0000
,
0000
0000
0000
0000
,
0000
0000
0330
0000
;

//---------------dance-single - ----------------
#NOTES:
     dance-single:
     :
     Medium:
     5:
     0.366,0.364,0.253,0.118,0.005:
0002
0103
0010
0100
,
0002
1003
0100
1000
,
0020
0130
0001
0010
,
0100
0100
0100
0100
,
1001
0000
1000
0000
0001
0000
1000
0100
,
1000
0000
0001
0100
0001
0000
0000
0000
,
0010
0000
0100
0000
,
1000
0000
0001
1000
0001
0000
0000
0000
,
1001
0000
0001
0000
1000
0000
0001
0010
,
0001
0000
1000
0000
0010
1000
0010
0100
,
0002
0000
1003
0000
,
0100
1000
0010
0000
,
0110
0000
0100
0001
0010
0000
0100
0000
,
1000
0000
0010
1000
0100
0000
0010
0000
,
0001
0000
0100
0001
0010
0000
0100
0000
,
1000
0000
0001
0000
1000
0000
0000
0000
0010
0000
0000
0010
0000
0000
0010
0000
,
1000
0100
1000
0000
0010
0000
0100
0000
,
0001
0010
0001
0000
0100
0000
0010
0000
,
1000
0001
1000
0000
0100
0000
0010
0000
,
0001
1000
0001
0000
0010
0100
0010
0000
,
1001
1000
0001
1000
,
0001
1000
0001
1000
,
0001
1000
0001
1000
,
0110
0010
0101
0010
,
1100
0010
0101
0010
,
1100
0000
0010
0100
0010
0000
1000
0001
,
0100
0000
0001
0000
1000
0000
0100
0010
,
0001
1000
0001
0100
,
0020
0000
0030
0000
,
2001
0100
0001
3100
,
1000
0100
1000
0000
0010
0100
0001
0010
,
0100
1000
0100
1000
,
0001
0010
0100
0000
0010
0001
0100
0000
,
0020
0100
1000
0130
,
0001
1000
0010
0000
1000
0100
0010
0000
,
0001
0100
0001
0000
1000
0100
0010
0000
,
0001
0100
0010
0100
0001
0010
0100
0000
,
2000
0000
3002
0000
,
1003
1001
0001
1001
,
0100
1000
0100
0000
1000
0000
0001
0000
,
0000
0100
0110
0010
,
0110
0000
0001
1000
0001
0000
1000
0000
,
0002
0000
0000
0103
0000
0000
0010
0100
,
0010
0000
1000
0000
1001
0000
1000
0100
,
0010
0001
0101
0001
,
1001
0000
1001
0000
0010
0100
0010
0100
,
0001
0000
1000
0100
1000
0000
0001
0000
,
1001
0001
1001
0100
,
0000
0010
0110
0001
,
0101
0000
0010
0000
1000
0100
1000
0000
,
0020
0000
0000
0130
0000
0000
0001
1000
,
0001
0000
1000
0000
1001
0000
0100
1000
,
0100
1000
1100
0001
,
0101
1000
1001
0110
,
0220
0000
0000
0000
,
0000
0000
0000
0000
,
0000
0000
0000
0000
,
0000
0000
0330
0000
;

//---------------dance-single - ----------------
#NOTES:
     dance-single:
     :
     Hard:
     8:
     0.508,0.520,0.380,0.145,0.122:
2001
0000
3100
1000
0000
0010
0100
0001
,
1002
0000
0103
0010
0000
1000
0100
0010
,
2001
0000
3010
0100
0000
0001
1000
0100
,
0010
0001
0100
0010
,
1000
0000
0001
0000
0000
0001
0000
0000
0001
0000
0000
0100
0000
0000
0010
0000
,
0000
0000
1000
0000
0000
1000
0000
0000
1000
0000
0000
0100
0000
0000
0010
0000
,
0000
0000
0100
0000
0000
0100
0000
0000
0010
0000
0000
0001
0000
0000
0100
0000
,
0000
0000
0010
0000
0000
0010
0000
0000
1000
0000
0000
0001
0000
0000
0001
0000
,
1001
0000
0200
0000
0310
0000
0001
0100
,
1000
0000
0100
0000
0001
1000
0010
0100
,
0002
0000
0000
1000
1003
0000
0010
1000
,
0100
1100
0101
1001
,
1000
0100
0001
0100
1000
0001
1000
1000
,
0000
1000
0010
0001
0010
1000
0001
0001
,
0100
0010
0100
0001
0010
0100
1000
0001
,
0010
0000
1000
0000
0010
0000
0001
0000
1001
0000
0000
1001
0000
0000
1001
0000
,
0001
0010
1000
0010
0001
1000
0100
0010
,
0000
0001
0100
1000
0100
0001
0010
0100
,
0000
1000
0010
0001
0010
1000
0100
0010
,
0001
1000
0100
0001
0100
1000
0010
0100
,
0101
0000
1000
0100
0002
0000
0100
0103
,
0000
0000
0000
0001
0010
0100
1000
0001
,
0001
0000
0100
1000
0200
0000
0000
0301
,
1001
0000
0100
1000
1100
0000
0010
0100
,
0110
0000
0001
0010
0011
0000
1000
0001
,
1001
0000
1000
0000
0000
0010
0000
0000
0100
0001
0000
1000
0000
0000
0001
0000
,
0000
0000
1000
0000
0000
0100
0000
0000
0010
0000
0000
0001
0000
0000
1000
0000
,
0000
0000
0010
0000
0000
0100
0000
0000
0001
0000
0000
0010
0000
0000
0100
0000
,
2000
3002
0203
0000
0000
0000
0300
0000
,
0001
0100
1000
0100
0001
0010
0100
1000
,
0010
0000
0100
0000
0001
0000
0001
0000
1000
0001
1000
0001
1000
0001
1000
0000
,
0001
0010
1000
0010
0001
0100
1000
0100
,
0001
0000
0001
0000
0100
0000
0100
0000
0110
0000
0000
0110
0000
0000
1001
0000
,
1000
0000
0100
0000
0001
0000
0010
0000
1000
0000
0001
1000
0000
0000
1000
0000
,
0001
0000
0100
0000
1000
0000
0010
0000
0001
0000
1000
0001
0000
0000
0001
0000
,
1000
0100
0001
0001
0100
1000
0001
0010
,
0100
1000
0100
0000
1000
0001
1000
0000
0001
0100
0001
0000
1000
0001
1000
0001
,
2000
0000
3002
0000
,
1003
1100
0011
1001
,
0010
1000
0100
1000
0010
0000
1010
0000
,
0010
1001
0011
1100
,
1001
0000
0100
0001
0010
0001
0100
0010
,
1000
0100
0010
0002
0000
0000
1003
0010
,
0100
0000
0110
0000
0110
0000
0001
0100
,
0110
0100
1001
0100
,
1001
0000
1001
0000
1000
0010
0100
0001
,
1000
0000
0010
0100
0010
1000
0100
1000
,
0010
0100
1000
0100
0010
1000
0001
0000
,
0001
0000
0100
0010
0100
0001
0010
0001
,
0100
0010
0001
0010
0100
0001
1000
0010
,
1000
0100
0010
0002
0000
0000
1003
0010
,
0100
0000
0110
0000
0110
0000
0001
1000
,
1010
0010
0011
0010
,
1100
0101
1100
1001
,
0220
0000
0000
0000
,
0000
0000
0000
0000
,
0000
0000
0000
0000
,
0000
0000
0330
0000
;

//---------------dance-single - ----------------
#NOTES:
     dance-single:
     :
     Challenge:
     9:
     0.618,0.728,0.308,0.163,0.443: // measure 1
0102
0000
1003
0200
0000
0301
0100
1000
,  // measure 2
2010
0000
3001
0200
0000
1300
0100
0001
,  // measure 3
0102
0000
1003
0200
0000
0301
0100
1000
,  // measure 4
0002
2003
3002
2003
,  // measure 5
3001
0000
1000
0000
0000
0100
0000
0000
0001
0000
0000
0100
0000
0000
1000
0000
,  // measure 6
0000
0000
0001
0000
0000
0010
0000
0000
1000
0000
0000
0010
0000
0000
0001
0000
,  // measure 7
0000
0000
1000
0000
0000
0010
0000
0000
0001
0000
0000
0010
0000
0000
1000
0000
,  // measure 8
0000
0000
0001
0000
0000
0100
0000
0000
1000
0000
0000
0100
0000
0000
0001
0000
,  // measure 9
1001
0000
1000
0010
0200
0000
0301
0010
,  // measure 10
1000
0010
0001
0000
1000
0100
0001
0100
,  // measure 11
2000
0000
0001
3001
1000
0010
0100
0000
,  // measure 12
0001
0000
1000
0100
1000
0000
0001
0000
0100
0010
0100
0000
0001
1000
0001
0000
,  // measure 13
1001
0001
1000
1000
0100
0001
0100
1000
,  // measure 14
0001
1000
0010
0001
0010
1000
0001
0100
,  // measure 15
0001
1000
0010
0001
0010
1000
1000
0001
,  // measure 16
0100
0000
1000
0000
0100
0000
0001
0000
1001
0000
0000
0110
0000
0000
1001
0000
,  // measure 17
1000
0001
0010
0100
0001
0100
1000
0001
,  // measure 18
0000
1000
0100
0010
1000
0010
0001
1000
,  // measure 19
0000
0001
0100
0010
0001
0010
1000
0100
,  // measure 20
0010
0001
1000
0010
0100
1000
0100
0001
,  // measure 21
1001
0000
0000
1000
0100
0000
0000
0000
0010
0000
0000
0001
0100
0000
0000
0000
,  // measure 22
0010
0000
0000
1000
0100
0000
0000
0000
0010
0000
0000
0100
1000
0000
0000
0000
,  // measure 23
0010
0000
0000
0100
0001
0000
0000
0000
1000
0000
0000
0010
0100
0000
0100
0000
,  // measure 24
1001
0000
0000
0001
0100
0000
0010
0000
0110
0000
0000
1000
0010
0000
0100
0000
,  // measure 25
0110
0000
0000
0001
1000
0000
0100
0000
1100
0000
0000
1000
0001
0000
0010
0000
,  // measure 26
0011
0000
1000
0000
0000
0001
0000
0000
1000
0010
0000
0100
0000
0000
0001
0000
,  // measure 27
1001
1000
0010
0110
0001
1000
0110
0001
,  // measure 28
1001
0000
1000
0000
0100
1000
0000
1000
0001
0000
0100
0001
0000
0001
1000
0000
,  // measure 29
0020
0230
0320
0030
1000
0100
0010
0001
,  // measure 30
1000
0100
1000
0100
1000
0100
0010
0000
0001
0100
0010
0100
0001
0000
0001
0000
,  // measure 31
0010
0001
0010
0000
0100
0010
0100
0000
1000
0100
0010
0001
1000
0010
1000
0000
,  // measure 32
0001
0010
0100
0010
0001
0010
0100
0000
1000
0100
0010
0100
1000
0100
0010
0000
,  // measure 33
0001
0100
0001
0000
1000
0010
1000
0000
1001
0000
0000
1001
0000
0000
0101
0000
,  // measure 34
0001
0000
1000
0100
0000
0100
1000
0000
0001
0100
0000
0100
0010
0000
0010
0000
,  // measure 35
1000
0100
1000
0100
1000
0100
0010
0000
0001
0100
0000
0100
0010
0000
0010
0000
,  // measure 36
1000
0001
1000
0100
0010
0001
1000
0000
0010
0100
0010
1000
0100
0010
0001
0000
,  // measure 37
1000
0100
1000
0000
0100
0010
0100
0000
1000
0010
0100
0001
0010
0100
1000
0001
,  // measure 38
0200
0000
0010
0310
,  // measure 39
1001
0000
0000
1000
0010
0000
0000
0100
0001
0000
0000
0010
0100
0000
0000
0000
,  // measure 40
1000
0010
0001
0010
1000
0100
0010
0001
,  // measure 41
1000
0000
0000
0001
0010
0000
0000
0100
1000
0000
0000
0010
0100
0000
0000
0000
,  // measure 42
0001
0010
1000
0010
0001
1000
0010
1000
,  // measure 43
0010
0100
1000
0100
0010
0000
1000
0001
,  // measure 44
0100
1000
0100
0001
1000
0000
0001
0100
,  // measure 45
0101
0000
1000
0100
1100
0000
0001
1000
,  // measure 46
1001
0000
1001
0000
1000
1000
1000
0001
,  // measure 47
0100
0000
0000
0010
1000
0000
0000
1000
0001
0000
0000
0001
0010
0000
0000
0010
,  // measure 48
0100
0000
0000
0100
1000
0000
0000
1000
0001
0000
0000
0001
1000
0000
0000
0000
,  // measure 49
1001
0000
0000
1000
0100
0000
0000
0100
0010
0000
0000
0010
0001
0000
0000
0001
,  // measure 50
1000
0000
0000
1000
0010
0000
0000
0010
0100
0000
0000
0000
0001
0000
0100
0000
,  // measure 51
0010
0001
0010
0100
0001
0000
1000
0100
,  // measure 52
1100
0000
0011
0000
1001
0000
0001
0010
,  // measure 53
0011
0000
1000
0010
1010
0000
1001
0000
,  // measure 54
0010
0001
0010
0001
1000
0010
0100
0000
0100
0000
0100
0000
,  // measure 55
1001
0000
0000
0000
0200
0000
0001
0301
,  // measure 56
0000
0000
0000
1000
0000
0100
0000
0010
0000
0100
0000
1000
,  // measure 57
0000
0010
0000
0000
0000
0000
0002
0000
0000
0000
0000
0000
0000
0000
0000
0000
0000
0000
0000
0000
0000
0000
0000
0000
,  // measure 58
0000
0000
0003
0000
;

//---------------dance-single - ----------------
#NOTES:
     dance-single:
     :
     Beginner:
     2:
     0.100,0.147,0.063,0.000,0.000:
1001
0000
0000
0000
,
1000
0000
0000
0000
,
0001
0000
0000
0000
,
1000
0000
0000
0000
,
1001
0000
0000
0000
,
0000
0000
0000
0000
,
0000
0000
0000
0000
,
0000
0000
0000
0000
,
1000
0000
0001
0000
,
1000
0000
1000
0000
,
1000
0000
0000
0000
,
0001
0000
1000
0000
,
0001
0000
0000
0000
,
0010
0000
0000
0000
,
0100
0000
0000
0000
,
1000
0000
0000
0000
,
0001
0000
0000
0000
,
0001
0000
0000
0000
,
1000
0000
0000
0000
,
1000
0000
0000
0000
,
1001
0000
0010
0000
,
0100
0000
1000
0000
,
0100
0000
0010
0000
,
1001
0000
1000
0000
,
0001
0000
1000
0000
,
0010
0000
0010
0000
,
0010
0000
0000
0000
,
0100
0000
0000
0000
,
0010
0000
0000
0000
,
1001
0000
0000
0000
,
0001
0000
0000
0000
,
1000
0000
0000
0000
,
0001
0000
0000
0000
,
0100
0000
0000
0000
,
0010
0000
0000
0000
,
1000
0000
0000
0000
,
0001
0000
0000
0000
,
1000
0000
0000
0000
,
1001
0000
0001
0000
,
1000
0000
0000
0000
,
0001
0000
1000
0000
,
0001
0000
0000
0000
,
1000
0000
0001
0000
,
1000
0000
0000
0000
,
0001
0000
1000
0000
,
0001
0000
0000
0000
,
0100
0000
0000
0000
,
0010
0000
0100
0000
,
0010
0000
0000
0000
,
0100
0000
0010
0000
,
0100
0000
0000
0000
,
0001
0000
1000
0000
,
0001
0000
0001
0000
,
1000
0000
1000
0000
,
1001
0000
0000
0000
;
