#TITLE:limelight world;
#SUBTITLE:;
#ARTIST:DJ YOSHITAKA feat. DWP;
#TITLETRANSLIT:;
#SUBTITLETRANSLIT:;
#ARTISTTRANSLIT:;
#CREDIT:DigiMindAxel;
#BANNER:limelight world.png;
#BACKGROUND:limelight world-bg.png;
#LYRICSPATH:limelight world.lrc;
#CDTITLE:REFLEC BEAT.png;
#MUSIC:limelight world.mp3;
#OFFSET:-11.740;
#SAMPLESTART:48.480;
#SAMPLELENGTH:12.000;
#SELECTABLE:YES;
#BPMS:0.000=160.000,196.500=80.000,208.500=160.000;
#STOPS:;
#BGCHANGES:;

//---------------dance-single - ----------------
#NOTES:
     dance-single:
     :
     Easy:
     3:
     0.252,0.238,0.051,0.051,0.000:
0000
1001
0000
0000
0000
0000
0000
0000
,
0000
1001
0000
0000
1000
0000
0001
0000
,
1000
0000
0001
1000
,
0001
0000
0100
0010
,
0100
0000
0010
0100
,
0010
0000
1000
0100
,
1000
0000
0001
0010
,
0001
0000
0100
0010
,
0100
0000
0010
0000
,
0000
0100
0000
0000
0001
0000
1000
0000
,
0001
0000
0100
0001
,
0100
0000
0010
1000
,
0010
0000
1000
0001
,
1000
0000
0010
0100
,
0010
0000
1000
0001
,
1000
0000
0100
1000
,
0100
0000
0010
0001
,
0010
0100
1000
0100
,
0000
0010
0100
0010
,
0000
0001
0010
0001
,
0000
1000
0001
1000
,
0000
0010
0000
0000
0000
0010
0000
0000
,
0000
0100
0000
0000
0000
0100
0000
0000
,
0000
0001
1000
0001
,
1000
0001
0000
0000
,
0000
1001
0000
0000
1000
0000
0100
0000
,
1000
0010
0100
0001
,
0010
0000
0100
0010
,
0001
1000
0001
0010
,
0100
0000
1000
0010
,
0100
0010
1000
0100
,
0010
0000
0001
0100
,
0001
0010
0100
1000
,
0010
0000
0100
0001
,
0100
0001
0010
0100
,
1000
0010
0100
0010
,
1000
0100
0010
0001
,
1000
0010
0100
0010
,
1000
0100
0010
0001
,
1000
0001
0010
0100
,
1000
0001
1000
0001
,
0000
1001
0000
0000
0100
0000
0100
0000
,
0010
0010
0100
0100
,
0000
0100
0000
0000
0001
0000
0001
0000
,
1000
1000
0001
0001
,
0000
0001
0000
0000
1000
0000
1000
0000
,
0001
0001
1000
1000
,
0000
1000
0000
0000
0010
0000
0010
0000
,
0000
0100
0000
0000
0000
0010
0000
0000
,
0000
0200
0000
0000
0000
0302
0000
0000
,
0000
2003
0000
0000
0000
3002
0000
0000
,
0000
2003
0000
0000
0000
3002
0000
0000
,
0000
1003
0000
0000
0000
0000
0000
0000
,
0000
1001
0000
0000
0001
0000
1000
0000
,
0001
0000
1000
0100
,
1000
0100
1000
0001
,
1000
0001
0100
0001
,
0100
0001
1000
0001
,
1000
0010
0100
0010
,
1000
0100
0010
0001
,
1000
0001
1000
0001
,
0000
0100
0000
0000
0000
0010
0000
0000
,
0000
0110
0000
0000
0000
0000
0000
0000
;

//---------------dance-single - ----------------
#NOTES:
     dance-single:
     :
     Medium:
     5:
     0.366,0.318,0.077,0.111,0.000:
0000
2002
0000
0000
0000
3003
0000
0000
,
0000
1001
0000
0000
0001
0100
0001
0000
,
0010
0000
0100
0000
1000
0000
0010
0100
,
0010
1000
0000
0000
0100
0000
0010
0000
,
0001
0000
1000
0100
1000
0000
0010
0100
,
0010
1000
0000
0000
0001
0000
0100
0000
,
0001
0000
0010
0001
0010
0000
0100
1000
,
0100
0010
0000
0000
0001
0000
0100
0000
,
0001
1000
0000
0000
0010
0100
0000
0000
,
0001
1000
0000
0000
0100
0000
1000
0000
,
0100
1000
0001
0100
,
0001
1000
0000
1000
0001
0000
0001
0000
,
0100
0010
0000
0010
0100
0000
0100
0000
,
0000
0000
1001
0001
,
1000
0100
0010
0001
,
1000
0010
0000
0010
1000
0000
0010
0000
,
0100
0010
0000
0000
1000
0001
0000
0000
,
0100
0010
0000
0000
1000
0000
0001
0000
,
1000
0100
0010
0001
,
0100
0000
0010
0000
0100
0010
0100
0000
,
0001
0010
0100
1000
,
0010
0100
0000
0000
0100
0010
0000
0000
,
0010
0100
0000
0000
0100
0010
0000
0000
,
0000
1001
0000
0000
0010
0000
0100
0000
,
1000
0000
2002
0000
0000
0000
0000
3003
,
0000
1001
0000
0000
1000
0100
1000
0000
,
0010
0000
0100
0000
0001
1000
0001
0000
,
0100
0001
0100
0000
0001
0000
0010
0000
,
0100
0000
1000
0100
1000
0000
0010
0100
,
0010
1000
0100
0010
,
0001
0100
0001
0000
1000
0001
1000
0000
,
0100
0000
0010
0000
0001
0100
0001
0000
,
1000
0100
1000
0000
0001
0100
0001
0000
,
0010
0100
0010
0000
0001
0000
1000
0000
,
0001
0100
0001
0100
0001
0000
1000
0000
,
0100
0000
0010
0000
0001
0000
1000
0010
,
1000
0010
1000
0000
0001
0000
0010
0000
,
0100
0000
1000
0100
1000
0000
0010
0100
,
0010
1000
0100
0010
,
0001
0000
0100
0010
0100
0000
0001
1000
,
0001
1000
0100
0010
,
0000
1001
0000
0000
0100
0010
0100
0000
,
0010
0100
0010
0000
0100
0000
0010
0000
,
1000
0001
0000
0000
0100
0001
0100
0000
,
0001
0100
0001
0000
1000
0000
0001
0000
,
0010
0100
0000
0000
1000
0100
1000
0000
,
0100
1000
0100
0000
1000
0000
0100
0000
,
1000
0001
0000
0000
0010
0100
0010
0000
,
0001
1000
0000
0000
1000
0001
0000
0000
,
0001
2000
0000
0000
0000
3020
0000
0230
,
0000
0302
0000
0000
0000
0023
0000
0230
,
0000
2300
0000
0000
0000
3010
0100
0010
,
0100
0220
0000
0000
0000
0000
0330
0000
,
0000
1001
0000
0000
1000
0000
0001
0000
,
1000
0000
0000
0000
0001
0000
0100
0001
,
0100
0000
0010
0100
0010
0000
0100
0001
,
0100
0001
0010
0100
,
1000
0000
0010
0100
0010
0000
1000
0100
,
1000
0000
0010
0100
0010
0000
1000
0000
,
0100
0000
0010
0001
0010
0000
0100
1000
,
0100
1000
0001
0100
,
0001
1000
0000
0000
1000
0001
0000
0000
,
0001
1000
0000
0000
0000
0000
0000
0000
;

//---------------dance-single - ----------------
#NOTES:
     dance-single:
     :
     Hard:
     7:
     0.512,0.450,0.247,0.196,0.000: // measure 1
0000
1001
0000
0001
0001
0100
0010
1000
,  // measure 2
0100
0020
0000
0031
1000
0100
0010
0100
,  // measure 3
1000
0100
0001
0100
1000
0100
0010
0100
,  // measure 4
1000
0002
0000
1003
0001
0100
0010
0100
,  // measure 5
0001
0100
1000
0100
0001
0100
0010
0100
,  // measure 6
0001
2000
0000
3001
1000
0010
0100
0010
,  // measure 7
1000
0100
0001
0100
1000
0010
0100
0010
,  // measure 8
1000
0002
0000
1003
0001
0100
0010
1000
,  // measure 9
1000
1100
0000
0010
0010
0011
0000
0100
,  // measure 10
0100
0110
0000
0000
0001
0000
1000
0001
,  // measure 11
0100
0001
1000
0000
0100
0000
0010
0000
,  // measure 12
0100
2000
0000
0001
3001
0000
1000
0100
,  // measure 13
0010
0002
0000
1000
1003
0000
0001
0010
,  // measure 14
0100
1000
0000
0000
1001
0000
0001
1000
,  // measure 15
0100
1000
0001
0000
0010
0000
0100
0000
,  // measure 16
0010
0002
0000
1000
1003
0000
0010
0100
,  // measure 17
0001
0101
0000
0000
0001
0010
1000
0010
,  // measure 18
0001
1001
0000
0100
0100
0000
1100
0000
,  // measure 19
0001
0100
0010
0100
0100
0000
0101
0000
,  // measure 20
1000
0000
0100
0000
0010
0100
1000
0010
,  // measure 21
0100
0000
0001
0010
0100
0010
0001
1000
,  // measure 22
0100
1100
0000
1000
0001
0101
0000
1000
,  // measure 23
0100
1100
0000
1000
0001
0101
0000
0000
,  // measure 24
0000
1001
0000
0010
0001
0100
0010
1000
,  // measure 25
0100
0010
2002
0000
0000
0000
0000
3003
,  // measure 26
0000
1001
0000
0000
0100
0000
0010
0100
,  // measure 27
0001
1000
0000
0010
0000
0001
0000
0010
,  // measure 28
0000
1000
0001
0001
1000
0000
0100
0010
,  // measure 29
0100
1000
0000
0010
0000
0001
0000
0010
,  // measure 30
0000
1000
0001
0001
1000
0000
0100
0010
,  // measure 31
0100
1000
0000
0010
0000
0100
0000
0001
,  // measure 32
0000
1000
0010
0100
0010
0000
1000
0000
,  // measure 33
0001
0100
1000
0100
0001
1000
0000
0010
,  // measure 34
0100
0110
0000
0000
1001
0000
1000
0000
,  // measure 35
0001
1000
0100
0010
0000
0100
0000
1000
,  // measure 36
0000
0001
0100
0010
0100
0000
0001
0000
,  // measure 37
1000
0001
0000
0100
0000
1000
0000
0100
,  // measure 38
0000
0001
0100
0010
0100
0000
0001
0000
,  // measure 39
1000
0001
0000
0010
0000
1000
0000
0010
,  // measure 40
0000
0001
0010
0100
0010
0001
0100
0000
,  // measure 41
0010
0100
0001
1000
0100
0010
0001
0100
,  // measure 42
0010
0110
0000
1000
0001
0010
0100
0010
,  // measure 43
0001
0010
1000
0010
0001
0010
0100
0010
,  // measure 44
0001
2000
0000
3001
1000
0010
0100
0010
,  // measure 45
1000
0010
0001
0010
1000
0010
0100
0010
,  // measure 46
1000
0002
0000
1003
0001
0100
0010
0100
,  // measure 47
0001
0100
1000
0100
0001
0100
0010
0100
,  // measure 48
0001
2000
0000
3001
1000
0100
0010
0001
,  // measure 49
0001
0101
0000
1000
1000
1100
0000
0010
,  // measure 50
0010
0120
0000
0000
0000
0230
0000
0302
,  // measure 51
0000
2003
0000
0000
0000
3200
0000
0320
,  // measure 52
0000
0032
0000
0000
0000
0203
0302
0023
,  // measure 53
0130
1002
0000
0000
0000
0000
1003
0100
,  // measure 54
0010
0110
0000
0000
0010
0100
0010
1000
,  // measure 55
0001
1001
0000
0000
1001
0000
1000
0001
,  // measure 56
0100
0001
1000
0100
0000
0001
0000
0100
,  // measure 57
0000
1000
0001
0001
1000
0100
0010
0100
,  // measure 58
1000
0001
0000
0100
0000
1000
0000
0100
,  // measure 59
0000
0001
1000
1000
0001
0010
0100
0010
,  // measure 60
0001
1000
0000
0100
0000
0001
0000
0100
,  // measure 61
0000
1000
0001
1000
1000
0001
0100
0010
,  // measure 62
1000
1010
0000
0010
0001
0011
0000
0010
,  // measure 63
1000
1010
0000
0000
0000
0000
0000
0000
;

//---------------dance-single - ----------------
#NOTES:
     dance-single:
     :
     Beginner:
     2:
     0.110,0.132,0.043,0.000,0.000:
0000
0000
0000
0000
,
0000
0000
1000
0000
,
0001
0000
1000
0000
,
0000
0000
0001
0000
,
1000
0000
0001
0000
,
0000
0000
0100
0000
,
0010
0000
0100
0000
,
0000
0000
0010
0000
,
0000
0000
0000
0000
,
0000
0000
1000
0000
,
0000
0000
0000
0000
,
0000
0001
0000
0000
,
0000
1000
0000
0000
,
0000
0000
0001
0000
,
0000
0000
1000
0000
,
0000
0000
0001
0000
,
0000
0100
0000
0000
,
0000
0010
0000
0000
,
0000
0100
0000
0000
,
0000
0010
0000
0000
,
0000
0100
0000
0000
,
0000
1001
0000
0000
0000
0000
0000
0000
,
0000
1001
0000
0000
0000
0000
0000
0000
,
0000
1000
0000
0001
,
0000
1001
0000
0000
,
0000
0000
0010
0000
,
0100
0000
0010
0000
,
1000
0000
0001
0000
,
1000
0000
0001
0000
,
1000
0000
0010
0000
,
0100
0000
0010
0000
,
0100
0000
0001
0000
,
1000
0000
0001
0000
,
0000
0000
1000
0000
,
0001
0000
1000
0000
,
0001
0000
0010
0000
,
0100
0000
0010
0000
,
0100
0000
1000
0000
,
0001
0000
1000
0000
,
0001
0000
0100
0000
,
0010
0000
1000
0000
,
0000
0000
0001
0000
,
1000
0000
0001
0000
,
0000
0000
0100
0000
,
0001
0000
0100
0000
,
0000
0000
0010
0000
,
1000
0000
0010
0000
,
0000
0000
0100
0000
,
0000
0100
0000
0000
0000
0000
0000
0000
,
0000
1001
0000
0000
0000
0000
0000
0000
,
0000
0000
0000
0000
,
0000
0000
0000
0000
,
0000
1001
0000
0000
0000
0000
0000
0000
,
0000
0000
0000
0000
,
0000
0000
0001
0000
,
1000
0000
0001
0000
,
1000
0000
0010
0000
,
0100
0000
0010
0000
,
0100
0000
0001
0000
,
1000
0000
0001
0000
,
0010
0000
0100
0000
,
1000
0000
0000
0000
0000
0001
0000
0000
,
0000
0001
0000
0000
0000
0000
0000
0000
;
