#TITLE:ゆずれない願い;
#SUBTITLE:;
#ARTIST:田村直美;
#TITLETRANSLIT:YUZURENAI NEGAI;
#SUBTITLETRANSLIT:;
#ARTISTTRANSLIT:NAOMI TAMURA;
#CREDIT:DigiMindAxel;
#BANNER:YUZURENAI NEGAI.png;
#BACKGROUND:YUZURENAI NEGAI-bg.png;
#LYRICSPATH:YUZURENAI NEGAI.lrc;
#CDTITLE:pop'n music.png;
#MUSIC:YUZURENAI NEGAI.mp3;
#OFFSET:-9.445;
#SAMPLESTART:57.265;
#SAMPLELENGTH:12.000;
#SELECTABLE:YES;
#BPMS:0.000=110.000,19.000=140.000;
#STOPS:;
#BGCHANGES:;

//---------------dance-single - ----------------
#NOTES:
     dance-single:
     :
     Easy:
     2:
     0.209,0.227,0.101,0.175,0.000:
2000
0000
0000
0000
,
3200
0000
0000
0000
,
0320
0000
0000
0000
,
0032
0000
2003
0000
,
3020
0000
0000
0000
,
0000
0130
0000
1001
,
0000
0001
0000
1000
,
0000
0001
0000
0010
,
0000
0100
0000
0010
,
0000
0100
0000
2000
,
0000
0000
3000
0002
,
0000
0000
0003
0200
,
0000
0000
0300
0020
,
0000
0000
0030
0210
,
0000
0000
0300
0020
,
0000
0000
0030
2000
,
0000
3200
0000
0320
,
0000
0031
0000
1001
,
0001
1000
0000
0010
,
1000
0010
0000
0100
,
0001
0100
0000
0010
,
0100
0010
0000
1001
,
1000
0001
1000
0100
,
1000
0100
0000
0010
,
0001
0010
0001
1000
,
0010
0100
0001
0010
,
0000
0000
0000
1001
,
0001
1000
0000
0100
,
1000
0010
0000
0100
,
0001
0010
0000
0001
,
0010
0100
1000
0001
,
0100
0010
0000
0100
,
0001
0010
0000
0100
,
1000
0010
0000
1000
,
0100
0010
0001
1001
,
1000
0001
0000
0010
,
0001
0100
0000
0010
,
0100
0010
0000
1000
,
0001
0100
0000
1001
,
1000
0001
0000
0010
,
0001
0100
0000
0010
,
0100
0010
0000
1000
,
0100
0010
0001
0110
,
0000
0000
0000
0110
,
0100
0010
0000
1000
,
0100
0010
0000
0001
,
0010
0100
1000
0002
,
0000
0000
0103
0001
,
0010
0100
1000
0020
,
0000
0000
1030
0001
,
0010
0100
1000
1001
,
0000
0000
0000
0000
0000
0220
0000
0000
,
0000
0000
0000
0000
,
0000
0000
0000
0000
,
0000
0000
0000
0330
;

//---------------dance-single - ----------------
#NOTES:
     dance-single:
     :
     Medium:
     5:
     0.327,0.327,0.110,0.037,0.000:
0001
0100
0010
0000
,
1000
0010
0100
0000
,
0001
0010
0100
1000
,
0001
0100
0010
1000
,
0100
0010
0002
0000
,
0000
1003
0001
1001
,
0100
0000
1000
0000
0001
0100
0001
0000
,
0010
0000
0100
1000
0010
0000
0100
0000
,
0001
0000
0010
0001
0010
0100
0000
0000
,
1000
0010
0100
0000
1001
0000
1000
0100
,
0010
0001
0000
0000
0000
0000
0001
0010
,
0100
1000
0000
0000
0000
0000
1000
0100
,
0010
0001
0000
0000
0000
0000
0001
0010
,
0100
1000
0000
0000
0000
0000
0100
1000
,
0001
0010
0000
0000
0000
0000
0010
0001
,
1000
0100
0000
0000
0000
0000
1000
0100
,
0010
0001
0000
0100
0010
0100
0000
0001
,
0010
0100
1000
0000
0000
0000
0100
1000
,
0100
0000
1000
0001
1000
0000
0100
0000
,
0010
0000
0001
0000
0100
0000
0010
0100
,
0010
0000
1000
0010
1000
0000
0001
0000
,
0010
0000
0100
0000
1000
0000
0001
0010
,
0001
0000
0100
0010
0100
0000
0001
0000
,
0010
0000
0100
0000
1000
0000
0010
1000
,
0010
0000
0100
0010
0100
0000
0001
0000
,
0010
0000
0100
0000
1000
0000
0100
0100
,
0000
1001
0000
0000
0000
0000
0100
0000
,
0010
0000
1000
0100
0010
0000
0001
0010
,
0100
0000
1000
0000
0001
0000
0010
0100
,
1000
0000
0100
0010
0001
0000
0100
0000
,
0001
0000
0010
0000
0100
0000
1000
0100
,
1000
0000
0010
0100
0010
0000
1000
0000
,
0001
0000
0010
0000
0001
0010
0001
0000
,
0100
0010
0100
0000
0001
0000
1000
0000
,
0010
0000
0110
0000
0000
0000
0100
0010
,
0100
0000
0001
0010
0001
0000
0010
0000
,
0100
0000
1000
0000
0010
1000
0100
0000
,
0010
0001
0100
0000
0010
0000
0100
0000
,
0001
0000
1000
0000
0100
0010
0001
0000
,
0100
0000
0001
0010
0100
0000
0010
0000
,
0001
0000
0100
0001
0010
0000
1001
0000
,
0000
1000
0001
1001
,
0100
0010
0100
1001
,
0000
1001
0000
0000
0000
0000
1100
0000
,
0010
0001
0010
0000
0100
0000
0110
0000
,
0000
0000
0011
0000
0100
1000
0100
0000
,
0010
0110
0010
2000
,
0001
0000
0010
0000
3001
1000
0000
0000
,
0010
0000
0100
0010
0100
0000
0002
0000
,
1000
0000
0100
0000
1003
0001
0000
0000
,
0100
0000
0010
0100
0010
0000
1000
0001
,
0000
0010
0000
0100
1000
0020
0000
0000
,
0000
0000
0000
0000
,
0000
0000
0000
0000
,
0000
0000
0000
0030
;

//---------------dance-single - ----------------
#NOTES:
     dance-single:
     :
     Hard:
     8:
     0.549,0.604,0.257,0.175,0.248: // measure 1
1000
0100
0010
0001
1000
0100
0010
0001
,  // measure 2
1000
0010
0100
0001
1000
0010
0100
0001
,  // measure 3
1000
0100
0001
0100
1000
0100
0001
0100
,  // measure 4
1000
0010
0001
0010
1000
0010
0001
0010
,  // measure 5
1000
0000
1000
0001
0200
0000
0000
0000
,  // measure 6
0300
0000
0001
0000
1000
0100
1000
0000
0001
0000
0000
0000
1001
0000
0000
0000
,  // measure 7
0001
0000
1000
0000
0100
0000
0000
0001
0000
0000
0110
0000
0000
0000
0000
0000
,  // measure 8
0100
0000
1000
0000
0010
0000
0000
0001
0000
0000
0010
0000
0100
0000
0000
0000
,  // measure 9
0001
0000
1000
0000
0100
0000
0000
0001
0000
0000
0110
0000
0000
0000
0000
0100
,  // measure 10
0010
0000
1000
0000
0001
1000
0001
1000
0001
0000
0000
0000
1000
0000
0100
0000
,  // measure 11
0001
0200
0000
0000
1300
0000
0001
0010
,  // measure 12
1000
0020
0000
0000
0031
0000
1000
0010
,  // measure 13
0001
0020
0000
0000
1030
0000
0001
0100
,  // measure 14
1000
0200
0000
0000
0301
0000
0110
1000
,  // measure 15
0100
0020
0000
0000
0130
0000
0010
0100
,  // measure 16
1000
0002
0000
0000
0103
0000
0001
1000
,  // measure 17
0100
0001
0000
0100
1000
0001
0000
0010
,  // measure 18
1000
0000
0010
0000
0001
1000
0001
0000
0010
0000
0000
0000
0001
0000
0010
0000
,  // measure 19
0001
0010
0001
1000
0010
1000
0010
1000
,  // measure 20
0001
0010
0100
1000
0100
0010
0001
1000
,  // measure 21
0001
1000
0001
0100
0001
0100
0001
1000
,  // measure 22
0100
0000
1000
0000
0001
1000
0000
1000
0001
0000
1000
0000
1001
0000
0000
0000
,  // measure 23
1000
0100
1000
0001
0100
0001
1000
0100
,  // measure 24
0010
0001
0010
0100
1000
0001
1001
0000
,  // measure 25
0001
0000
0100
0000
0010
0000
0100
0000
0001
0000
1000
0000
0100
0000
1000
0100
,  // measure 26
1000
0000
0000
0000
0010
0100
0010
0100
0010
0000
0000
0000
1100
0000
1100
0000
,  // measure 27
0000
0101
0000
0100
0110
0000
0200
0001
,  // measure 28
0000
0001
0000
0000
0301
0000
1000
0000
0100
0000
0001
0000
0200
0000
1000
0000
,  // measure 29
0000
1000
0000
0000
1300
0000
0001
0000
0100
0000
0001
0000
1000
0000
0000
0000
,  // measure 30
0001
0100
1000
0000
1000
0100
0001
0010
,  // measure 31
0100
1000
0001
0000
1001
0000
0200
1000
,  // measure 32
0000
1000
0000
0000
1300
0000
0001
0000
0100
0000
1000
0000
0200
0000
0001
0000
,  // measure 33
0000
0001
0000
0000
0301
0000
1000
0000
0100
0000
0010
0000
0100
0000
0000
0000
,  // measure 34
1000
0000
0100
0000
0001
0000
0000
0000
0001
0000
0100
0000
1000
0001
1000
0000
,  // measure 35
0001
0000
1001
0000
1001
0000
0010
1000
,  // measure 36
0001
0010
0000
0010
0001
0000
1000
0000
0100
0000
1000
0000
0001
0000
1000
0000
,  // measure 37
0100
1000
0000
1000
0100
0000
0010
0000
0001
0000
1000
0000
0010
0000
1000
0000
,  // measure 38
0010
0100
0000
0100
0010
0000
1000
0000
0001
0000
0010
0000
0001
0000
1000
0000
,  // measure 39
0010
1000
0000
1000
0001
0000
0000
0000
1001
0000
0000
0000
1000
0000
0100
0000
,  // measure 40
1000
0001
0000
0001
0100
0000
0001
0000
0010
0000
0100
0000
1000
0000
0010
0000
,  // measure 41
0100
0001
0000
0001
1000
0000
0100
0000
0010
0000
0100
0000
1100
0000
0000
0000
,  // measure 42
0010
0000
0001
0000
1000
0010
0000
0010
0100
0000
0001
0000
1001
0000
0000
0000
,  // measure 43
1100
0000
0000
0000
0011
0000
0000
0000
1100
0000
0000
0000
1001
0000
0000
1001
,  // measure 44
0000
2002
0000
0000
3003
0000
0011
0000
,  // measure 45
0100
1000
0000
1000
0001
0000
0010
0000
0100
0000
1000
0000
0020
0000
0000
0000
,  // measure 46
0130
0010
2000
0000
3100
0010
0110
0000
,  // measure 47
0001
0000
0010
0000
0100
1000
0100
1000
0001
0000
0000
0000
0100
0000
0001
0000
,  // measure 48
1000
0100
1000
0100
1000
0000
0001
1000
0000
1000
0020
0000
0000
0000
0130
0000
,  // measure 49
0001
0100
0001
0100
0001
0000
1000
0001
0000
0001
0010
0000
0110
0000
0000
0000
,  // measure 50
0001
1000
0001
1000
0001
0000
0010
0001
0000
0001
0200
0000
0000
0000
0310
1000
,  // measure 51
0010
1000
0010
0000
1000
0100
0010
0001
1000
0100
1000
0000
1001
0000
1000
0000
,  // measure 52
0010
0110
0100
0001
0100
0220
0000
0000
,  // measure 53
0000
0000
0000
0000
,  // measure 54
0000
0000
0000
0000
,  // measure 55
0000
0000
0000
0330
;

//---------------dance-single - ----------------
#NOTES:
     dance-single:
     :
     Beginner:
     1:
     0.072,0.071,0.074,0.000,0.000:
0000
0000
0000
0000
,
0000
0000
0000
0000
,
0000
0000
0000
0000
,
0000
0000
0000
0000
,
0000
0000
0000
0000
,
0000
0000
0000
1001
,
0000
0000
0000
0001
,
0000
0000
0000
1000
,
0000
0000
0000
0001
,
0000
0000
0000
0100
,
0000
0000
0000
0100
,
0000
0000
0000
0010
,
0000
0000
0000
0010
,
0000
0000
0000
0110
,
0000
0000
0000
1000
,
0000
0000
0000
0001
,
0000
0000
0000
1000
,
0000
0000
0000
1001
,
0000
0000
0000
0001
,
0000
0000
0000
1000
,
0000
0000
0000
0100
,
0000
0000
0000
0010
,
0000
0000
0000
0001
,
0000
0000
0000
1000
,
0000
0000
0000
0001
,
0000
0000
0000
1001
,
0000
0000
0000
1000
,
0000
0000
0000
0100
,
0000
0000
0000
1000
,
0000
0000
0000
0010
,
0000
0000
0000
0100
,
0000
0000
0000
0010
,
0000
0000
0000
0100
,
0000
0000
0000
0001
,
0000
0000
0000
0010
,
0000
0000
0000
0001
,
0000
0000
0000
1000
,
0000
0000
0000
0001
,
0000
0000
0000
1001
,
0000
0000
0000
0001
,
0000
0000
0000
1000
,
0000
0000
0000
0100
,
0000
0000
0000
0110
,
0000
0000
0000
0010
,
0000
0000
0000
0001
,
0000
0000
0000
0100
,
0000
0000
0000
0110
,
0000
0000
0000
0010
,
0000
0000
0000
0100
,
0000
0000
0000
0010
,
0000
0000
0000
1000
,
0000
0000
0000
0000
0000
1001
0000
0000
;
