#TITLE:フー・フローツ;
#SUBTITLE:;
#ARTIST:Nanako;
#TITLETRANSLIT:WHO FLOATS;
#SUBTITLETRANSLIT:;
#ARTISTTRANSLIT:;
#CREDIT:DigiMindAxel;
#BANNER:WHO FLOATS.png;
#BACKGROUND:WHO FLOATS-bg.png;
#LYRICSPATH:WHO FLOATS.lrc;
#CDTITLE:jubeat.png;
#MUSIC:WHO FLOATS.mp3;
#OFFSET:-9.830;
#SAMPLESTART:57.793;
#SAMPLELENGTH:12.000;
#SELECTABLE:YES;
#BPMS:0.000=180.000;
#STOPS:;
#BGCHANGES:;

//---------------dance-single - ----------------
#NOTES:
     dance-single:
     :
     Easy:
     4:
     0.262,0.330,0.099,0.090,0.000:
1000
0000
0001
0000
,
1000
0000
0100
0000
,
0110
0000
0000
0000
0000
0000
0000
1001
,
0000
0000
0000
0000
,
0010
0010
0010
0000
,
0100
0010
0100
0010
,
0100
0100
0100
0000
,
0001
1000
0001
1000
,
0001
0001
0001
0000
,
1000
0001
1000
0001
,
2000
0000
0000
0000
,
3000
0000
0000
0000
,
1001
0000
0000
0000
,
0010
0000
0000
0000
,
0010
0000
0000
0000
,
0010
0000
0000
0000
,
0100
0000
0010
0000
,
0100
0000
0010
0000
,
0100
0000
0001
0000
,
2000
0000
0000
0000
,
3001
1000
0001
0000
,
0010
0001
0010
0000
,
0001
1000
0001
0000
,
1000
0100
1000
0000
,
0010
0100
0010
0000
,
1000
0001
1000
0000
,
0010
1000
0010
0000
,
0100
0001
0100
0000
,
0001
0010
0100
1000
,
0001
0000
0000
0000
,
1000
0100
0010
0001
,
1000
0000
0000
0000
,
0110
0000
0000
0100
0000
0000
0100
0000
,
0000
0100
0000
0000
0001
0000
1000
0000
,
0001
0010
0100
1000
,
0001
0000
0000
0000
,
1000
0100
1000
0100
,
1000
0100
1000
0001
,
0100
0000
0000
0000
0000
0000
0000
1001
,
0000
0000
0000
0000
,
0001
0010
0100
1000
,
0001
1000
0001
0010
,
0001
0000
0000
0000
,
1000
0000
0000
0000
,
0001
0100
0001
0100
,
0001
0100
0001
0100
,
0001
0000
0000
0000
0000
0000
0000
1001
,
0000
0000
0000
0000
,
1000
0100
0010
0001
,
1000
0001
1000
0100
,
0010
0000
0001
0000
0000
0000
0000
0100
,
0000
0000
0000
0000
,
1001
0000
0110
0000
,
1001
0000
0110
0000
,
2000
0000
0000
0000
,
3200
0000
0000
0000
,
0320
0000
0032
0000
,
2003
0000
3002
0000
,
0103
0000
0000
0100
0000
0000
0100
0000
,
0000
0100
0000
0000
0001
0000
1000
0000
,
0001
0010
0100
1000
,
0001
0010
0100
0000
,
1000
0001
1000
0000
,
0100
1000
0100
1000
,
0001
1000
0100
0000
,
0010
0001
0010
0001
,
1000
0100
0010
0000
,
0100
1000
0010
0100
,
0001
0010
0100
0000
,
1000
0100
0010
0000
,
0001
0100
0010
0100
,
0001
0010
0100
1000
,
0220
0000
0000
0000
,
0000
0000
0000
0330
;

//---------------dance-single - ----------------
#NOTES:
     dance-single:
     :
     Medium:
     6:
     0.419,0.529,0.179,0.233,0.000:
0001
0000
0010
0000
,
0100
0000
1000
0001
,
0110
0000
0100
0000
0010
0000
0000
2002
,
0000
0000
0000
3003
,
0100
1000
0100
0000
1000
0000
0100
0000
,
0000
1000
0000
1000
0001
0000
0100
0000
,
0010
0100
0010
0000
1000
0000
0001
0000
,
0000
0100
0000
0100
0010
0000
1000
0000
,
0100
0010
0100
0000
1000
0000
0010
0000
,
0000
0100
0000
0100
0001
0000
1000
0000
,
0010
0100
0000
0100
0000
0100
0020
0000
,
0000
0000
0000
0030
,
2001
0000
0000
0000
0000
0000
3000
0010
,
0200
0000
0000
0000
,
0302
0000
0000
0000
0000
0000
0003
0100
,
0020
0000
0000
0000
,
1030
0001
1000
0001
,
0010
0100
1000
0100
,
0010
0001
0100
0010
,
0220
0000
0000
0330
,
0100
1000
0100
0010
,
0001
0010
0100
0010
,
0001
0100
0010
0100
,
0001
0100
1000
0100
,
0001
0000
1000
0001
1000
0000
0001
1000
,
0001
0010
0100
0010
,
0001
1000
0001
0000
1000
0100
1000
0000
,
0001
1000
0001
0000
0010
0001
0010
0000
,
1001
0100
1000
0100
,
1001
0000
0000
0000
0010
0100
0010
0000
,
1001
0010
0001
0010
,
1001
0000
0000
0000
,
0010
0100
0000
0100
0010
0000
0010
0100
,
0000
0100
0010
0000
1000
0001
1000
0000
,
0001
0010
1000
0010
,
0002
0000
0000
0003
,
1001
0100
0010
0001
,
0100
1000
0100
0001
,
1000
0000
0001
0100
0000
0001
0000
1000
,
0000
0000
0100
0100
,
1000
0100
1000
0100
0010
0000
0001
0100
,
0001
0100
0010
0000
1000
0000
0100
0000
,
0010
0000
0001
0100
0000
0010
0000
0200
,
0000
0000
0300
0000
,
0001
0010
1000
0010
,
0001
0010
1000
0100
,
0010
0000
0001
1000
0000
0010
0000
0110
,
0000
0000
0001
0001
,
1000
0010
1000
0010
0100
0000
0001
0010
,
0001
0010
0100
0000
1000
0000
0010
0000
,
0100
0000
0001
1000
0000
0100
0000
0020
,
0000
0000
0000
0030
,
0101
0100
0220
0330
,
1010
0010
0220
0330
,
0002
0000
0013
0000
,
0200
0000
1300
0000
,
0020
0000
0230
0000
,
0320
0000
2030
0000
,
3001
1000
0000
0001
1000
0000
0100
0010
,
0000
0100
0010
0000
0001
1000
0001
0000
,
1000
0100
0001
0100
,
1000
0010
0220
0330
,
1001
0000
1000
0000
0001
0100
0010
0100
,
0001
0000
0010
0000
0100
0000
0010
0001
,
1000
0000
0001
0000
1000
0100
0010
0100
,
1000
0000
0010
0000
0100
0000
0010
1000
,
0001
0000
0100
0000
0001
0010
0100
0010
,
0001
1000
0010
0100
,
1001
0000
0010
0100
0010
0100
0001
0000
,
1001
0000
0100
0010
0100
0010
1000
0000
,
1001
0000
0010
1000
0100
0000
0010
0001
,
0100
0010
0100
0010
0100
0010
0100
0000
,
0220
0000
0000
0000
,
0000
0000
0000
0330
;

//---------------dance-single - ----------------
#NOTES:
     dance-single:
     :
     Hard:
     8:
     0.612,0.892,0.376,0.179,0.094: // measure 1
2000
0000
0000
0000
3100
0000
0000
0010
,  // measure 2
0000
0002
0100
0103
,  // measure 3
0010
0100
0010
0100
0001
1000
0001
2002
,  // measure 4
0000
0000
0000
3003
,  // measure 5
1000
0100
0010
0100
1000
0000
1000
0000
,  // measure 6
0001
0100
0010
0100
0001
0000
0101
0000
,  // measure 7
0001
0010
0100
0010
0001
0000
0001
0000
,  // measure 8
1000
0010
0100
0010
1000
0000
1010
0000
,  // measure 9
0010
0100
0010
1000
0001
0010
0000
0100
,  // measure 10
0000
1000
0000
0010
0100
0000
0001
0000
,  // measure 11
1000
0100
0010
0001
0010
0100
1000
0002
,  // measure 12
0000
0000
0100
0000
0000
0100
0103
0000
,  // measure 13
2002
0000
0000
0000
0000
3003
0000
0200
,  // measure 14
2000
0000
0000
3300
,  // measure 15
0220
0000
0000
0000
0000
0330
0000
0020
,  // measure 16
0002
0000
0000
0033
,  // measure 17
1001
0000
0010
0000
0100
0000
1000
0001
,  // measure 18
0100
0000
0001
0000
0100
0000
0010
1000
,  // measure 19
0001
0000
0010
0000
0100
0000
0010
0001
,  // measure 20
0200
0000
0010
0000
0000
0010
0310
0000
,  // measure 21
1000
0100
1000
0100
1000
0010
0100
0000
,  // measure 22
0001
0100
0001
0100
0010
1000
0100
0000
,  // measure 23
1000
0010
1000
0010
1000
0100
0010
0000
,  // measure 24
0001
0100
0001
0010
0100
1000
0010
0000
,  // measure 25
1001
0000
0100
0001
0100
0001
0010
0000
,  // measure 26
0100
1000
0010
0100
0010
1000
0100
0000
,  // measure 27
1000
0100
0001
0100
1000
0010
0100
0010
,  // measure 28
1000
0010
0001
0010
1000
0100
0010
0000
,  // measure 29
1001
1100
0011
1100
,  // measure 30
1001
0000
0000
0000
0010
0100
0010
1000
,  // measure 31
1001
0101
1010
0101
,  // measure 32
1001
0100
0100
0110
,  // measure 33
0001
0100
0000
1000
0100
0000
0001
0100
,  // measure 34
0000
1000
0100
0000
0001
0010
0100
1000
,  // measure 35
1001
0110
1001
0110
,  // measure 36
2002
0000
0000
3003
,  // measure 37
1001
0000
0010
0000
0100
1000
0010
0000
,  // measure 38
1000
0100
0010
0001
0100
1000
0100
0000
,  // measure 39
1001
0000
1000
0001
0000
0100
0000
0101
,  // measure 40
0000
0001
1000
0000
0100
0000
0010
0000
,  // measure 41
0001
0100
1000
0100
0001
0000
1000
0100
,  // measure 42
0001
0100
1000
0000
0001
0010
1000
0010
,  // measure 43
0001
0000
1000
0010
0000
0100
0000
0110
,  // measure 44
0000
0100
0010
1000
0100
0010
0001
1000
,  // measure 45
1001
0000
0100
0000
0010
0001
0100
0000
,  // measure 46
0001
0010
0100
1000
0010
0001
0010
0000
,  // measure 47
1001
0000
0001
1000
0000
0100
0000
1100
,  // measure 48
0000
1000
0001
0000
0010
0000
0100
0000
,  // measure 49
1000
0010
0001
0010
1000
0000
0001
0010
,  // measure 50
1000
0010
0001
0000
1000
0100
0001
0100
,  // measure 51
1000
0000
0001
0100
0000
0010
0000
0110
,  // measure 52
0000
0010
0100
0001
0010
0100
1000
0010
,  // measure 53
0200
0000
0000
0000
0001
0000
0000
0000
0301
0000
0000
1001
0000
0000
1000
0000
,  // measure 54
0200
0000
0000
0000
1000
0000
0000
0000
1300
0000
0000
1001
0000
0000
0001
0000
,  // measure 55
0020
0000
0100
0100
0000
0000
0000
0031
,  // measure 56
0010
0000
0100
0000
1000
0000
0001
0000
0000
0000
0100
0000
0000
0010
0000
0000
,  // measure 57
0100
0000
0000
0001
0000
0000
0010
0000
0100
0000
0000
1000
0000
0000
0001
0000
,  // measure 58
0010
0100
0010
0100
0010
0000
0000
0000
0001
1000
0001
1000
0001
0000
0000
0000
,  // measure 59
0100
0101
0000
0010
0100
0000
0010
0101
,  // measure 60
0000
0010
0100
0000
1000
0010
0001
0010
,  // measure 61
1000
0001
0100
0001
1000
0100
0010
0001
,  // measure 62
1000
0000
0001
0000
0010
0000
0001
0000
1000
0001
1000
0001
1000
0001
1000
0001
,  // measure 63
1000
0100
0010
0001
0100
0010
0000
0101
,  // measure 64
0000
0010
1000
0100
0010
0100
1000
0000
,  // measure 65
0010
0100
0001
0010
0100
0010
0000
0101
,  // measure 66
0000
0100
1000
0010
0100
0010
1000
0000
,  // measure 67
0100
0010
0001
0100
0010
0100
0000
1100
,  // measure 68
0000
0010
0100
1000
0010
0100
0010
0000
,  // measure 69
1001
0100
0010
0001
0100
1000
0100
0000
,  // measure 70
1001
0010
0100
1000
0010
0001
0010
1000
,  // measure 71
1001
0010
0100
0001
1001
0010
0100
1000
,  // measure 72
0010
0100
0010
0100
0010
0100
0010
0100
0010
0100
0010
0100
0010
0100
0010
0100
,  // measure 73
0020
0000
0000
0000
,  // measure 74
0000
0000
0000
0030
;

//---------------dance-single - ----------------
#NOTES:
     dance-single:
     :
     Beginner:
     2:
     0.106,0.194,0.045,0.000,0.000:
0000
0000
0000
0000
,
0000
0000
0000
0000
,
0000
0000
0000
0000
,
0000
0000
0000
0000
,
0001
0000
1000
0000
,
0001
0000
0000
0000
,
1000
0000
0001
0000
,
1000
0000
0000
0000
,
0010
0000
0100
0000
,
0010
0000
0000
0000
,
0100
0000
0000
0000
,
0000
0000
0000
0000
,
1001
0000
0000
0000
,
0000
0000
0000
0000
,
0001
0000
0000
0000
,
0000
0000
0000
0000
,
0001
0000
0000
0000
,
0000
0000
0000
0000
,
1000
0000
0000
0000
,
0000
0000
0000
0000
,
1001
0000
0001
0000
,
1000
0000
0000
0000
,
0100
0000
1000
0000
,
0100
0000
0000
0000
,
0010
0000
0001
0000
,
0010
0000
0000
0000
,
1001
0000
0000
0000
,
1000
0000
0000
0000
,
0001
0000
1000
0000
,
0001
0000
0000
0000
,
1000
0000
0001
0000
,
1000
0000
0000
0000
,
0100
0000
0000
0000
,
0000
0000
0010
0000
,
0001
0000
0000
0000
,
0000
0000
0000
0000
,
1000
0000
0001
0000
,
1000
0000
0001
0000
,
1000
0000
0000
0000
,
0000
0000
0000
0000
,
0100
0000
0000
0000
,
0010
0000
0000
0000
,
0100
0000
0000
0000
,
0000
0000
0000
0000
,
1000
0000
0001
0000
,
1000
0000
0001
0000
,
1000
0000
0000
0000
,
0000
0000
0000
0000
,
0010
0000
0000
0000
,
0010
0000
0000
0000
,
0010
0000
0000
0000
,
0000
0000
0000
0000
,
1000
0000
0001
0000
,
1000
0000
0100
0000
,
0010
0000
0000
0000
,
0000
0000
0000
0000
,
0001
0000
0000
0000
,
0000
0000
0000
0000
,
0100
0000
0000
0000
,
0000
0000
0000
0000
,
0010
0000
0100
0000
,
0010
0000
0000
0000
,
1001
0000
0000
0000
,
0001
0000
1000
0000
,
0001
0000
0000
0000
,
0100
0000
0001
0000
,
0100
0000
0000
0000
,
0010
0000
1000
0000
,
0001
0000
0001
0000
,
1000
0000
1000
0000
,
0010
0000
0100
0000
,
0010
0000
0010
0000
,
0110
0000
0000
0000
;
