#TITLE:Virtual Drummer;
#SUBTITLE:;
#ARTIST:PARADOX;
#TITLETRANSLIT:;
#SUBTITLETRANSLIT:;
#ARTISTTRANSLIT:;
#CREDIT:DigiMindAxel;
#BANNER:Virtual Drummer.png;
#BACKGROUND:Virtual Drummer-bg.png;
#LYRICSPATH:;
#CDTITLE:beatmania.png;
#MUSIC:Virtual Drummer.mp3;
#OFFSET:-6.010;
#SAMPLESTART:44.366;
#SAMPLELENGTH:12.000;
#SELECTABLE:YES;
#BPMS:0.000=175.000;
#STOPS:;
#BGCHANGES:;

//---------------dance-single - ----------------
#NOTES:
     dance-single:
     :
     Easy:
     3:
     0.267,0.300,0.102,0.231,0.000:
0002
0000
0000
0000
,
2003
0000
0000
0000
,
3002
0000
0000
0000
,
2003
0000
0000
3000
,
1001
0000
0000
0000
,
0001
0000
1000
0000
,
0001
0000
0010
0000
,
0100
0000
1000
0000
,
0002
0000
0000
0000
,
0023
0000
0000
0000
,
0230
0000
0000
0000
,
2300
0000
0000
0000
,
3001
1000
0001
0000
,
0100
0010
0100
0000
,
0001
1000
0001
0000
,
0100
0010
0100
0000
,
2001
0000
0000
0000
,
3200
0000
0000
0000
,
0320
0000
0000
0000
,
0032
0000
0000
0003
,
1001
0000
1000
0000
,
0001
1000
0100
1000
,
0001
0000
1000
0000
,
0010
0100
0001
0010
,
0100
0000
0010
0000
,
0001
0100
0010
0100
,
0001
0000
1000
0000
,
0100
0010
0100
1000
,
0010
0000
0100
0000
,
0010
1000
0001
0010
,
0100
0000
0010
0000
,
0001
0100
0010
0100
,
0002
0000
0000
0000
,
2003
0000
0000
0000
,
3020
0000
0000
0000
,
0230
0000
0000
0300
,
0001
0100
0010
0100
,
0001
1000
0100
0010
,
0001
1000
0001
1000
,
0020
0000
0000
0000
,
0130
0010
0100
0000
,
0001
1000
0001
0000
,
0010
0001
0010
0000
,
0100
1000
0100
0010
,
1001
0010
0100
0000
,
1000
0010
0100
0001
,
1000
0000
1001
0000
,
0001
0000
0100
0000
,
1001
0100
0010
0000
,
1001
0010
0100
0000
,
1000
0010
0100
0001
,
2000
0000
0000
3000
,
1001
0000
0000
0000
;

//---------------dance-single - ----------------
#NOTES:
     dance-single:
     :
     Hard:
     8:
     0.595,0.566,0.192,0.038,0.000:
1000
0001
0200
0000
0000
0301
0000
1000
,
0001
1000
0000
0010
0100
0001
0001
0000
,
0010
0100
0000
0100
0010
0001
0000
1000
,
0010
0100
0010
0000
0110
0000
0110
0000
,
2002
0000
3003
0000
0000
1001
0000
1001
,
0000
1000
0000
0100
0000
0001
0000
0100
,
1000
0100
0000
1000
0001
1000
0000
0010
,
0000
0100
0000
0001
0000
1000
0000
0010
,
0100
0000
0100
0010
0000
0001
1000
0010
,
0000
0010
0000
0100
0010
0100
0001
0000
,
1000
0000
1000
0001
0000
0001
0100
0000
,
0010
0100
0010
0000
1000
0010
1010
0000
,
1001
0000
0001
0000
0100
0010
0000
1000
,
0000
0100
0000
0001
0000
0100
0000
1000
,
0001
1000
0000
0100
1000
0010
0000
0100
,
0000
0001
0000
1000
0000
0001
0000
0100
,
0010
0100
0001
1000
0000
1000
0001
0100
,
0000
0010
0000
0100
0001
1000
0100
0000
,
1000
0001
0100
0001
1000
0010
0000
0110
,
0000
0110
0000
0110
0000
0100
0100
0000
,
1001
0000
0001
0100
0010
0100
0000
0001
,
0000
1000
0100
0010
0000
0100
1000
0100
,
1000
0010
0100
0010
1000
0001
0000
0001
,
0100
0010
0000
1000
0001
1000
0010
0100
,
0110
0000
0100
0010
0100
0001
0010
0100
,
0000
0010
0001
1000
0000
0010
0100
0010
,
0001
0100
0010
0100
0001
0000
0010
0000
,
0100
1000
0100
0010
0100
1000
0000
1000
,
0001
0001
0100
0000
0010
0100
0000
0001
,
0000
1000
0100
1000
0000
0010
0000
1000
,
0001
1000
0100
0010
0000
0001
0000
0100
,
0000
0010
0100
0010
0000
0100
0000
0001
,
0001
1000
0001
0000
0010
0100
0000
0100
,
1000
0010
0000
1000
0001
0100
0001
1000
,
0000
1000
0001
0001
0100
0100
0010
0000
,
1000
0000
0001
0001
0000
1000
1000
0010
,
0100
0001
0100
0001
1000
0100
0010
0001
,
0000
0001
1000
0100
1000
0010
0000
0010
,
0100
0001
0001
1000
0001
0001
1000
0000
,
0010
0000
0010
0100
0001
1000
1100
0000
,
1000
0000
0100
1000
0000
1000
0010
0100
,
0000
0001
0010
0100
0010
0001
0000
0001
,
1000
0000
1000
0001
0000
0100
0010
0000
,
1000
0001
0001
0010
0100
1000
1000
0000
,
0001
0100
0001
1000
0100
1000
0001
0100
,
0001
0001
1000
0100
0010
0001
1000
0000
,
1001
0010
0100
0001
,
1000
0000
0000
0001
0000
1000
0001
0001
,
1000
0100
0010
0100
1000
0010
0100
0001
,
1000
0010
1000
0001
0010
0001
1000
0100
,
0010
0000
0010
0001
0000
0001
1000
0000
,
0100
0010
0100
0010
0100
0010
0100
0010
,
1001
0000
0000
0000
;

//---------------dance-single - ----------------
#NOTES:
     dance-single:
     :
     Challenge:
     9:
     0.732,0.599,0.231,0.115,0.186: // measure 1
1000
0001
0010
0100
0000
1000
0001
0010
,  // measure 2
0100
0010
0001
1000
0010
0100
0100
0000
,  // measure 3
0001
0001
1000
1000
0010
0100
0000
0001
,  // measure 4
0100
0000
0001
0000
1000
0000
0000
0010
0000
0100
0000
0000
0010
0000
0000
0000
,  // measure 5
1001
0000
2000
0000
0000
3001
0000
0101
,  // measure 6
0000
1000
0000
1100
0000
0001
0000
0001
,  // measure 7
1000
1000
0010
0100
0001
1001
0000
0001
,  // measure 8
0000
0001
0000
0101
0000
1000
0000
1000
,  // measure 9
0020
0100
0130
0001
1000
0000
0200
0010
,  // measure 10
0310
0001
0010
0100
1000
0010
0110
0000
,  // measure 11
0001
1000
0002
0100
0103
0001
0010
0100
,  // measure 12
1000
0000
0010
0000
0100
0000
0000
0001
0000
1000
0000
0000
0100
0000
0000
0000
,  // measure 13
0110
0000
1000
0100
1000
0001
0100
0001
,  // measure 14
0000
0010
0100
0010
0001
1000
0010
0100
,  // measure 15
0001
0000
0001
1000
0100
0010
0100
1000
,  // measure 16
0010
0100
0000
0010
0100
0001
0100
0010
,  // measure 17
2000
0001
3001
1000
0100
0000
0020
0100
,  // measure 18
0130
0001
0010
0100
0010
0001
0101
0000
,  // measure 19
0010
0100
0001
0010
0100
1000
0010
0110
,  // measure 20
0000
0000
0110
0000
0000
0000
0110
0000
0000
0100
0010
0000
1000
0000
0000
0000
,  // measure 21
1001
0000
0001
0100
1000
0100
0001
0010
,  // measure 22
0100
0010
0001
0100
1000
0100
0001
0010
,  // measure 23
0100
0010
0001
0010
1000
0010
0001
0100
,  // measure 24
0010
0000
0100
0000
0001
0000
0010
0000
1000
0000
0010
0000
0001
1000
0000
1000
,  // measure 25
0001
1000
0001
0010
1000
0010
0001
1000
,  // measure 26
0100
0010
0100
1000
0001
0100
1000
0100
,  // measure 27
0001
0000
1000
0000
0010
0000
0100
0000
0010
1000
0000
1000
0010
0000
0100
0000
,  // measure 28
0001
0000
0000
0000
0001
0000
1000
0000
0100
0000
0010
0000
0100
1000
0000
1000
,  // measure 29
0100
0000
1001
0000
1000
0100
0001
0100
,  // measure 30
1000
0010
0100
0010
1000
0100
0001
0100
,  // measure 31
1000
0010
0100
0010
1000
0010
0001
0010
,  // measure 32
1000
0000
0100
0000
0010
0000
0100
0000
1000
0000
0010
0000
0100
0010
0000
0010
,  // measure 33
2000
0001
3001
0000
1000
0010
0000
0010
,  // measure 34
0200
0001
0301
1000
0100
0010
0001
1000
,  // measure 35
0020
0100
0130
0001
0001
1000
0000
1000
,  // measure 36
0010
0000
0000
0100
0010
0000
1000
0000
0100
0000
0010
0000
0000
0000
0100
0000
,  // measure 37
0110
0001
0010
1000
0010
0001
1000
0010
,  // measure 38
0100
0100
0001
1000
0100
0001
0100
1000
,  // measure 39
0010
0100
0000
0100
0010
0000
1000
0000
0001
1000
0000
1000
0001
0000
0000
0000
,  // measure 40
0101
0000
0000
0000
0010
0000
0000
1000
0000
0100
0000
0000
1100
0000
0000
0000
,  // measure 41
0100
0010
0001
0010
0100
0000
1000
0001
,  // measure 42
0000
0001
0100
0010
1000
0100
0010
0000
,  // measure 43
0100
1000
0010
0100
0010
1000
0100
0000
,  // measure 44
1000
0000
0000
0010
0100
0000
0001
0000
0010
0000
0100
0000
0000
0000
0100
0000
,  // measure 45
1000
0100
0001
0100
1000
0010
0100
0001
,  // measure 46
0001
0010
1000
0010
0001
0100
0010
1000
,  // measure 47
1001
0000
0000
0000
0001
0000
0000
0100
0010
0000
1000
0000
0000
0010
0100
0000
,  // measure 48
0001
0000
1000
0000
0000
0000
1000
0000
0001
0100
0000
0100
0001
0000
1000
0000
,  // measure 49
0100
0000
0000
0000
0010
0000
0001
0100
0000
0100
0001
0000
0010
0000
0100
0000
,  // measure 50
1000
0000
0010
0000
0100
0000
0001
1000
0000
1000
0001
0000
0010
0000
0100
0000
,  // measure 51
1000
0000
1000
0001
0000
0001
1000
0010
,  // measure 52
0100
0100
0100
0100
0100
0100
0100
0100
,  // measure 53
1001
0000
0000
0000
;

//---------------dance-single - ----------------
#NOTES:
     dance-single:
     :
     Medium:
     6:
     0.487,0.499,0.218,0.051,0.000:
1000
0100
2000
0000
0000
3001
0000
0100
,
0000
0010
0000
0100
0000
0001
1000
0000
,
0100
1000
0100
1000
0100
0010
0000
0001
,
1000
1001
0010
0110
,
1001
0000
0100
0000
0000
1001
0000
1001
,
0000
1000
0000
0001
0000
1000
0000
0001
,
0000
0001
0000
0100
0000
0100
0000
0001
,
0000
0001
0000
1000
0000
0010
0000
1000
,
0001
0000
0001
1000
0000
0010
0000
0100
,
0010
0000
1000
0000
0010
0100
0010
0000
,
1000
0000
0001
1000
0000
1000
0010
0000
,
0100
0001
1001
1000
,
1001
0000
0010
0000
0010
0100
0000
0010
,
0000
0010
0000
1000
0000
0001
0000
1000
,
0001
1000
0000
0010
0000
0110
0000
0001
,
0000
0001
0000
1000
0000
1000
0000
0010
,
0100
0000
0100
0010
0000
1000
0000
0001
,
1000
0000
0100
0000
0010
0100
0010
0000
,
0001
0000
0100
0010
0000
1000
0000
1001
,
0000
1001
0000
1001
0000
0100
0000
0000
,
1001
0000
1000
0100
1000
0001
0000
0100
,
0000
0100
0000
0010
0000
1000
0001
1000
,
0001
0000
0100
0010
0100
0010
0000
1000
,
0000
1000
0001
1000
0000
1001
0000
0010
,
0100
0000
0010
0000
1000
0001
0000
1000
,
0000
1000
0001
1000
0000
0010
0000
0100
,
0010
0100
0000
0001
1000
0001
1000
0001
,
0100
0000
0010
0100
0000
0001
0000
1000
,
0001
0000
1000
0000
0100
0010
0000
0100
,
0000
1000
0001
1000
0000
0010
0000
0100
,
0010
0100
0000
0001
0000
0010
0100
0010
,
0000
0001
1000
0001
0000
0100
0000
0001
,
0000
1000
0020
0000
0000
0000
0000
0130
,
0000
0001
0000
1000
0000
0010
0000
0100
,
0010
0100
0010
0100
0001
1000
0000
0000
,
0100
0000
0010
0100
0000
1000
0000
0001
,
1000
0000
0010
0000
0010
0000
0000
0100
,
0000
0001
0000
1000
0000
0100
0000
1000
,
0000
0010
0100
0000
0001
0000
0200
0000
,
0000
0000
0300
0110
,
1001
0000
0001
0100
0001
0000
1000
0000
,
0100
0010
0100
1000
,
0001
0010
0000
0010
0100
0000
0100
0000
,
1000
0010
0100
0010
1000
0000
0001
0000
,
1001
0010
0100
0010
,
0001
1000
0100
0000
0010
0000
0100
0000
,
1000
0000
0010
0100
0000
0010
0100
0000
,
0010
0100
0000
0001
0000
1000
0001
1000
,
0010
0000
0100
0000
0010
1000
0001
0000
,
0010
0000
0001
0010
0100
1000
0001
0000
,
0100
0000
0010
0100
0000
0100
0010
0000
,
0200
0000
0000
0300
,
1001
0000
0000
0000
;

//---------------dance-single - ----------------
#NOTES:
     dance-single:
     :
     Beginner:
     2:
     0.124,0.166,0.102,0.000,0.000:
0001
0000
0000
0000
,
0000
0000
0000
0000
,
1000
0000
0000
0000
,
0000
0000
0000
0000
,
1001
0000
0000
0000
,
0010
0000
0000
0000
,
0100
0000
0000
0000
,
0010
0000
0000
0000
,
1000
0000
0000
0000
,
0000
0000
0000
0000
,
0100
0000
0000
0000
,
0000
0000
0000
0000
,
0010
0000
0000
0000
,
0001
0000
0000
0000
,
0010
0000
0000
0000
,
0100
0000
0000
0000
,
0010
0000
0000
0000
,
0100
0000
0000
0000
,
1000
0000
0000
0000
,
0001
0000
0000
0000
,
1001
0000
0001
0000
,
1000
0000
0000
0000
,
0001
0000
1000
0000
,
0001
0000
0000
0000
,
0100
0000
0010
0000
,
0100
0000
0000
0000
,
0010
0000
0100
0000
,
0010
0000
0000
0000
,
1001
0000
1000
0000
,
0001
0000
0000
0000
,
1000
0000
0001
0000
,
1000
0000
0000
0000
,
0010
0000
0000
0000
,
0100
0000
0000
0000
,
0010
0000
0000
0000
,
0100
0000
0000
0000
,
1001
0000
0001
0000
,
1000
0000
0000
0000
,
0001
0000
1000
0000
,
0001
0000
0000
0000
,
1001
0000
0000
0000
,
0100
0000
0000
0000
,
0010
0000
0000
0000
,
0001
0000
0000
0000
,
1000
0000
1000
0000
,
0001
0000
0001
0000
,
1000
0000
0000
0000
,
0010
0000
0000
0000
,
0110
0000
0000
0000
,
1001
0000
0000
0000
,
0001
0000
1000
0000
,
0001
0000
0000
0000
,
1001
0000
0000
0000
;
