#TITLE:Vermilion;
#SUBTITLE:;
#ARTIST:Remo-con;
#TITLETRANSLIT:;
#SUBTITLETRANSLIT:;
#ARTISTTRANSLIT:;
#CREDIT:DigiMindAxel;
#BANNER:Vermilion.png;
#BACKGROUND:Vermilion-bg.png;
#LYRICSPATH:;
#CDTITLE:jubeat.png;
#MUSIC:Vermilion.mp3;
#OFFSET:-7.100;
#SAMPLESTART:70.858;
#SAMPLELENGTH:12.000;
#SELECTABLE:YES;
#DISPLAYBPM:143.000;
#BPMS:0.000=143.000,180.000=286.000,183.500=143.000;
#STOPS:180.000=0.105
,180.500=0.105
,181.000=0.052
,181.250=0.052
,181.500=0.105
,182.000=0.052
,182.250=0.052
,182.500=0.105
,183.000=0.105
;
#BGCHANGES:;

//---------------dance-single - ----------------
#NOTES:
     dance-single:
     :
     Easy:
     2:
     0.198,0.241,0.031,0.146,0.000:
0001
0001
0001
0000
,
1000
1000
1000
0000
,
0001
0001
0001
0000
,
2000
0000
0000
0000
,
3010
0010
0010
0000
,
0100
0100
0100
0000
,
0001
0001
0001
0000
,
0010
0100
0010
0000
,
1001
0010
0100
0000
,
1000
0100
0010
0000
,
0001
0100
0010
0000
,
1000
0010
0100
0000
,
0001
1000
0001
0000
,
0100
0001
1000
0000
,
0100
1000
0001
1000
,
0001
1000
0010
0000
,
0210
0000
0000
0000
,
0302
0000
0000
0000
,
2003
0000
0000
0000
,
3002
0000
0000
0000
,
0023
0000
0000
0000
,
0230
0000
0000
0000
,
2300
0000
0000
0000
,
3002
0000
0000
0000
,
1003
0000
0100
0000
,
0010
0000
0001
0000
,
1000
0000
0001
0000
,
0100
0000
0001
0000
,
1000
0000
0010
0000
,
1000
0000
0001
0000
,
1000
0000
0100
0000
,
0010
0000
0001
0000
,
2000
0000
0000
0000
,
3001
0000
0000
0000
,
1001
1000
0001
0000
,
0100
0001
1000
0000
,
0100
1000
0001
0000
,
0020
0000
0000
0030
,
0100
0010
0100
0000
,
0010
0001
0010
0000
,
0100
1000
0100
0000
,
1000
0001
1000
0000
,
0010
0010
0010
0000
,
0100
0100
0100
0000
,
0001
0001
0001
0000
,
2000
0000
0000
0000
0000
0000
0000
3000
,
0100
0100
0100
0000
,
0010
0010
0010
0000
,
0001
0001
0001
0000
,
2000
0000
0000
0000
,
3002
0000
0000
0000
,
0000
0003
0000
0000
;

//---------------dance-single - ----------------
#NOTES:
     dance-single:
     :
     Medium:
     6:
     0.367,0.401,0.094,0.157,0.000: // measure 1
1000
0100
1000
0100
,  // measure 2
1000
0001
1000
0001
,  // measure 3
1000
0100
1000
0100
,  // measure 4
0020
0000
0000
0000
,  // measure 5
0031
0000
0100
0000
0001
0010
0100
0000
,  // measure 6
1000
0000
0100
0000
1000
0010
0100
0000
,  // measure 7
0001
0000
0100
0000
0001
0010
0100
0000
,  // measure 8
1000
0000
0010
0000
0100
0010
0100
0000
,  // measure 9
1001
0000
0010
0000
0100
0010
0100
0010
,  // measure 10
0001
0000
0100
0000
0010
0100
0010
0100
,  // measure 11
1000
0000
0001
0000
0100
1000
0100
0010
,  // measure 12
0001
0000
1000
0000
0010
0001
0010
0100
,  // measure 13
1000
0000
0010
0000
0100
0010
0100
0001
,  // measure 14
1000
0000
0001
0000
0100
0010
0100
0001
,  // measure 15
1000
0100
1000
0000
0100
0010
0100
0000
,  // measure 16
0010
0001
0010
0000
1001
0000
1001
0000
,  // measure 17
0200
0000
0000
0000
,  // measure 18
0302
0000
0000
0000
,  // measure 19
2003
0000
0000
0000
,  // measure 20
3200
0000
0000
0000
,  // measure 21
0320
0000
0000
0000
,  // measure 22
0032
0000
0000
0000
,  // measure 23
0203
0000
0000
0000
,  // measure 24
0320
0000
0000
0000
,  // measure 25
1030
0100
0010
0001
,  // measure 26
0010
0100
1000
0100
,  // measure 27
0010
0001
0010
0100
,  // measure 28
1000
0010
0100
0001
,  // measure 29
1000
0001
1000
0001
,  // measure 30
0010
0100
1000
0010
,  // measure 31
0100
0010
1000
0100
,  // measure 32
0010
0100
1000
0010
,  // measure 33
0100
0001
1000
0100
,  // measure 34
0020
0000
0000
0030
,  // measure 35
0110
0000
0010
0000
0100
0010
0100
0000
,  // measure 36
1001
0000
1000
0000
0001
1000
0001
0000
,  // measure 37
0110
0000
0010
0000
0100
0010
0100
0000
,  // measure 38
1001
1001
1001
0000
,  // measure 39
1000
0100
1000
0000
0001
0010
0100
1000
,  // measure 40
0001
0100
0001
0000
1000
0100
0010
0001
,  // measure 41
1000
0010
1000
0000
0001
0100
0010
1000
,  // measure 42
0001
0010
0001
0000
1000
0000
1000
0000
,  // measure 43
0001
0100
1000
0100
0001
1000
0001
0000
,  // measure 44
1000
0100
0001
0100
1000
0001
1000
0000
,  // measure 45
0001
0010
1000
0010
0001
1000
0001
0000
,  // measure 46
0100
0010
0200
0000
0000
0000
0000
0302
,  // measure 47
1003
0010
0001
0010
1000
0001
1000
0000
,  // measure 48
0001
0010
1000
0010
0001
1000
0001
0000
,  // measure 49
1000
0100
0001
0100
1000
0001
1000
0000
,  // measure 50
0200
0000
0000
0320
0000
0000
0130
0000
,  // measure 51
1000
0100
0010
0020
,  // measure 52
0000
0030
0000
0000
;

//---------------dance-single - ----------------
#NOTES:
     dance-single:
     :
     Hard:
     9:
     0.638,0.776,0.198,0.251,0.642: // measure 1
1001
0000
1100
0000
0100
0100
0100
0000
,  // measure 2
1001
0000
0101
0000
0100
0100
0100
0000
,  // measure 3
1001
0000
0110
0000
0100
0100
0100
0000
,  // measure 4
0010
0000
0000
0010
0100
0000
0000
0100
0010
0000
0000
0010
0100
0000
0000
0000
,  // measure 5
1001
0000
1100
0000
0010
0100
0010
0001
,  // measure 6
1001
0000
0011
0000
0100
0010
0100
1000
,  // measure 7
1001
0000
0110
0000
1000
0100
0010
0100
,  // measure 8
0110
0100
1100
0100
,  // measure 9
1000
0001
1000
0000
0001
0000
0000
0000
0100
0001
0100
0000
0010
0000
0010
0000
,  // measure 10
1000
0001
1000
0000
0001
0000
0000
0000
1000
0100
1000
0000
0001
0000
0001
0000
,  // measure 11
0010
0100
0010
0000
0001
0000
0000
0000
0010
0100
0010
0000
0100
0000
0100
0000
,  // measure 12
1000
0010
1000
0000
0001
0000
0000
0000
0010
0100
0010
0000
0001
0000
0001
0000
,  // measure 13
1000
0100
1000
0000
0001
0000
0001
0000
1000
0000
1000
0000
0100
0000
0010
0000
,  // measure 14
0100
1000
0100
0000
0010
0000
0010
0000
0001
0000
0001
0000
0100
0000
0010
0000
,  // measure 15
0100
0010
0100
0000
0001
0000
0001
0100
0010
0000
1000
0000
1000
0000
0100
0010
,  // measure 16
0001
0000
0100
0010
0100
0000
0001
0000
1000
0000
1000
0000
0001
0000
0001
0000
,  // measure 17
0200
0000
0000
0000
0000
0000
0300
0001
,  // measure 18
2000
0000
0000
0000
0000
0000
3000
0100
,  // measure 19
0020
0000
0000
0000
0000
0000
0030
0001
,  // measure 20
0200
0000
0000
0000
0000
0000
0300
0001
,  // measure 21
2000
0000
0000
0000
0000
0000
0000
0100
0000
0000
0000
0000
3100
0000
0000
0000
,  // measure 22
0020
0000
0000
0000
0000
0000
0000
0100
0000
0000
0000
0000
0130
0000
0000
0000
,  // measure 23
2000
0000
0000
0000
0000
0000
0000
0001
0000
0000
0000
0000
3001
0000
0000
0000
,  // measure 24
0200
0000
0000
0000
0000
0000
0000
0001
0000
0000
0000
0000
0301
0000
0000
0000
,  // measure 25
0110
0000
0000
0010
0100
0000
0000
0100
0010
0000
0000
0010
1000
0000
0000
0000
,  // measure 26
1000
0000
0000
1000
0100
0000
0000
0100
0010
0000
0000
0010
0001
0000
0000
1000
,  // measure 27
0001
0000
0000
0001
0100
0000
0000
0100
0010
0000
0000
0010
1000
0000
0000
0000
,  // measure 28
1000
0000
0000
1000
0001
0000
0000
0001
0010
0000
0000
0010
0100
0000
0000
1000
,  // measure 29
0100
0000
0000
0100
1000
0000
0000
1000
0010
0000
0000
0010
0100
0000
0000
0001
,  // measure 30
0100
0000
0000
0100
0001
0000
0000
0001
0010
0000
0000
0010
0100
0000
0000
1000
,  // measure 31
0100
0000
0000
0100
1000
0000
0000
1000
0001
0000
0000
0001
0100
0000
0000
0100
,  // measure 32
0010
0000
1000
0000
0001
0100
0000
0100
0000
0100
0000
0001
1000
0000
1000
0000
,  // measure 33
0100
0000
0010
0000
0001
0100
0000
0100
0000
0100
0000
0001
1000
0000
1000
0000
,  // measure 34
0002
0000
0000
0203
0000
0000
0320
0000
0000
2030
0000
0000
3001
0000
1000
0000
,  // measure 35
1010
0000
0000
0010
0100
0000
0000
0001
0000
1000
0000
0001
0100
0000
0100
0000
,  // measure 36
0101
0000
0000
0100
0010
0100
0000
0001
0000
1000
0000
0001
0010
0000
0010
0000
,  // measure 37
0110
0000
0000
0100
0010
0000
0000
1000
0000
0001
0000
1000
0010
0000
0010
0000
,  // measure 38
0110
0000
0000
0010
0100
0000
0000
0100
0010
0000
0000
0010
0200
0000
0000
0000
,  // measure 39
0301
0000
1000
0000
0001
1000
0000
0010
0000
0010
0000
1000
0001
0000
0010
0000
,  // measure 40
0100
0000
1000
0000
0100
0010
0000
0001
0000
0001
0000
0100
0010
0000
1000
0000
,  // measure 41
0100
0000
0010
0000
0001
1000
0000
0100
0000
0100
0000
0010
0100
0000
1000
0000
,  // measure 42
0010
0000
0100
0000
0001
1000
0000
0010
0000
0010
0000
0100
0010
0000
0000
0000
,  // measure 43
1000
0001
1000
0001
1000
0000
0001
0000
0010
0100
0010
0100
1000
0000
1000
0000
,  // measure 44
0001
1000
0001
1000
0001
0000
1000
0000
0010
0100
0010
0100
0001
0000
0001
0000
,  // measure 45
0010
0100
0010
0100
0010
0000
0001
0000
1000
0010
1000
0010
0100
0000
0001
0000
,  // measure 46
2000
0000
3200
0000
0310
0001
0020
0000
0031
1000
0002
0000
2003
0000
3020
0000
,  // measure 47
0130
0001
0100
0001
0100
0001
1000
0100
1000
0100
0010
0001
0010
0000
0001
0000
,  // measure 48
0010
0100
0010
0100
1000
0010
1000
0010
0100
0001
0100
0001
1000
0000
0100
0000
,  // measure 49
1000
0001
1000
0001
1000
0100
0010
0001
0100
0010
0100
0010
0100
0000
0001
0000
,  // measure 50
2000
0000
0000
3200
0000
0000
0320
0000
0000
0032
0000
0000
1003
0000
1000
0000
,  // measure 51
0001
0001
0100
0100
0010
0010
0100
0200
,  // measure 52
0000
0300
0000
0000
;

//---------------dance-single - ----------------
#NOTES:
     dance-single:
     :
     Beginner:
     1:
     0.072,0.128,0.052,0.000,0.000:
0001
0000
0000
0000
,
1000
0000
0000
0000
,
0001
0000
0000
0000
,
0100
0000
0000
0000
,
0100
0000
0000
0000
,
0010
0000
0000
0000
,
0100
0000
0000
0000
,
0001
0000
0000
0000
,
1001
0000
0000
0000
,
1000
0000
0000
0000
,
0001
0000
0000
0000
,
1000
0000
0000
0000
,
0010
0000
0000
0000
,
0010
0000
0000
0000
,
0010
0000
0000
0000
,
0010
0000
0000
0000
,
1001
0000
0000
0000
,
0000
0000
0000
0000
,
0000
0000
0000
0000
,
0000
0000
0000
0000
,
1000
0000
0000
0000
,
0000
0000
0000
0000
,
0000
0000
0000
0000
,
0000
0000
0000
0000
,
0001
0000
0000
0000
,
1000
0000
0000
0000
,
0001
0000
0000
0000
,
1000
0000
0000
0000
,
0001
0000
0000
0000
,
1000
0000
0000
0000
,
0001
0000
0000
0000
,
1000
0000
0000
0000
,
0010
0000
0000
0000
,
0000
0000
0000
0000
,
1001
0000
0000
0000
,
0100
0000
0000
0000
,
1001
0000
0000
0000
,
0100
0000
0000
0000
,
1001
0000
0000
0000
,
0001
0000
0000
0000
,
1000
0000
0000
0000
,
0001
0000
0000
0000
,
0010
0000
0000
0000
,
0100
0000
0000
0000
,
1000
0000
0000
0000
,
0001
0000
0000
0000
,
1000
0000
0000
0000
,
0001
0000
0000
0000
,
1000
0000
0000
0000
,
0010
0000
0000
0000
;
