#TITLE:ビバ★ロック;
#SUBTITLE:~japanese side~;
#ARTIST:ORANGE RANGE;
#TITLETRANSLIT:VIVA ROCK;
#SUBTITLETRANSLIT:;
#ARTISTTRANSLIT:;
#CREDIT:DigiMindAxel;
#BANNER:VIVA ROCK ~japanese side~.png;
#BACKGROUND:VIVA ROCK ~japanese side~-bg.png;
#LYRICSPATH:VIVA ROCK ~japanese side~.lrc;
#CDTITLE:DigiMindAxel original simfile.png;
#MUSIC:VIVA ROCK ~japanese side~.mp3;
#OFFSET:-7.140;
#SAMPLESTART:20.803;
#SAMPLELENGTH:12.000;
#SELECTABLE:YES;
#BPMS:0.000=140.000;
#STOPS:;
#BGCHANGES:-22.000=VIVA ROCK ~japanese side~.avi=1.000=0=0=1,
99999=-nosongbg-=1.000=0=0=0 // don't automatically add -songbackground-
;

//---------------dance-single - ----------------
#NOTES:
     dance-single:
     :
     Challenge:
     9:
     0.618,0.575,0.427,0.066,0.887: // measure 1
1001
0000
0001
0010
0000
0100
1000
0010
1000
0001
0010
0001
,  // measure 2
0100
0000
0100
0010
0000
0010
1000
0000
1000
0001
0000
0000
,  // measure 3
1001
0000
1000
0100
0000
0010
0001
1000
0010
1000
0001
0010
,  // measure 4
0001
0000
0001
0100
0000
0100
0010
0000
0010
1000
0000
0000
,  // measure 5
0110
0000
0010
0100
0000
0010
0100
0010
0001
1000
0100
1000
,  // measure 6
0010
0000
0010
0100
0000
0100
0001
0000
0001
1000
0000
0000
,  // measure 7
0110
0000
0010
0100
0000
0010
0100
1000
0010
0100
0001
0010
,  // measure 8
0001
0000
0000
0001
0000
0000
0000
0000
0100
0010
0000
0000
,  // measure 9
1000
0000
1000
0100
0000
0100
0010
0000
0010
0001
0000
0001
,  // measure 10
0100
0000
0100
1000
0000
1000
0001
0000
0001
0010
0000
0010
,  // measure 11
0100
0000
0100
1000
0000
1000
0100
0000
0100
0001
0000
0001
,  // measure 12
1000
0000
1000
0001
0000
0001
0010
0100
0010
0100
0000
0000
,  // measure 13
1100
0000
0000
1001
0000
0010
0100
0000
0000
0110
0000
0000
,  // measure 14
0101
0000
0000
1001
0000
0100
0010
0000
0000
0110
0000
0000
,  // measure 15
1100
0000
0000
1001
0000
0010
0100
0000
0000
0110
0000
0000
,  // measure 16
1001
0000
0001
0100
0000
0100
0010
1000
0100
0010
0000
0001
,  // measure 17
2000
0000
0000
0100
0000
0000
0001
0000
0000
3100
0000
1000
,  // measure 18
0100
0000
0100
0001
0000
0001
0100
0000
0100
1000
0000
1000
,  // measure 19
0001
0010
0001
0010
0000
0000
0100
1000
0100
1000
0000
0000
,  // measure 20
1002
0100
1000
0103
,  // measure 21
0000
0000
0000
1001
0000
0000
0010
0100
1000
0010
0100
0001
,  // measure 22
0010
1001
1000
0001
,  // measure 23
1001
0000
1000
0001
0000
0001
0010
0100
1000
0100
0010
0001
,  // measure 24
1000
0000
1000
0100
0000
0100
0001
0000
0001
1000
0000
0000
,  // measure 25
1001
0000
0001
1000
0000
1000
0100
0010
0001
0100
0010
1000
,  // measure 26
0001
0000
0001
0100
0000
0100
1000
0000
0000
1001
0000
0000
,  // measure 27
0110
0000
0010
1000
0000
0100
0010
0001
0100
0010
0100
0001
,  // measure 28
1000
0000
1000
0100
0000
0100
0001
0000
0000
1001
0000
0000
,  // measure 29
0110
0000
0100
0001
0000
0010
0100
1000
0100
0010
0001
1000
,  // measure 30
0020
0000
0000
0130
,  // measure 31
0001
0000
0001
0100
0000
0100
1000
0000
1000
0100
0000
0100
,  // measure 32
0001
0000
0001
0010
0000
0010
0100
0000
0100
1000
0000
1000
,  // measure 33
0001
0000
0001
0010
0000
0010
1000
0000
1000
0010
0000
0010
,  // measure 34
0001
0000
0001
1000
0000
1000
0010
0100
0001
1000
0000
0000
,  // measure 35
2100
0000
0000
3001
0000
0100
0010
0000
0000
0101
0000
0000
,  // measure 36
0102
0000
0000
1003
0000
0010
0100
0000
0000
0110
0000
0000
,  // measure 37
0210
0000
0000
0301
0000
1000
0100
0000
0000
1100
0000
0000
,  // measure 38
1001
0000
0001
0100
0000
0100
1000
0000
1000
0001
0000
0000
,  // measure 39
1000
0000
1000
0100
0000
0100
0001
0000
0001
0100
0000
0100
,  // measure 40
1000
0000
1000
0010
0000
0010
0100
0000
0100
0001
0000
0001
,  // measure 41
1000
0000
1000
0010
0000
0010
0001
0000
0001
0010
0000
0010
,  // measure 42
1000
0000
1000
0001
0000
0001
0010
0100
1000
0001
0000
0000
,  // measure 43
0101
0000
0000
1100
0000
0010
0100
0000
0000
1010
0000
0000
,  // measure 44
1010
0000
0000
0011
0000
0100
0010
0000
0000
1001
0000
0000
,  // measure 45
0110
0000
0000
0110
0000
0001
1000
0000
0000
1001
0000
0000
,  // measure 46
0001
0000
0001
0100
0000
0100
0010
1000
0100
0010
0000
0001
,  // measure 47
1000
0100
1000
0100
1000
0100
0001
0100
0001
0100
0001
0100
,  // measure 48
1000
0010
0100
0001
0010
0100
1000
0010
0100
0010
0000
0000
;

//---------------dance-single - ----------------
#NOTES:
     dance-single:
     :
     Hard:
     8:
     0.536,0.470,0.690,0.120,0.504: // measure 1
1001
0000
0000
0001
0000
1000
0010
0100
0010
1000
0000
1000
,  // measure 2
0001
0000
0001
0010
0000
0010
0100
0000
0100
1000
0000
0000
,  // measure 3
1001
0101
1010
1001
,  // measure 4
1000
0000
1000
0100
0000
0100
0010
0000
0010
0001
0000
0000
,  // measure 5
0101
0000
0000
0010
0000
0010
0001
0000
0001
1000
0000
0000
,  // measure 6
0100
0000
0000
0010
0000
0010
0100
0000
0100
1000
0000
0000
,  // measure 7
1100
0000
0000
1000
0000
1000
0100
0000
0100
0010
0000
0000
,  // measure 8
0011
0001
0000
1000
,  // measure 9
0001
0000
0100
0000
0000
0001
1000
0000
1000
0100
0000
0000
,  // measure 10
1000
0000
0001
0000
0000
0010
0001
0000
0001
0100
0000
0000
,  // measure 11
0010
0000
0100
0001
0000
0001
1000
0000
1000
0010
0000
0000
,  // measure 12
0100
0000
0100
0010
0000
0010
1000
0001
1000
0001
0000
0000
,  // measure 13
1001
2100
3001
1000
,  // measure 14
1001
0012
1003
0001
,  // measure 15
0110
2001
0100
0001
,  // measure 16
3100
0000
0000
0110
0000
0000
0010
0100
0010
0100
0000
0001
,  // measure 17
1000
1100
0110
0011
,  // measure 18
0110
1001
0110
1001
,  // measure 19
0110
0101
1010
0110
,  // measure 20
0011
1100
0011
1001
,  // measure 21
0001
0000
0000
0101
0000
0000
0010
1000
0010
1000
0001
0010
,  // measure 22
0001
0200
0000
0300
,  // measure 23
0110
0000
0010
0100
0000
0100
0001
0000
0001
1000
0000
0000
,  // measure 24
0010
1000
0010
0100
0000
0001
1000
0000
1000
0100
0000
0000
,  // measure 25
0101
0000
0010
0100
0000
0000
1010
0000
0100
0010
0000
0000
,  // measure 26
1000
0000
1000
0100
0000
0100
0010
0000
0000
0011
0000
0000
,  // measure 27
1001
0000
1000
0010
0000
0000
0100
0000
0001
0100
0000
0000
,  // measure 28
1100
1100
0011
0011
,  // measure 29
1001
0000
0000
0001
0010
0001
1000
0000
1000
0010
0000
0000
,  // measure 30
0200
0000
0000
0310
,  // measure 31
1000
0000
0010
0000
0000
0100
0010
0000
0010
1000
0000
0000
,  // measure 32
0100
0000
0010
0000
0000
0001
0100
0000
0100
0010
0000
0000
,  // measure 33
0100
0000
0001
1000
0000
0100
0010
0000
0001
0100
0000
0000
,  // measure 34
0010
0000
0100
0000
0000
0001
1000
0100
1000
0010
0000
0000
,  // measure 35
0110
0102
1003
1001
,  // measure 36
0110
2010
3001
1001
,  // measure 37
0110
0012
1003
1001
,  // measure 38
0110
1001
0110
1001
,  // measure 39
0001
0000
0010
0000
0000
0100
0010
0000
0010
0001
0000
0000
,  // measure 40
0010
0000
0100
0000
0000
1000
0010
0000
0010
0100
0000
0000
,  // measure 41
0010
0000
1000
0000
0000
0100
0010
0000
0010
0001
0000
0000
,  // measure 42
0100
0000
0010
0000
0000
1000
0001
0010
0001
0100
0000
0000
,  // measure 43
0110
2100
3001
1001
,  // measure 44
0110
0012
1003
1001
,  // measure 45
0110
2010
3001
1001
,  // measure 46
0001
0000
0001
0000
0000
0100
0010
1000
0100
1000
0000
0000
,  // measure 47
0001
0100
0001
1000
0000
0000
0100
0010
0100
1000
0000
0000
,  // measure 48
0100
0010
0100
0010
0001
0100
0001
1000
0100
1000
0000
0000
;

//---------------dance-single - ----------------
#NOTES:
     dance-single:
     :
     Medium:
     5:
     0.411,0.392,0.602,0.241,0.099: // measure 1
1001
1000
0001
0000
,  // measure 2
0010
0100
1000
0010
,  // measure 3
0110
0100
0100
0101
,  // measure 4
0010
0100
1000
0010
,  // measure 5
0110
1000
1000
1000
,  // measure 6
1010
0100
0110
0110
,  // measure 7
0101
0001
0001
0001
,  // measure 8
0110
0000
0000
0000
,  // measure 9
1001
0000
0000
1000
0000
0000
0001
0000
1000
0100
0000
0000
,  // measure 10
1000
0000
0000
0001
0000
0000
1000
0000
0001
0100
0000
0000
,  // measure 11
0010
0000
0000
0100
0000
0000
0010
0000
0100
0010
0000
0000
,  // measure 12
1000
0000
0000
0100
0000
0000
1000
0000
0001
1000
0000
0000
,  // measure 13
1002
0000
0103
0001
,  // measure 14
2001
0000
3100
1000
,  // measure 15
0120
0000
0130
0001
,  // measure 16
1001
1100
1100
1100
,  // measure 17
0020
0100
0100
0230
,  // measure 18
0302
0023
0230
2300
,  // measure 19
3010
0110
0000
0110
,  // measure 20
0100
0001
1000
0100
,  // measure 21
0010
0202
0000
0303
,  // measure 22
0000
2020
0000
3030
,  // measure 23
1001
0100
0001
0100
,  // measure 24
1100
0010
0110
0110
,  // measure 25
1001
0100
1000
0100
,  // measure 26
0011
0100
0110
1001
,  // measure 27
1001
0001
0011
0110
,  // measure 28
1000
1000
0110
0110
,  // measure 29
1001
0001
1000
0010
,  // measure 30
0220
0000
0000
0330
,  // measure 31
1001
0000
0000
0001
0000
0000
1000
0000
0010
0100
0000
0000
,  // measure 32
0001
0000
0000
0010
0000
0000
0100
0000
0010
0100
0000
0000
,  // measure 33
1000
0000
0000
0010
0000
0000
0100
0000
0010
0100
0000
0001
,  // measure 34
1000
0000
0000
0010
0000
0000
0110
0000
0010
0100
0000
0000
,  // measure 35
2001
0000
3100
1000
,  // measure 36
1002
0000
0013
0001
,  // measure 37
2001
0000
3100
0000
,  // measure 38
1001
0101
0101
0101
,  // measure 39
1001
0000
0000
0001
0000
0000
1000
0000
0010
0100
0000
0000
,  // measure 40
0001
0000
0000
1000
0000
0000
0100
0000
0010
0001
0000
0000
,  // measure 41
1000
0000
0000
0010
0000
0000
0100
0000
0010
0100
0000
0000
,  // measure 42
0001
0000
0000
1000
0000
0000
0110
0000
0010
0100
0000
0000
,  // measure 43
0120
0000
1030
0001
,  // measure 44
0210
0000
0301
1000
,  // measure 45
0120
0000
0230
0000
,  // measure 46
0301
1001
1001
1001
,  // measure 47
0110
0000
0010
0100
0000
0000
0110
0000
0100
0010
0000
0000
,  // measure 48
1000
0000
1000
0001
0000
0001
1000
0000
1000
0100
0000
0000
;

//---------------dance-single - ----------------
#NOTES:
     dance-single:
     :
     Easy:
     3:
     0.247,0.314,0.339,0.022,0.000:
1001
0000
1000
0000
,
0001
0000
1000
0000
,
0110
0000
0010
0000
,
0100
0000
0010
0000
,
1001
0000
0001
0000
,
1000
0000
0001
0000
,
0110
0000
0100
0000
,
0110
0000
0000
0000
,
0010
0010
0010
0000
,
0100
0100
0100
0000
,
0010
0010
0010
0000
,
1000
0001
1000
0000
,
1001
0000
1000
0000
,
1001
0000
0001
0000
,
1001
0000
1000
0000
,
0010
0100
0100
0100
,
0020
0000
0000
0130
,
0001
1000
0100
0010
,
0002
0000
1000
0000
,
1003
0100
0010
0001
,
0000
0110
0000
0000
,
0000
0110
0000
0000
,
1001
1000
0001
1000
,
0001
0000
0001
0000
,
0010
0100
0010
0100
,
0010
0000
0001
0000
,
1001
0001
1000
0001
,
1000
0000
1000
0000
,
0100
0010
0100
0010
,
0100
0000
0000
0100
,
0110
0000
0010
0000
,
0110
0000
0100
0000
,
0110
0000
0010
0000
,
1001
0000
1000
0001
,
1001
0000
0001
1000
,
1001
0000
0010
0100
,
0110
0000
0100
0010
,
0110
0100
0100
0100
,
0010
0000
0100
0010
,
0110
0000
1000
0001
,
1001
0000
0001
1000
,
1001
0000
0010
0010
,
0110
0000
0100
0000
,
0010
0000
1000
0000
,
0001
0000
1000
0000
,
1001
0010
0010
0010
,
0110
0000
1001
0000
,
1001
1001
1001
0110
;

//---------------dance-single - ----------------
#NOTES:
     dance-single:
     :
     Beginner:
     1:
     0.073,0.157,0.066,0.000,0.000:
1000
0000
0000
0000
,
0000
0000
0000
0000
,
0100
0000
0000
0000
,
0000
0000
0000
0000
,
0010
0000
0000
0000
,
0000
0000
0000
0000
,
0001
0000
0000
0000
,
1001
0000
0000
0000
,
0001
0000
0000
0000
,
1000
0000
0000
0000
,
0001
0000
0000
0000
,
0010
0000
0000
0000
,
0100
0000
0000
0000
,
0100
0000
0000
0000
,
0100
0000
0000
0000
,
0000
0000
0000
0000
,
0010
0000
0000
0000
,
0000
0000
0000
0000
,
0100
0000
0000
0000
,
1000
0000
0000
0000
,
0001
0000
0000
0000
,
1001
0000
0000
0000
,
0001
0000
0000
0000
,
0000
0000
0000
0000
,
0010
0000
0000
0000
,
0000
0000
0000
0000
,
0100
0000
0000
0000
,
0000
0000
0000
0000
,
1000
0000
0000
0000
,
1001
0000
0000
0000
,
0001
0000
0000
0000
,
1000
0000
0000
0000
,
0001
0000
0000
0000
,
1000
0000
0000
0000
,
0010
0000
0000
0000
,
0010
0000
0000
0000
,
0010
0000
0000
0000
,
0000
0000
0000
0000
,
1000
0000
0000
0000
,
0001
0000
0000
0000
,
1000
0000
0000
0000
,
0001
0000
0000
0000
,
0100
0000
0000
0000
,
0100
0000
0000
0000
,
0100
0000
0000
0000
,
0110
0000
0000
0000
,
1001
0000
1000
0000
,
1000
0000
0000
1001
;
