#TITLE:UNLIMITED FIRE;
#SUBTITLE:;
#ARTIST:TAG;
#TITLETRANSLIT:;
#SUBTITLETRANSLIT:;
#ARTISTTRANSLIT:;
#CREDIT:DigiMindAxel;
#BANNER:UNLIMITED FIRE.png;
#BACKGROUND:UNLIMITED FIRE-bg.png;
#LYRICSPATH:;
#CDTITLE:REFLEC BEAT.png;
#MUSIC:UNLIMITED FIRE.mp3;
#OFFSET:-6.680;
#SAMPLESTART:14.120;
#SAMPLELENGTH:12.000;
#SELECTABLE:YES;
#BPMS:0.000=160.000;
#STOPS:;
#BGCHANGES:;

//---------------dance-single - ----------------
#NOTES:
     dance-single:
     :
     Easy:
     3:
     0.282,0.289,0.114,0.103,0.000:
0001
1001
0000
1000
,
0010
0110
0000
0001
,
1000
1001
0000
0010
,
0110
0000
1000
1000
,
1001
0000
0000
0000
,
0001
0100
0001
1000
,
0100
0010
0001
0000
,
1000
0100
1000
0001
,
0010
0100
1000
0000
,
0010
0100
0010
1000
,
0100
0010
0001
0000
,
0100
0010
0100
0001
,
0010
0100
1000
0000
,
0001
1000
0001
0010
,
0100
1000
0010
0000
,
1000
0001
1000
0100
,
0010
0001
0100
0000
,
0010
0100
0010
1000
,
0001
0010
0100
1000
,
0010
0100
0010
1000
,
0001
0010
0100
1000
,
0002
0000
0000
0000
,
2003
0000
0000
0000
,
3002
0000
0000
0000
,
2003
0000
3002
0000
,
2003
0000
0000
0000
,
3020
0000
0000
0000
,
0230
0000
0000
0000
,
0310
0100
0010
0000
,
1001
1000
0001
1000
,
0001
1000
0001
0000
,
0100
0001
0100
0001
,
0100
0001
0100
0000
,
0010
1000
0010
1000
,
0001
1000
0001
1000
,
0001
0100
0010
1000
,
0100
0000
0000
0000
,
1001
0000
0000
0000
,
1000
0100
1000
0001
,
0010
0100
1000
0000
,
0001
0010
0001
1000
,
0100
0010
0001
0000
,
1000
0010
1000
0001
,
0100
0010
1000
0000
,
0001
0100
0001
1000
,
0010
0100
0001
0000
,
1001
0010
0100
1000
,
0010
0100
0010
0000
,
1000
0100
0010
0001
,
0100
0010
0100
0000
,
0001
0100
0001
1000
,
0010
1000
0001
0100
,
0001
0010
0100
1000
,
0010
0100
0001
0000
,
1001
0000
0000
1001
0000
0000
2002
0000
,
0000
0000
0000
0000
,
3003
0000
0000
0000
;

//---------------dance-single - ----------------
#NOTES:
     dance-single:
     :
     Medium:
     6:
     0.424,0.434,0.207,0.062,0.000:
1000
1100
0000
0010
,
0100
0101
0000
0010
,
0001
0110
0000
1000
,
0001
1000
0000
0000
0200
0000
0000
0300
,
0220
0000
0000
0330
,
0010
0100
0010
0000
1000
0000
0001
0000
,
0100
0001
0100
0000
0001
0000
0010
0000
,
0100
1000
0100
0000
1000
0000
0010
0000
,
0100
0001
0100
0000
0001
1000
0001
1000
,
0010
0100
0010
0000
0100
0000
0001
0000
,
0010
0000
0100
0000
1000
0001
1000
0000
,
0010
0100
0010
1000
0000
0001
0000
1000
,
0000
0100
0000
0010
0000
0001
0000
0000
,
1000
0001
1000
0001
1000
0000
0010
0000
,
0100
0001
0100
0000
0001
1000
0001
0000
,
0010
0100
0010
0100
0010
0000
0001
0000
,
0100
0001
0100
0000
0010
0100
0010
0100
,
0001
1000
0001
0000
0100
0000
0001
0000
,
1000
0100
1000
0000
0010
0000
0100
0000
,
0001
0100
0001
1000
0000
0001
0000
0010
,
0000
0100
0000
1000
0000
0110
0000
0000
,
0010
0100
0010
0000
0010
0000
0010
0000
,
0100
0010
0100
0000
0100
0000
0100
0000
,
0001
1000
0001
0000
0001
0000
0001
0000
,
1000
0001
1000
0010
0000
0010
0000
0000
,
0100
0010
0100
0000
0100
0000
0100
0000
,
0010
0100
0010
0000
0010
0000
0010
0000
,
1000
0001
1000
0000
1000
0000
1000
0000
,
1001
1001
1001
1001
,
0010
0100
0001
0000
0001
0000
0001
0000
,
0100
0010
1000
0000
1000
0000
1000
0000
,
0100
0010
0001
0000
0001
0000
0001
0000
,
0010
0100
1000
0000
1000
0000
1000
0000
,
0110
0001
0110
1000
,
0110
0001
1000
1001
,
1001
1001
1001
1001
,
0200
0000
0000
0300
,
1001
0000
0000
0000
,
0001
0100
0001
0000
1000
0000
0100
0000
,
0010
0100
0010
0000
0100
1000
0100
0000
,
0010
0100
0010
0001
,
0100
0001
0100
0000
0010
0100
0010
0100
,
0001
1000
0001
0000
1000
0000
0010
0000
,
1000
0001
1000
0000
0001
0100
0001
0000
,
0100
0010
0100
0001
0000
1000
0000
0001
,
0000
0010
0000
0100
0000
1000
0000
0000
,
0001
0100
0001
0000
1000
0100
1000
0000
,
0010
0000
0100
0000
0001
1000
0001
1000
,
0010
0100
0010
0000
1000
0000
0001
0000
,
0010
0001
0010
0000
0100
1000
0100
1000
,
0001
1000
0001
0000
0010
0000
0100
0000
,
0010
0001
0010
0001
0100
0000
0010
0000
,
0100
1000
0100
1000
0000
0010
0000
0100
,
0000
0001
0000
0010
0000
0100
0000
0000
,
1001
0000
0000
1001
0000
0000
2000
0002
,
0000
0000
0000
0000
,
3003
0000
0000
0000
;

//---------------dance-single - ----------------
#NOTES:
     dance-single:
     :
     Hard:
     8:
     0.545,0.550,0.269,0.114,0.248: // measure 1
0001
0000
1000
0000
0000
0010
0000
0000
0100
0000
0000
0010
0000
0000
1000
0000
,  // measure 2
0000
0100
0000
0000
0010
0000
0000
0001
0000
0000
1000
0000
0001
0000
0100
0001
,  // measure 3
0000
0000
1000
0000
0000
0100
0000
0000
0010
0000
0000
0001
0000
0000
0100
0000
,  // measure 4
0001
0000
1001
0000
0000
0000
0000
0000
1001
0000
0000
1001
0000
0000
0020
0000
,  // measure 5
0200
0000
0000
0330
,  // measure 6
1000
0100
1000
0001
0000
0100
0000
0002
,  // measure 7
0000
1000
1003
0000
0001
0100
1000
0100
,  // measure 8
0001
0010
0100
1000
0000
0100
0000
0020
,  // measure 9
0000
0100
0130
0000
1000
0000
0001
0000
,  // measure 10
1000
0010
1000
0001
0000
0010
0000
0002
,  // measure 11
0000
1000
1003
0000
0001
0100
1000
0100
,  // measure 12
0001
0010
0001
1000
0000
0100
0000
0001
,  // measure 13
0000
0100
0000
1000
0000
1001
0000
0000
,  // measure 14
0001
1000
0100
0010
0000
0100
0000
1000
,  // measure 15
0001
0100
0001
0000
1000
0010
0001
0010
,  // measure 16
1000
0001
0010
0100
0000
0010
0000
0001
,  // measure 17
0000
0100
0010
0000
1000
0000
0001
0000
,  // measure 18
1000
0100
0001
0100
0000
1000
0000
0001
,  // measure 19
0100
1000
0100
0001
0000
1000
0000
0001
,  // measure 20
1000
0010
0001
0010
0000
1000
0000
0110
,  // measure 21
0000
0001
0000
0110
0000
1001
0000
0000
,  // measure 22
0101
0000
0000
0100
0000
0000
0010
0000
0000
1000
0000
0000
0100
0000
0010
0000
,  // measure 23
0001
0000
0000
0100
0000
0000
0010
0000
0000
1000
0000
0000
0001
0000
0010
0000
,  // measure 24
0100
0000
0000
0010
0000
0000
0001
0000
0000
1000
0000
0000
0010
0000
0100
0000
,  // measure 25
0001
0010
1000
0010
0000
0001
0100
0001
,  // measure 26
1001
0000
0000
1000
0000
0000
0100
0000
0000
0001
0000
0000
0100
0000
1000
0000
,  // measure 27
0010
0000
0000
0100
0000
0000
0001
0000
0000
0100
0000
0000
0010
0000
1000
0000
,  // measure 28
0001
0000
0000
0010
0000
0000
1000
0000
0000
0010
0000
0000
0001
0000
1000
0000
,  // measure 29
0010
0000
0100
0000
0010
0000
0100
0000
0001
0000
1000
0000
0001
1000
0001
1000
,  // measure 30
0001
0000
0100
0001
0000
0010
0000
0100
0000
0010
0000
0001
0100
0000
0000
0000
,  // measure 31
0001
0000
1000
0010
0000
0100
0000
0010
0000
1000
0000
0010
0100
0000
0000
0000
,  // measure 32
1001
0000
0001
1000
0000
0001
0000
0010
0000
0100
0000
0010
0001
0000
0000
0000
,  // measure 33
1000
0000
0001
0100
0000
0010
0000
0001
0000
0010
0000
0100
0001
0000
0000
0000
,  // measure 34
0110
0000
0010
0100
0101
0000
0100
0010
,  // measure 35
1010
0000
1000
0010
0110
0000
0001
0100
,  // measure 36
0110
1001
0110
1001
,  // measure 37
1100
0000
0000
0011
0000
0000
0110
0000
0000
0110
0000
0000
0100
0000
0010
0000
,  // measure 38
2002
0000
0000
3003
,  // measure 39
0001
0100
1000
0001
0000
0010
0000
1000
,  // measure 40
0001
0010
0100
0000
1000
0010
0001
0010
,  // measure 41
1000
0100
0001
1000
0000
0010
0000
0001
,  // measure 42
1000
0010
0100
0000
0001
0010
0100
0010
,  // measure 43
0001
0100
1000
0001
0000
0010
0000
1000
,  // measure 44
0001
0010
0100
0000
1000
0100
0001
0100
,  // measure 45
1000
0010
0100
0001
0000
0010
0000
2000
,  // measure 46
0000
0000
3020
0000
0000
0000
0031
0000
1000
0001
1000
0001
1000
0000
0000
0000
,  // measure 47
0001
0100
1000
0100
0000
0010
0000
1000
,  // measure 48
0001
0010
0100
0000
0010
0100
1000
0001
,  // measure 49
1000
0100
0001
0100
0000
0010
0000
0001
,  // measure 50
1000
0010
0100
0000
0010
1000
0010
0100
,  // measure 51
0001
0010
1000
0010
0000
0100
1000
0001
,  // measure 52
1000
0100
0001
0100
0000
1000
0001
1000
,  // measure 53
0100
0001
0100
1000
0000
0001
0100
1000
,  // measure 54
0100
0000
0001
0000
0100
0000
0010
0000
1000
0001
1000
0001
1000
0000
0000
0000
,  // measure 55
1100
0000
0000
0011
0000
0000
1001
0002
,  // measure 56
0000
0200
0000
0000
,  // measure 57
0303
0000
0000
0000
;

//---------------dance-single - ----------------
#NOTES:
     dance-single:
     :
     Beginner:
     1:
     0.096,0.113,0.093,0.000,0.000:
1001
0000
0000
0000
,
1000
0000
0000
0000
,
0001
0000
0000
0000
,
1001
0000
0000
0000
,
0010
0000
0000
0000
,
0010
0000
0000
0000
,
0100
0000
0000
0000
,
0010
0000
0000
0000
,
0100
0000
0000
0000
,
0001
0000
0000
0000
,
1000
0000
0000
0000
,
0001
0000
0000
0000
,
1000
0000
0000
0000
,
1001
0000
0000
0000
,
1000
0000
0000
0000
,
0001
0000
0000
0000
,
1000
0000
0000
0000
,
0010
0000
0000
0000
,
0100
0000
0000
0000
,
0010
0000
0000
0000
,
0010
0000
0000
0000
,
1001
0000
0000
0000
,
0001
0000
0000
0000
,
1000
0000
0000
0000
,
0001
0000
0000
0000
,
0100
0000
0000
0000
,
0010
0000
0000
0000
,
0100
0000
0000
0000
,
0100
0000
0000
0000
,
1001
0000
0000
0000
,
0000
0000
0000
0000
,
1001
0000
0000
0000
,
0000
0000
0000
0000
,
0001
0000
1000
0000
,
0001
0000
0000
0000
,
1000
0000
0001
0000
,
1000
0000
0000
0000
,
1001
0000
0000
0000
,
0010
0000
0000
0000
,
0100
0000
0000
0000
,
0010
0000
0000
0000
,
0010
0000
0000
0000
,
0100
0000
0000
0000
,
0010
0000
0000
0000
,
0100
0000
0000
0000
,
0100
0000
0000
0000
,
0001
0000
0000
0000
,
1000
0000
0000
0000
,
0001
0000
0000
0000
,
0001
0000
0000
0000
,
1000
0000
0000
0000
,
0001
0000
0000
0000
,
1000
0000
0000
0000
,
1000
0000
0000
0000
,
1001
0000
0000
1001
;
