#TITLE:梅雪夜;
#SUBTITLE:;
#ARTIST:Qrispy Joybox feat. mao;
#TITLETRANSLIT:UMEYUKIYO;
#SUBTITLETRANSLIT:;
#ARTISTTRANSLIT:;
#CREDIT:DigiMindAxel;
#BANNER:UMEYUKIYO.png;
#BACKGROUND:UMEYUKIYO-bg.png;
#LYRICSPATH:UMEYUKIYO.lrc;
#CDTITLE:REFLEC BEAT.png;
#MUSIC:UMEYUKIYO.mp3;
#OFFSET:-6.570;
#SAMPLESTART:46.048;
#SAMPLELENGTH:12.000;
#SELECTABLE:YES;
#BPMS:0.000=167.000,240.000=83.500;
#STOPS:;
#BGCHANGES:;

//---------------dance-single - ----------------
#NOTES:
     dance-single:
     :
     Easy:
     3:
     0.237,0.263,0.055,0.119,0.000:
1001
0000
0000
0000
,
0000
0000
0000
0000
,
0110
0000
0010
0000
,
0100
0000
0010
0000
,
2000
0000
0000
0000
,
3001
0100
0001
0000
,
2000
0000
0000
0000
,
3100
0010
0100
0000
,
2000
0000
0000
0000
,
3100
1000
0100
0000
,
0010
0001
0010
0001
,
0010
0001
1000
0000
,
0002
0000
0000
0000
,
1003
0001
1000
0000
,
0002
0000
0000
0000
,
0103
0001
0100
0000
,
0002
0000
0000
0000
,
0013
0001
0010
0000
,
0100
1000
0100
1000
,
0001
1000
0001
0000
,
0200
0000
0000
0000
,
0000
0000
0300
0000
,
0020
0000
0000
0000
,
0000
0000
0030
0000
,
2000
0000
0000
0000
,
0000
0000
3000
0000
,
0001
0000
1000
0000
,
0001
0000
0110
0000
,
0100
0100
0100
0010
,
0100
0000
0010
0010
,
0100
0010
0100
0001
,
1000
0000
0001
0001
,
0001
1000
0001
1000
,
0100
0000
1000
1000
,
1000
0001
0100
0010
,
1000
0000
0000
0000
,
0100
0010
0100
0010
,
0100
1000
0001
1000
,
0001
0100
0001
0100
,
0010
0100
0010
0100
,
0001
1000
0001
1000
,
0010
0100
0010
0100
,
0001
0010
0100
1000
,
0001
0000
0000
0000
,
1001
0000
0100
1000
,
0010
0000
1000
0100
,
1000
0001
1000
0100
,
1000
0000
0010
0100
,
0001
0000
0010
0100
,
1000
0000
0010
0100
,
0001
1000
0100
0010
,
0001
1000
0001
0000
,
0010
0010
0010
0001
,
1000
0100
0010
0001
,
1000
1000
1000
0100
,
1000
0010
0100
0001
,
1000
1000
1000
1000
,
0100
0010
0001
0010
,
0100
0100
0010
0010
,
1002
0000
0000
0000
,
2003
0000
0000
0000
,
3000
0000
0000
0000
,
2002
0000
0000
0000
,
0000
0000
0000
0000
0000
0000
0000
0000
0000
0000
0000
0000
0000
0000
0000
3003
;

//---------------dance-single - ----------------
#NOTES:
     dance-single:
     :
     Medium:
     6:
     0.364,0.468,0.238,0.119,0.000:
1001
0000
0010
0000
,
0200
0000
0000
0000
,
0310
0100
0001
0010
,
0100
1000
0001
0000
,
0100
0100
0100
0100
,
0100
0010
0100
0000
,
0010
0010
0010
0010
,
0010
0100
0010
0000
,
1000
1000
1000
1000
,
1000
0001
1000
0000
,
0001
0001
0001
0001
,
0001
1000
0001
0000
,
0010
0010
0010
0010
,
0010
0001
0010
0000
,
0100
0100
0100
0100
,
0100
1000
0100
0000
,
1000
1000
1000
1000
,
1000
0001
1000
0000
,
0001
0001
0001
0001
,
1001
1000
0001
0000
,
0020
0000
0000
0000
,
0000
0000
0030
0000
,
0200
0000
0000
0000
,
0000
0000
0300
0000
,
2000
0000
0000
0000
,
0000
0000
3000
0000
,
0001
0010
1000
0010
,
0001
0100
0110
0000
,
0110
0000
0100
0000
0001
0010
0100
1000
,
0010
0000
0100
0001
,
1000
0100
1000
0000
0010
1000
0010
0000
,
1000
0001
0010
0100
,
0110
0000
0001
0000
0010
0001
0100
0000
,
0110
0000
0100
0000
0010
1000
0100
0000
,
1000
0001
1000
0100
1000
0000
0010
0000
,
0101
0101
1001
0000
,
0001
1000
0000
0100
0000
0010
0000
0001
,
0100
0010
0100
0001
0000
1000
1000
0000
,
0010
1000
0000
0100
0000
0010
0000
0001
,
1000
0100
1000
0001
0000
0100
0100
0100
,
0001
1000
0000
0010
0000
0100
0000
0001
,
0010
0100
0010
0001
0000
0100
0100
0100
,
0020
1030
0002
0103
,
2002
0000
3003
0000
,
0110
0000
1000
0000
0001
0010
0100
1000
,
0001
0000
0010
0000
0001
0010
0001
0000
,
1000
0001
1000
0000
0100
1000
0010
0000
,
0100
0001
0010
0100
,
1001
0000
0000
0000
0100
1000
0100
0000
,
1001
0000
0000
0000
0010
0001
0010
0000
,
1001
0110
1001
0110
,
1001
0110
1001
0000
,
0100
0001
0100
0001
0100
0001
0100
0000
,
0001
1000
0001
1000
0001
1000
0001
0000
,
1000
0100
1000
0100
1000
0100
1000
0000
,
1001
1001
0110
0110
,
0100
1000
0100
1000
0100
1000
0100
0000
,
1000
0001
1000
0001
1000
0001
1000
0000
,
0001
0100
0001
0100
0001
0100
0001
0000
,
2002
0000
0000
3003
,
0200
0000
0000
0000
,
0000
0000
0000
0000
0000
0000
0000
0300
,
2002
0000
0000
0000
,
0000
0000
0000
0000
0000
0000
0000
0000
0000
0000
0000
0000
0000
0000
0000
3003
;

//---------------dance-single - ----------------
#NOTES:
     dance-single:
     :
     Hard:
     8:
     0.549,0.556,0.421,0.119,0.133: // measure 1
0100
0100
0000
0000
0002
0000
0003
1000
,  // measure 2
1000
0100
0010
0001
0010
0100
1000
0000
,  // measure 3
0110
0110
1001
1001
,  // measure 4
0101
1010
1001
0000
,  // measure 5
0200
1000
0010
1000
,  // measure 6
0310
1000
0100
0010
0001
0000
0000
0000
,  // measure 7
0020
0100
0001
0100
,  // measure 8
0031
0010
0100
1000
0001
0000
0000
0000
,  // measure 9
0200
0010
1000
0010
,  // measure 10
1300
0001
0100
0010
1000
0000
0000
0000
,  // measure 11
1100
0100
0101
0100
,  // measure 12
0110
1001
1001
0000
,  // measure 13
0200
0010
0001
0010
,  // measure 14
0301
1000
0010
0100
0001
0000
0000
0000
,  // measure 15
0020
0100
1000
0100
,  // measure 16
1030
0001
0100
0010
1000
0000
1000
0000
,  // measure 17
0110
0000
0000
0001
0010
0000
0000
0000
0110
0000
0000
1000
0010
0000
0000
0000
,  // measure 18
1010
0000
0000
0100
0010
0000
0000
0000
0101
0000
0000
0010
0100
0000
0000
0000
,  // measure 19
0011
1100
0011
1100
,  // measure 20
1001
0100
0110
0000
,  // measure 21
0000
0001
1000
0000
0100
0000
0010
0000
,  // measure 22
0001
0000
0100
0000
1000
0001
1000
0000
,  // measure 23
0000
0001
1000
0000
0001
0000
0010
0000
,  // measure 24
0100
1000
0001
0000
,  // measure 25
1000
0001
0100
0000
1000
0000
0100
0000
,  // measure 26
0001
0000
1000
0000
0001
1000
0001
0000
,  // measure 27
0101
0000
0010
0100
0000
0000
1010
0000
0100
0010
0000
0000
,  // measure 28
1001
0000
0100
0010
0000
1000
0001
0000
0000
0000
0000
0000
,  // measure 29
0110
0000
0100
0001
0010
0001
1000
0010
,  // measure 30
0100
0000
0010
0000
1000
0100
0001
0000
,  // measure 31
0100
1000
0001
0000
0010
0100
1000
0010
,  // measure 32
0200
0000
0010
0000
0310
1000
0100
0010
,  // measure 33
0002
0000
1000
0000
0103
0001
0010
0100
,  // measure 34
2000
0000
0001
0000
3100
1000
0001
0000
,  // measure 35
0100
0100
0100
0000
1001
0000
0110
0000
,  // measure 36
1100
0011
1001
1001
,  // measure 37
0001
0001
1000
0100
0010
0100
1000
0001
,  // measure 38
0100
0100
0001
0010
0100
1000
1000
1000
,  // measure 39
0001
0001
1000
0010
0100
0010
1000
0100
,  // measure 40
0001
0001
0100
1000
0010
0100
0100
0100
,  // measure 41
0001
1000
0001
0010
0100
0010
0001
1000
,  // measure 42
0010
0010
1000
0100
0010
0100
0100
0100
,  // measure 43
1000
0000
0100
0010
0000
0000
0001
0000
0100
0010
0000
0000
,  // measure 44
1002
0000
1000
1003
,  // measure 45
1100
0000
0010
0100
1000
0100
0010
1000
,  // measure 46
0001
0001
0100
0010
0100
0000
0001
0000
,  // measure 47
0010
0100
1000
0100
0010
1000
1000
0001
,  // measure 48
0100
0000
0001
1000
0000
0100
0010
0000
0001
0100
0000
0000
,  // measure 49
0101
0000
0010
0010
1000
0100
0010
0001
,  // measure 50
1000
0001
0100
0100
0001
0010
0100
1000
,  // measure 51
1001
1100
1001
0011
,  // measure 52
1000
0110
0001
0110
,  // measure 53
1000
0001
1000
0000
0100
0000
0001
0000
0100
0000
1000
0000
0010
0000
0100
0000
,  // measure 54
0001
1000
0001
0000
0100
0000
1000
0000
0100
0000
0001
0000
0010
0000
0100
0000
,  // measure 55
1000
0001
1000
0000
0010
0000
0100
0000
0001
1000
0001
0000
1000
0000
0000
0000
,  // measure 56
1100
1100
0011
0011
,  // measure 57
0001
1000
0001
0000
0010
0100
0000
0000
1000
0010
0000
0000
0100
0010
0000
0000
,  // measure 58
1000
0001
1000
0000
0100
0010
0000
0000
0001
0100
0000
0000
0010
1000
0000
0000
,  // measure 59
0001
0000
0000
0001
0100
0000
0000
0100
0010
0000
0000
0010
1000
0000
0000
1000
,  // measure 60
0002
0000
0000
0003
,  // measure 61
0200
0000
0010
0010
,  // measure 62
0010
0000
0010
0000
0010
0000
0010
0300
,  // measure 63
1002
0010
0100
0010
0100
0010
0100
0010
,  // measure 64
0100
0000
0010
0000
0100
0000
0010
0000
0100
0000
0010
0000
0100
0000
0010
0003
;

//---------------dance-single - ----------------
#NOTES:
     dance-single:
     :
     Challenge:
     9:
     0.714,0.937,0.421,0.027,0.394:
1001
0000
1001
0000
0000
0000
0000
0000
0200
0000
0000
0000
0300
0000
0001
1000
,
0001
0010
0100
1000
1000
0001
0001
0000
,
0011
0011
0110
0110
,
1001
0110
1001
0000
,
0100
1000
0100
1000
0100
1000
0100
1000
,
0001
0010
0100
1000
0010
0000
0000
0000
,
0100
0001
0100
0001
0100
0001
0100
0001
,
1000
0100
0010
0001
0010
0000
0000
0000
,
0100
1000
0100
1000
0100
1000
0100
1000
,
0010
0100
0001
0010
0100
0000
1000
0000
,
1100
1100
0110
0110
,
1001
0110
1001
0000
,
0010
0100
0010
1000
0100
1000
0100
1000
,
0001
0010
0100
1000
0010
0000
0010
0000
,
0100
0001
0010
0001
0100
0001
0010
0100
,
1000
0100
0010
0001
0100
0000
0100
0000
,
0001
1000
0001
0001
0100
0001
1000
1000
,
0100
0010
0001
0010
0100
0000
0100
0000
,
1001
0110
1001
1010
,
0101
0100
1001
0000
,
0000
0001
1000
0010
1000
0001
1000
0010
,
1000
0001
1000
0010
1000
0001
0001
0000
,
0000
0010
0100
1000
0100
0010
0100
1000
,
0100
0010
0100
1000
0001
0000
0000
0000
,
1000
0001
0100
0010
0100
0001
0100
0010
,
0100
0001
0100
0010
0100
0001
0001
0000
,
1000
0100
1000
0100
0010
0001
0010
0001
1000
0010
1000
0010
,
0100
0001
0100
0001
0010
0100
1000
0000
0000
0000
0000
0000
,
1010
0100
0010
0001
1000
1000
0010
0010
,
0100
0001
0010
0100
1000
0010
0100
0000
,
0101
1100
0110
1001
,
1000
0100
0010
0001
0100
0000
0100
0000
,
0101
0010
0100
1000
0001
0100
0010
0100
,
0001
0101
0101
1001
,
0110
0100
0100
0000
1001
0001
0001
0000
,
0110
1001
0110
1001
,
1000
1000
0100
0100
1000
1000
0100
0100
,
1000
0001
0100
0000
0001
0000
1000
0000
0100
0000
0010
0000
0010
0000
0010
0000
,
0001
0000
0100
0001
0100
0000
0100
0000
0001
0000
0001
0000
0100
0000
0100
0000
,
0001
1000
0100
0000
1000
0000
0001
0000
0100
0000
0010
0000
0010
0000
0010
0000
,
1000
0000
0001
1000
0001
0000
0001
0000
1000
0000
1000
0000
0001
0000
0001
0000
,
0010
0001
0100
0000
0010
0000
1000
0000
0100
0000
0010
0000
0010
0000
0010
0000
,
0001
0100
0010
1000
0001
0100
0010
1000
0100
0010
0001
0100
,
0020
0000
0100
0130
,
0101
0010
0100
1000
0010
1000
0010
0100
,
0001
0000
0100
0001
1000
0000
1000
0000
0100
0000
0100
0000
0010
0000
0001
0000
,
1000
0000
0100
1000
0001
0000
0010
0000
0100
0000
0010
0001
1000
0000
0010
0000
,
0100
0001
0010
0100
1000
0100
0010
0001
1000
0010
0100
0001
,
1000
0000
0100
1000
0001
0000
0001
0000
0100
0000
0100
0000
0001
0000
0001
0000
,
1000
0000
0100
1000
0010
0000
0010
0000
0100
0000
0100
0000
0001
0000
1000
0000
,
0110
0000
0100
0001
0100
0000
0000
0000
0110
0000
0010
1000
0010
0000
0000
0000
,
1000
0000
1000
0000
0110
0000
0001
0000
0001
0000
1000
0010
0100
0000
0010
0000
,
1000
0001
1000
0000
0100
1000
0100
0000
1000
0001
1000
0000
0010
0100
0010
0000
,
1000
0000
0001
0010
0100
0000
0100
0000
0010
0000
0001
0000
0001
0000
0001
0000
,
1000
0001
1000
0000
0010
1000
0010
0000
1000
0001
1000
0000
0001
0100
0001
0000
,
0110
0000
1001
0000
0110
0100
0101
0100
,
0001
1000
0001
0000
0100
0001
0100
0000
0010
0100
0010
0000
1000
0010
1000
0000
,
0001
1000
0001
0000
0010
0001
0010
0000
0100
0010
0100
0000
1000
0100
1000
0000
,
0001
0000
0100
0001
1000
0000
0100
1000
0010
0000
0100
0010
0100
0000
0001
1000
,
0001
0010
0001
0010
0100
1000
0100
1000
0010
0100
0001
0010
,
0200
0000
1000
1000
0010
0010
1000
1000
,
0010
0010
1000
1000
0010
0010
1000
1300
,
1001
0000
0001
1000
0001
1000
0001
1000
0100
1000
0100
1000
0100
1000
0100
1000
,
0001
1000
0001
1000
0001
1000
0001
1000
0001
0100
0001
0100
0001
0100
0001
1000
;

//---------------dance-single - ----------------
#NOTES:
     dance-single:
     :
     Beginner:
     2:
     0.092,0.142,0.092,0.000,0.000:
1001
0000
0000
0000
,
0000
0000
0000
0000
,
0100
0000
0100
0000
,
0100
0000
0000
0000
,
1001
0000
0000
0000
,
0000
0000
0000
0000
,
0001
0000
0000
0000
,
0000
0000
0000
0000
,
0001
0000
0000
0000
,
0000
0000
0000
0000
,
1000
0000
0000
0000
,
0000
0000
0000
0000
,
1001
0000
0000
0000
,
0000
0000
0000
0000
,
1000
0000
0000
0000
,
0000
0000
0000
0000
,
1000
0000
0000
0000
,
0000
0000
0000
0000
,
0001
0000
0000
0000
,
0100
0000
0000
0000
,
0000
0000
0000
0000
,
0000
0000
0000
0000
,
0000
0000
0000
0000
,
0000
0000
0000
0000
,
1001
0000
0000
0000
,
0000
0000
0000
0000
,
0001
0000
1000
0000
,
0001
0000
0000
0000
,
0100
0000
0100
0000
,
0100
0000
0000
0000
,
0010
0000
0010
0000
,
0010
0000
0000
0000
,
1000
0000
1000
0000
,
1000
0000
0000
0000
,
0001
0000
1000
0000
,
0001
0000
0000
0000
,
1001
0000
0000
0000
,
1000
0000
0000
0000
,
0001
0000
0000
0000
,
1000
0000
0000
0000
,
1001
0000
0000
0000
,
0001
0000
0000
0000
,
1000
0000
0000
0000
,
0001
0000
0000
0000
,
0110
0000
0100
0000
,
0010
0000
0000
0000
,
0100
0000
0000
0000
,
0010
0000
0000
0000
,
0110
0000
0000
0000
,
0010
0000
0000
0000
,
0100
0000
0001
0000
,
0100
0000
0000
0000
,
0001
0000
1000
0000
,
0001
0000
1000
0000
,
0001
0000
0000
0000
,
0000
0000
0000
0000
,
1000
0000
0001
0000
,
1000
0000
0001
0000
,
1000
0000
0000
0000
,
1001
0000
0000
0000
,
0001
0000
0000
0000
,
0000
0000
0000
0000
,
1001
0000
0000
0000
;
