#TITLE:U&M;
#SUBTITLE:;
#ARTIST:emon;
#TITLETRANSLIT:;
#SUBTITLETRANSLIT:;
#ARTISTTRANSLIT:;
#CREDIT:DigiMindAxel;
#BANNER:U&M.png;
#BACKGROUND:U&M-bg.png;
#LYRICSPATH:U&M.lrc;
#CDTITLE:SOUND VOLTEX.png;
#MUSIC:U&M.mp3;
#OFFSET:-13.185;
#SAMPLESTART:60.055;
#SAMPLELENGTH:12.000;
#SELECTABLE:YES;
#BPMS:0.000=128.000;
#STOPS:;
#BGCHANGES:;

//---------------dance-single - ----------------
#NOTES:
     dance-single:
     :
     Easy:
     2:
     0.192,0.182,0.131,0.112,0.000:
1001
1000
0001
0000
,
0010
0100
0010
0000
,
0001
0100
0001
0000
,
1000
0100
2000
0000
,
3010
0100
0010
0000
,
1000
0001
1000
0000
,
0100
0010
0100
0000
,
0020
0000
0000
0030
,
0002
0000
0003
0000
,
0020
0000
0030
0000
,
0200
0000
0300
0000
,
0020
0000
0030
0000
,
0002
0000
0000
0000
,
2003
0000
3000
0000
,
0020
0000
0030
0000
,
0200
0000
0300
0000
,
0010
1000
0010
0000
,
0100
0001
0100
0000
,
0010
0100
0010
0000
,
0100
0010
0100
0000
,
0001
1000
0001
0000
,
1000
0001
1000
0000
,
0100
1000
0100
0010
,
0001
0100
0010
0000
,
0000
0000
0000
0000
,
1001
0000
1001
0000
,
1000
0001
0100
0000
,
1001
0000
1001
0000
,
0001
1000
0010
0000
,
1001
0000
1001
0000
,
1000
0001
0010
0000
,
0001
0000
1000
0000
,
0001
1000
0001
0000
,
1001
0000
1001
0000
,
0001
0010
0100
0000
,
1001
0000
1001
0000
,
1000
0100
0010
0000
,
1001
0000
1001
0000
,
0001
0100
0010
0000
,
1000
0000
0001
0000
,
1000
0001
1000
0000
,
0010
0100
0010
0000
,
0100
0010
0100
0000
,
0001
0100
0001
0000
,
1000
0010
2000
0000
,
3001
1000
0001
0000
,
0010
0001
0100
0000
,
0010
0100
0010
0000
,
1001
0000
0000
0020
0000
0000
0030
0000
;

//---------------dance-single - ----------------
#NOTES:
     dance-single:
     :
     Medium:
     5:
     0.323,0.296,0.065,0.150,0.000:
1001
0000
1000
0000
1000
0000
0100
1000
,
0000
0010
0200
0000
0301
0000
0000
0000
,
1000
0000
0001
0000
0001
0000
0100
0001
,
0000
0010
0100
2000
0000
0000
0000
0000
,
3001
0000
0100
0000
0100
0000
0001
1000
,
0000
0100
0020
0000
0031
0000
1000
0100
,
1000
0000
0000
0010
0100
0000
0000
0001
,
1000
0001
0100
0010
0000
0000
0000
0000
,
1001
1000
0001
0000
,
0010
0000
0001
0000
0100
0100
0100
0000
,
0010
1000
0100
0000
,
0010
0000
0001
0000
0100
0100
0000
0000
,
0020
0000
0000
0130
,
0001
0000
0100
0000
0010
0100
0010
0000
,
1000
0000
0100
0000
0010
0001
0100
0000
,
0010
0000
0100
0000
0001
0010
0100
0000
,
1000
0100
1000
0000
0010
0100
0010
0000
,
1000
0100
0010
0001
1000
0000
0000
0000
,
0010
0100
0010
0000
1000
0001
1000
0000
,
0001
0100
0010
1000
0001
0000
0000
0000
,
0100
0010
0100
0000
0001
1000
0001
0000
,
1000
0100
0010
0001
1000
0000
0000
0010
,
1000
0100
0000
0100
1000
0010
0000
0100
,
0100
0110
2002
0000
,
0000
0000
0000
3003
,
2010
0000
0000
0001
3001
0000
1000
0000
,
0010
0100
0001
0010
0100
0000
0000
0000
,
2000
0000
0000
0100
3100
0000
0010
0000
,
0001
0100
0010
0100
0001
0000
0000
0000
,
0020
0000
0000
0100
0130
0000
1000
0000
,
0010
0100
0001
0100
0010
0000
1000
0000
,
0002
0100
0013
0001
,
1000
0100
0010
0001
1000
0000
0000
0000
,
0102
0000
0000
1000
1003
0000
0001
0000
,
1000
0010
0100
0010
1000
0000
0000
0000
,
0002
0000
0000
0100
0103
0000
0001
0000
,
1000
0100
0010
0100
1000
0000
0000
0000
,
0200
0000
0000
0010
0310
0000
0001
0000
,
0010
0100
1000
0100
0010
0000
0001
0000
,
2000
0100
3010
1000
,
0001
0100
0010
1000
0001
0000
0000
0000
,
1001
0000
0100
0000
0100
0000
0010
0100
,
0000
1000
0100
0000
0001
0000
0100
0000
,
1000
0000
0001
0000
0001
0000
0010
0001
,
0000
0010
0100
2000
0000
0000
0000
0000
,
3010
0000
0100
0000
0100
0000
0001
1000
,
0000
0100
0010
0000
0001
0000
0000
1000
,
0010
0100
0000
0100
0010
1000
0000
0001
,
0010
0100
1000
0002
0000
0000
0003
0000
;

//---------------dance-single - ----------------
#NOTES:
     dance-single:
     :
     Hard:
     7:
     0.483,0.501,0.234,0.280,0.159: // measure 1
1001
0000
0020
0000
0031
0000
1000
0001
,  // measure 2
0100
1000
0100
0001
1000
0000
0110
0000
,  // measure 3
0000
0000
0200
0000
1300
0000
0001
1000
,  // measure 4
0100
0000
0001
0000
0100
0000
2000
0200
0000
0000
0000
0000
3300
0000
0000
0000
,  // measure 5
1001
0000
0020
0000
1030
0000
0001
1000
,  // measure 6
0100
0001
0100
1000
0001
0000
0000
1000
,  // measure 7
0100
0001
0000
1000
0010
0001
0000
1000
,  // measure 8
0100
0000
0001
0000
0100
0000
1000
0002
0000
0000
1000
0000
1003
0000
0000
0000
,  // measure 9
0010
0000
0000
0010
0200
0000
0000
0000
0001
0000
0000
0000
0301
0000
0000
0000
,  // measure 10
0010
0000
0000
0010
0100
0000
1000
0000
0001
0010
0001
0010
0001
0000
0000
0000
,  // measure 11
0100
0000
0000
0100
0020
0000
0000
0000
1000
0000
0000
0000
1030
0000
0000
0000
,  // measure 12
0100
0000
0000
0100
0010
0000
0001
0000
1000
0000
0100
0000
1000
0000
1000
0000
,  // measure 13
0020
0000
0000
0130
,  // measure 14
0001
0000
0000
0001
1000
0000
0010
0000
0100
0000
0001
0000
0001
0000
0000
0000
,  // measure 15
1000
0000
0000
1000
0001
0000
0010
0000
0100
0000
1000
0000
0001
0000
0000
0000
,  // measure 16
0010
0000
0000
0010
0001
0000
1000
0000
0010
0000
0100
0000
0001
0000
0001
0000
,  // measure 17
2000
0000
0000
0100
0000
0000
3100
0000
1000
0001
0000
0100
0000
0000
0001
0000
,  // measure 18
0020
0000
0000
0100
0000
0000
0130
0000
1000
0000
0010
0000
0100
0000
0001
0000
,  // measure 19
2000
0000
0000
0010
0000
0000
3010
0000
1000
0001
0000
0010
0000
0000
0001
0000
,  // measure 20
0020
0000
0000
0100
0000
0000
0130
0000
1000
0000
0010
0000
0100
0000
0001
0000
,  // measure 21
0200
0000
0000
0010
0000
0000
0310
0000
1000
0100
0000
0010
0000
0000
0000
0000
,  // measure 22
0002
0000
0000
1000
0000
0000
1003
0000
0001
0000
0100
0000
0010
0000
1000
0000
,  // measure 23
0100
0001
0000
1000
0010
0001
0000
1000
,  // measure 24
1100
0101
2002
3000
,  // measure 25
0100
0100
0100
0000
1000
1000
1003
0000
,  // measure 26
0102
0000
0000
1003
1100
0001
0001
1000
,  // measure 27
0010
0001
0010
0100
0001
0000
1000
0010
,  // measure 28
2010
0000
0000
3001
0011
1000
1000
0001
,  // measure 29
0100
1000
0100
0010
1000
0001
0100
0001
,  // measure 30
1002
0000
0000
0103
0110
1000
1000
0001
,  // measure 31
0010
1000
0010
0100
1000
0000
0001
0100
,  // measure 32
0110
0000
0000
1000
0001
0000
0100
0000
0110
0000
0000
0001
1000
0000
0010
0000
,  // measure 33
0110
0000
0000
0100
0000
0000
1001
0000
0000
0001
0000
0000
0110
0000
0000
0000
1000
0000
1000
0000
0001
0000
0010
0000
,  // measure 34
0120
0000
0000
0031
1001
0100
0100
0001
,  // measure 35
0010
1000
0010
0100
1000
0000
0100
0010
,  // measure 36
0120
0000
0000
0031
1001
0010
0010
1000
,  // measure 37
0100
0001
0100
0010
0001
0000
1000
0001
,  // measure 38
2001
0000
0000
3010
0110
0001
0001
1000
,  // measure 39
0100
0001
0100
0010
0001
0000
1000
0100
,  // measure 40
0010
0100
1000
0001
0100
0000
1000
0001
,  // measure 41
0100
0000
0000
0000
0000
0000
1000
0000
0000
0001
0000
0000
0100
0000
0000
0000
0001
0000
0001
0000
1000
0000
0100
0000
,  // measure 42
0110
0000
2000
0000
3001
0000
1000
0010
,  // measure 43
0001
0000
0010
0000
2000
0000
0000
0000
3001
0000
0000
1000
0001
0000
0010
0000
,  // measure 44
0100
0000
2000
0000
3001
0000
1000
0010
,  // measure 45
0001
0000
0010
0000
1000
0000
0001
1000
0002
0000
0000
0000
0000
0000
0000
0000
,  // measure 46
1003
0000
0200
0000
0310
0000
0001
0100
,  // measure 47
1000
0100
0002
0000
1003
0000
0001
1000
,  // measure 48
0100
0001
0000
1000
0010
0001
0000
1000
,  // measure 49
1001
0000
0001
0000
0100
0000
0010
2000
0000
0000
0000
0000
3000
0000
0000
0000
;

//---------------dance-single - ----------------
#NOTES:
     dance-single:
     :
     Beginner:
     1:
     0.071,0.112,0.075,0.000,0.000:
1000
0000
0000
0000
,
0000
0000
0000
0000
,
0001
0000
0000
0000
,
0000
0000
0000
0000
,
1000
0000
0000
0000
,
0000
0000
0000
0000
,
0010
0000
0000
0000
,
0010
0000
0000
0000
,
1000
0000
0000
0000
,
0100
0000
0000
0000
,
0010
0000
0000
0000
,
0001
0000
0000
0000
,
0001
0000
0000
0000
,
1000
0000
0000
0000
,
0010
0000
0000
0000
,
0100
0000
0000
0000
,
0001
0000
0000
0000
,
1000
0000
0000
0000
,
0001
0000
0000
0000
,
1000
0000
0000
0000
,
0001
0000
0000
0000
,
1000
0000
0000
0000
,
0100
0000
0000
0000
,
0100
0000
0000
0000
,
0000
0000
0000
0000
,
1001
0000
0000
0000
,
0001
0000
0000
0000
,
1001
0000
0000
0000
,
1000
0000
0000
0000
,
1001
0000
0000
0000
,
0001
0000
0000
0000
,
1000
0000
0000
0000
,
0001
0000
0000
0000
,
1001
0000
0000
0000
,
0001
0000
0000
0000
,
1001
0000
0000
0000
,
1000
0000
0000
0000
,
0010
0000
0000
0000
,
0100
0000
0000
0000
,
0001
0000
0000
0000
,
1001
0000
0000
0000
,
1001
0000
0000
0000
,
1000
0000
0000
0000
,
0001
0000
0000
0000
,
1000
0000
0000
0000
,
0010
0000
0000
0000
,
0100
0000
0000
0000
,
0001
0000
0000
0000
,
1001
0000
0000
0000
;
