#TITLE:Track12;
#SUBTITLE:;
#ARTIST:DJ MURASAME;
#TITLETRANSLIT:;
#SUBTITLETRANSLIT:;
#ARTISTTRANSLIT:;
#CREDIT:DigiMindAxel;
#BANNER:Track12.png;
#BACKGROUND:Track12-bg.png;
#LYRICSPATH:;
#CDTITLE:DigiMindAxel original simfile.png;
#MUSIC:Track12.mp3;
#OFFSET:-0.020;
#SAMPLESTART:12.780;
#SAMPLELENGTH:12.000;
#SELECTABLE:YES;
#BPMS:0.000=150.000;
#STOPS:;
#BGCHANGES:;

//---------------dance-single - ----------------
#NOTES:
     dance-single:
     :
     Easy:
     4:
     0.342,0.373,0.074,0.515,0.000: // measure 1
2001
0000
0001
0000
,  // measure 2
0001
0000
3001
0000
,  // measure 3
0020
0000
0100
0000
,  // measure 4
0100
0000
0130
0000
,  // measure 5
0002
0000
1000
0000
,  // measure 6
1000
0000
1003
0000
,  // measure 7
0200
0000
0010
0000
,  // measure 8
0010
0000
0310
0000
,  // measure 9
1000
0001
0200
0310
,  // measure 10
1000
0001
0020
0130
,  // measure 11
1000
0001
0020
0031
,  // measure 12
0100
0010
2000
3100
,  // measure 13
0010
0001
0200
0310
,  // measure 14
1000
0001
0020
0130
,  // measure 15
1000
0001
0020
0031
,  // measure 16
0100
0010
2000
3100
,  // measure 17
2002
0000
0000
0000
0000
0000
0000
3003
;

//---------------dance-single - ----------------
#NOTES:
     dance-single:
     :
     Medium:
     7:
     0.489,0.528,0.331,0.221,0.074: // measure 1
1001
0100
1000
0100
,  // measure 2
0001
0010
0100
1000
,  // measure 3
0001
0010
1000
0010
,  // measure 4
0001
0100
0010
1000
,  // measure 5
0100
0010
0001
0100
,  // measure 6
1000
0100
0001
1000
,  // measure 7
0010
0100
0001
0010
,  // measure 8
1000
0010
0001
1000
,  // measure 9
0001
0100
0020
0000
0000
1030
1010
0000
,  // measure 10
0100
0010
2000
0000
0000
3010
0110
0000
,  // measure 11
0010
0001
0200
0000
0000
0310
0110
0000
,  // measure 12
1000
0100
0020
0000
0000
0031
0011
0000
,  // measure 13
0100
0000
0000
0010
0000
0000
0001
0000
0000
0000
0100
0000
0110
0000
0000
0000
,  // measure 14
0010
0000
0000
1000
0001
0000
0010
0000
0000
0000
0100
0000
0110
0000
0000
0000
,  // measure 15
0100
0000
0000
0001
1000
0000
0100
0000
0000
0000
0010
0000
0110
0000
0000
0000
,  // measure 16
0010
0000
1000
0000
0100
0000
0001
0000
0100
1000
0100
0000
0010
0000
0000
0000
,  // measure 17
2002
0000
0000
0000
0000
0000
0000
3003
;

//---------------dance-single - ----------------
#NOTES:
     dance-single:
     :
     Hard:
     9:
     0.662,0.745,0.368,0.589,0.791: // measure 1
1001
0000
0002
0000
0000
0103
0000
0000
0000
0000
2000
0000
0000
3100
0000
0000
,  // measure 2
0000
0000
0002
0000
0000
0013
0000
0000
0000
0000
2000
0000
0000
3010
0000
0000
,  // measure 3
0000
0000
0002
0000
0000
1003
0000
0000
0000
0000
0020
0000
0000
0130
0000
0000
,  // measure 4
0000
0000
0002
0000
0000
1003
0000
0000
0000
0000
0200
0000
0000
0310
0000
0000
,  // measure 5
0000
0000
0001
0000
0000
0011
0000
0000
0000
0000
0010
0000
0000
0110
0000
0000
,  // measure 6
0000
0000
0100
0000
0000
1100
0000
0000
0000
0000
1000
0000
0000
1001
0000
0000
,  // measure 7
0000
0000
0010
0000
0000
1010
0000
0000
0000
0000
0100
0000
0000
0110
0000
0000
,  // measure 8
0000
0000
0100
0000
0000
0101
0000
0000
0000
0000
0001
0000
0000
1001
0000
0000
,  // measure 9
1000
0000
0001
0100
0000
0002
0000
0000
0000
0000
1003
0000
0100
0010
0000
0000
,  // measure 10
0100
0000
0010
0001
0000
2000
0000
0000
0000
0000
3001
0000
0100
0010
0000
0000
,  // measure 11
0100
0000
0001
1000
0000
0200
0000
0000
0000
0000
0310
0000
0001
1000
0000
0000
,  // measure 12
0010
0000
0100
0001
0000
0020
0000
0000
0000
0000
0130
0000
1000
0001
0000
0000
,  // measure 13
1000
0000
0100
0010
0000
0100
0020
0000
0000
0000
0031
0000
1000
0001
0000
0000
,  // measure 14
0010
0000
0100
1000
0000
0100
2000
0000
0000
0000
3001
0000
0100
0010
0000
0000
,  // measure 15
1000
0000
0001
0100
0000
0001
0100
0000
0010
0000
1000
0000
0100
0010
0000
0000
,  // measure 16
0001
0000
0100
0010
0000
0100
0010
1000
0001
1000
0001
0010
0100
1000
0001
0000
,  // measure 17
2002
0000
0000
0000
0000
0000
0000
3003
;

//---------------dance-single - ----------------
#NOTES:
     dance-single:
     :
     Beginner:
     2:
     0.110,0.147,0.110,0.000,0.000: // measure 1
1001
0000
0000
0000
,  // measure 2
1000
0000
0000
0000
,  // measure 3
1000
0000
0000
0000
,  // measure 4
1000
0000
0000
0000
,  // measure 5
0001
0000
0000
0000
,  // measure 6
0001
0000
0000
0000
,  // measure 7
0001
0000
0000
0000
,  // measure 8
0001
0000
0000
0000
,  // measure 9
1001
0000
0000
0000
,  // measure 10
1000
0000
0000
0000
,  // measure 11
0001
0000
0000
0000
,  // measure 12
1000
0000
0000
0000
,  // measure 13
0010
0000
0000
0000
,  // measure 14
0100
0000
0000
0000
,  // measure 15
0010
0000
0000
0000
,  // measure 16
0010
0000
0010
0000
,  // measure 17
0110
0000
0000
0000
;
