#TITLE:TELEPHONE OPERATOR;
#SUBTITLE:(K.O.G G3 Mix);
#ARTIST:PETE SHELLEY;
#TITLETRANSLIT:;
#SUBTITLETRANSLIT:;
#ARTISTTRANSLIT:;
#CREDIT:DigiMindAxel;
#BANNER:TELEPHONE OPERATOR (K.O.G G3 Mix).png;
#BACKGROUND:TELEPHONE OPERATOR (K.O.G G3 Mix)-bg.png;
#LYRICSPATH:TELEPHONE OPERATOR (K.O.G G3 Mix).lrc;
#CDTITLE:Dancemania SPEED 8.png;
#MUSIC:TELEPHONE OPERATOR (K.O.G G3 Mix).mp3;
#OFFSET:-5.700;
#SAMPLESTART:11.220;
#SAMPLELENGTH:12.000;
#SELECTABLE:YES;
#BPMS:0.000=172.000;
#STOPS:;
#BGCHANGES:;

//---------------dance-single - ----------------
#NOTES:
     dance-single:
     :
     Beginner:
     2:
     0.125,0.195,0.038,0.000,0.000:
0001
0000
0000
0000
,
0001
0000
0000
0000
,
1000
0000
0000
0000
,
1000
0000
0000
0000
,
1001
0000
0000
0000
,
0010
0000
0100
0000
,
0010
0000
0000
0000
,
0100
0000
0010
0000
,
0100
0000
0000
0000
,
0001
0000
1000
0000
,
0001
0000
0000
0000
,
0001
0000
0000
0000
,
1000
0000
0001
0000
,
1000
0000
0000
0000
,
1000
0000
0000
0000
,
0010
0000
0000
0000
,
0100
0000
0010
0000
,
0100
0000
0000
0000
,
0001
0000
0000
0000
,
1000
0000
0001
0000
,
1001
0000
0000
0000
,
0100
0000
0000
0000
,
0100
0000
0000
0000
,
0100
0000
0000
0000
,
0010
0000
0000
0000
,
0010
0000
0000
0000
,
0010
0000
0000
0000
,
0010
0000
0000
0000
,
1001
0000
0000
0000
,
0000
0000
0000
0000
,
0001
0000
1000
0000
,
0001
0000
0100
0000
,
0010
0000
0000
0000
,
0000
0000
0000
0000
,
1000
0000
0001
0000
,
1000
0000
0010
0000
,
0100
0000
0000
0000
,
0010
0000
0010
0000
,
0100
0000
0000
0000
,
0001
0000
0001
0000
,
1000
0000
0000
0000
,
0100
0000
0000
0000
,
0010
0000
0000
0000
,
0001
0000
0000
0000
,
1000
0000
0001
0000
,
1000
0000
0000
0000
,
0010
0000
0000
0000
,
0100
0000
0000
0000
,
0010
0000
0010
0000
,
0010
0000
0000
0000
,
1000
0000
0000
0000
,
0001
0000
0000
0000
,
1000
0000
1000
0000
,
1000
0000
0000
0000
,
0001
0000
0000
0000
,
1000
0000
0000
0000
,
0001
0000
0001
0000
,
0001
0000
0000
0000
,
0100
0000
0010
0000
,
0100
0000
0000
0000
,
0010
0000
0100
0000
,
0010
0000
0000
0000
,
0010
0000
0000
0000
,
0010
0000
0000
0000
,
1000
0000
0001
0000
,
1000
0000
0000
0000
,
0010
0000
0100
0000
,
0010
0000
0010
0000
,
0110
0000
0000
0000
;

//---------------dance-single - ----------------
#NOTES:
     dance-single:
     :
     Easy:
     3:
     0.239,0.301,0.038,0.239,0.000:
0001
0000
1000
0000
,
0001
0000
1000
0000
,
0001
0001
1000
1000
,
2002
0000
0000
3003
,
0001
0001
0100
0100
,
0010
0000
0100
0000
,
0001
0001
0100
0100
,
0010
0000
0100
0000
,
0001
0001
1000
1000
,
0100
0000
0010
0000
,
0001
0001
1000
1000
,
0100
0000
0010
0000
,
0001
1000
0001
1000
,
0100
0000
0100
0000
,
1000
0001
1000
0001
,
0100
0000
0100
0000
,
0010
0100
0010
0000
,
0100
0000
0010
0000
,
1000
0000
0001
0000
,
1000
0000
0000
0000
,
0002
0000
0000
0000
,
2003
0000
0000
0000
,
3002
0000
0000
0000
,
0203
0000
0000
0000
,
0320
0000
0000
0000
,
2030
0000
0000
0000
,
3200
0000
0000
0000
,
0320
0000
0000
0000
,
0031
0000
1000
0000
,
0001
1000
0001
0000
,
0020
0000
0000
0000
,
0230
0000
0000
0000
,
0310
0100
0010
0000
,
0001
1000
0001
0000
,
0200
0000
0000
0000
,
0320
0000
0000
0030
,
0110
0000
0100
0000
,
0010
0100
0010
0000
,
1000
0000
0001
0000
,
1000
0001
1000
0000
,
0001
0000
1000
0000
,
0001
1000
0001
0000
,
0200
0000
0000
0000
,
0320
0000
0000
0000
,
1030
0000
0100
0010
,
0001
0000
1000
0000
,
0002
0000
0000
0000
,
2003
0000
0000
0000
,
3001
0000
0100
0010
,
0100
0000
0010
0100
,
0020
0000
0000
0000
,
0230
0000
0000
0000
,
0301
1000
0001
0000
,
0100
0010
0100
0000
,
0002
0000
0000
0000
,
2003
0000
0000
3000
,
1001
0000
0001
0000
,
1000
0001
1000
0000
,
0100
0000
0010
0000
,
0001
1000
0001
0000
,
0100
0000
0010
0000
,
1000
0001
1000
0000
,
0010
0000
0010
0000
,
0100
0010
0100
0000
,
0001
0000
0010
0000
,
0100
0000
1000
0000
,
0002
0000
0000
0000
,
1003
0001
1000
0001
,
2002
0000
0000
0000
,
0000
0000
0000
0000
,
3003
0000
0000
0000
;

//---------------dance-single - ----------------
#NOTES:
     dance-single:
     :
     Medium:
     6:
     0.443,0.501,0.162,0.229,0.000:
0001
0001
1000
1000
,
0001
0001
1000
1000
,
0010
0100
0010
0100
,
0010
0100
0010
0100
,
0001
0001
0001
0002
,
1003
0001
0010
0100
,
1000
1000
1000
2000
,
3001
1000
0100
0010
,
0001
1000
0001
0000
1000
0000
0010
0100
,
0010
0100
0010
0100
,
0001
0000
0001
0000
0001
1000
0001
0000
,
0100
0000
0010
0100
0010
0000
1000
0000
,
1001
0000
1000
0000
0001
1000
0100
0000
,
1000
0100
1000
0001
,
1001
0000
1000
0000
1000
0001
0100
0000
,
0001
0100
0001
0100
,
1001
0000
0001
0000
0001
1000
0100
1000
,
0000
0001
1000
0000
0001
1000
0000
0001
,
1000
0000
0001
1000
0000
0001
0100
0010
,
0100
0010
0100
0010
0100
0010
0100
0000
,
0220
0000
0000
0330
,
2002
0000
0000
3003
,
0220
0000
0000
0330
,
2002
0000
0000
3003
,
2002
0000
0000
3003
,
0220
0000
0000
0330
,
2002
0000
0000
3003
,
0220
0000
0000
0330
,
0110
0010
0010
0010
,
0100
0000
0110
0000
0001
1000
0001
0000
,
2000
0000
0000
3100
,
0020
0000
0031
0100
,
0010
0100
0010
0000
0010
0000
0010
0000
,
1000
0001
1000
0000
0100
0000
1000
0000
,
0020
0000
0000
0130
,
0002
0000
0000
1003
,
1001
0000
0001
0000
0001
0000
0001
1000
,
0100
1000
0100
0010
,
0001
0000
1000
0000
1000
0000
1000
0001
,
0100
0001
0010
0100
,
1000
0000
0001
1000
0001
1000
0001
0000
,
0100
0010
0100
0001
,
1000
1000
1000
1000
,
0001
0001
0001
0001
,
0100
0001
0100
0000
0010
1000
0010
0000
,
0010
0010
0010
0010
,
1000
0001
0100
0010
,
1000
1000
1000
1000
,
0001
0100
0010
0100
,
0001
1000
0001
0000
1000
0001
1000
0000
,
0010
0100
0001
0010
,
0100
0000
1000
0000
0010
0100
0010
0000
,
1000
0100
0010
0100
,
1000
0001
1000
0000
0001
1000
0001
0000
,
0010
0000
0100
0000
1000
0000
0010
0100
,
0010
0000
1000
0001
1000
0000
0000
0000
,
1001
0010
0100
1000
,
0010
0100
0010
0000
1000
0100
1000
0000
,
0010
0100
0001
0010
,
0001
1000
0001
0000
1000
0100
1000
0000
,
0001
0000
0100
0010
0100
0010
0100
0000
,
0010
0000
1000
0000
0001
1000
0001
0000
,
1001
1000
0001
0001
,
1000
0010
1000
0000
0001
1000
0001
0000
,
1000
0100
0010
0100
,
1000
0001
1000
0000
0001
1000
0001
0000
,
0010
0100
0010
0001
,
0100
0010
0100
0000
0010
0100
0010
0000
,
2002
0000
0000
0000
,
0000
0000
0000
0000
,
3003
0000
0000
0000
;

//---------------dance-single - ----------------
#NOTES:
     dance-single:
     :
     Hard:
     8:
     0.622,0.601,0.640,0.248,0.000:
0001
1000
0100
0000
1000
0001
0100
0000
,
0001
1000
0100
0000
1000
0001
0100
0000
,
0001
1000
0001
1000
0001
1000
0001
1000
,
0001
0001
1000
1000
0010
0010
0100
0100
,
0101
0000
0101
0000
0001
1000
0100
1000
,
0001
1000
0100
1000
0010
1000
0100
0000
,
1001
0000
1001
0000
1000
0001
0100
0001
,
0010
0001
0100
0001
0010
0001
1000
0000
,
1001
0000
1001
0000
1000
0100
1000
0001
,
0000
0001
1000
1000
0100
0010
0001
0000
,
1001
0000
0110
0000
1001
0000
0010
0100
,
0001
0000
1001
0000
0010
0010
0010
0000
,
1001
0000
1000
0000
0101
0000
0010
1000
,
0100
1000
0001
1000
0010
1000
0100
0000
,
1001
0000
1000
0000
0101
0000
0010
1000
,
0100
1000
0001
1000
0010
1000
0100
0000
,
0110
0000
0100
0000
0100
0100
0100
0100
,
0000
0001
0001
0000
1000
1000
0000
0010
,
0010
0000
0100
0100
0000
0010
0100
0010
,
1000
0100
1000
0001
1000
0100
1000
0001
,
2002
0000
0000
3003
,
0220
0000
0000
0330
,
0202
0000
0000
0303
,
2020
0000
0000
3030
,
0102
0000
0000
2000
0000
0000
3003
0000
,
2010
0000
0000
0002
0000
0000
3003
0000
,
0210
0000
0000
0002
0000
0000
0303
0000
,
0010
0100
0001
0010
1000
0010
0001
0000
,
1001
0101
1010
0101
,
1001
0000
0001
0100
1000
0100
0001
0000
,
2001
0100
0001
3100
,
1002
0010
1000
0013
,
1001
1100
0011
1100
,
1001
0000
1000
0100
0001
0100
1000
0000
,
1002
0100
1000
0103
,
2001
0010
0001
3010
,
1000
0100
0010
0100
2000
0000
3001
0000
,
0100
0001
0010
1000
0010
0001
0100
0000
,
0001
0010
0100
0010
0002
0000
1003
0000
,
0010
1000
0100
0001
0100
1000
0010
0000
,
0100
0001
0000
1000
1000
1000
0001
0000
,
1000
0010
0100
0000
0001
0010
0100
0000
,
0101
1001
1001
1010
,
1000
0100
0010
0001
0100
0001
1000
0100
,
0010
0100
0000
1000
1000
1000
0001
0000
,
0010
0001
0100
0000
0001
0010
0100
0000
,
1100
1001
1001
0011
,
0100
1000
0001
0100
0010
0100
0001
1000
,
1100
0000
1100
0000
1000
0100
0001
0100
,
1000
0000
1001
0000
0001
0100
1000
0100
,
0002
0000
1000
0000
0100
0000
1003
0001
,
1000
0000
0010
0000
0100
0010
0000
0000
,
0101
0000
0101
0000
0001
0010
1000
0010
,
0001
0000
1001
0000
1000
0010
0001
0010
,
2000
0000
0001
0000
0100
0000
3001
1000
,
0010
0110
0100
0101
,
0010
0100
1000
0100
0020
0000
0130
0000
,
0001
0100
0010
0100
0001
0100
1000
0100
,
0001
0010
0100
0010
0002
0000
1003
0000
,
0001
0010
0100
0010
0001
0010
1000
0010
,
0001
0100
0000
0010
0010
0010
0100
0000
,
0001
0100
0010
0000
0100
0001
0010
0000
,
0110
0100
0101
0101
,
0110
1001
0110
1001
,
1000
0001
0000
0100
0100
0100
0010
0000
,
1000
0100
0010
0000
0001
0100
0010
0000
,
0110
0010
1010
1010
,
1001
0110
1001
1001
,
0220
0000
0000
0000
,
0000
0000
0000
0000
,
0330
0000
0000
0000
;

//---------------dance-single - ----------------
#NOTES:
     dance-single:
     :
     Challenge:
     9:
     0.713,0.702,0.115,0.172,0.215: // measure 1
1000
0100
0010
0000
0100
0010
0001
0000
,  // measure 2
1000
0100
0010
0000
0100
0010
0001
0000
,  // measure 3
0100
0010
1000
0001
0100
0010
1000
0001
,  // measure 4
1000
0000
1000
0000
0001
0000
0001
0000
0100
0000
0000
0010
0000
0000
0100
0000
,  // measure 5
0001
0001
0001
0000
0010
0100
1000
0100
,  // measure 6
0010
0001
1000
0010
0100
0010
1000
0001
,  // measure 7
1000
1000
1000
0000
0100
0010
0001
0010
,  // measure 8
0100
0000
1000
0000
0001
0000
0100
0000
0010
0000
0100
0000
0001
1000
0000
1000
,  // measure 9
0001
0001
0001
0000
1000
0100
0001
0100
,  // measure 10
1000
0001
0100
0100
0001
0010
0100
0000
,  // measure 11
1000
0010
0000
0010
1000
0000
0100
0000
0010
0001
0000
0001
0010
0000
0001
0000
,  // measure 12
0100
0000
0000
0100
0000
0000
0100
0000
0100
0000
0010
0100
0010
0000
0000
0000
,  // measure 13
1000
1000
1000
0000
0001
0010
1000
0010
,  // measure 14
0001
1000
0100
1000
0001
0100
0001
1000
,  // measure 15
0001
0001
0001
0000
1000
0010
0001
0010
,  // measure 16
1000
0001
0100
0001
1000
0100
1000
0000
,  // measure 17
1001
0000
1100
0000
0001
0010
0100
1000
,  // measure 18
0000
1000
0010
0000
0010
0100
0000
0100
,  // measure 19
0001
1000
0000
1000
0001
0000
0010
0000
0100
0010
0000
0010
0100
0000
1000
0000
,  // measure 20
0001
0000
0001
0000
1000
0000
1000
0000
0010
0000
0100
0010
0100
0000
0010
0000
,  // measure 21
2010
0000
0000
0001
3001
0010
0100
1000
,  // measure 22
1002
0000
0000
1000
1003
0010
0100
0001
,  // measure 23
2001
0000
0000
0001
3001
1000
0100
0010
,  // measure 24
0120
0000
0000
1000
1030
0001
0010
0100
,  // measure 25
0210
0000
0000
0001
0301
1000
0010
0100
,  // measure 26
0102
0000
0000
1000
1003
0010
0100
0010
,  // measure 27
2010
0000
0000
0001
3001
0100
0010
1000
,  // measure 28
1000
0000
0001
0000
0001
0000
1000
0000
1000
0000
0001
0000
0001
0000
1000
0001
,  // measure 29
1000
0010
0100
0000
0001
0001
1000
0100
,  // measure 30
0010
0000
0110
0000
0010
0100
0001
1000
,  // measure 31
0200
0000
0001
0000
1000
0000
0301
1000
,  // measure 32
0020
0000
0001
0000
1030
0001
0001
0001
,  // measure 33
1000
0100
0010
0000
0001
0100
0010
0100
,  // measure 34
0000
0001
0001
1000
0100
0001
0100
1000
,  // measure 35
0020
0000
0001
0000
1000
0000
0031
1000
,  // measure 36
0010
0100
0000
0100
0010
0000
1000
0000
0001
0100
0000
0100
0001
0000
1000
0001
,  // measure 37
1000
0001
0100
0010
0020
0000
1030
0000
,  // measure 38
0001
0010
0100
1000
0100
0010
0001
1000
,  // measure 39
0001
1000
0010
0100
0200
0000
0301
0000
,  // measure 40
1000
0000
0100
0000
0010
0000
0001
0000
0010
0000
0100
0000
1000
0001
0000
0001
,  // measure 41
1000
0010
0000
0010
0010
0010
0100
0000
,  // measure 42
0001
1000
0100
1000
0010
1000
0100
1000
,  // measure 43
0001
0010
0000
0010
0001
0000
1000
0000
0010
0100
0000
0100
0010
0000
1000
0000
,  // measure 44
0010
0000
0000
0010
0000
0000
0010
0000
0010
0000
0100
0010
0100
0000
0001
0000
,  // measure 45
1000
0010
0000
0010
0010
0010
0100
0000
,  // measure 46
0001
1000
0010
1000
0100
1000
0010
1000
,  // measure 47
0002
0100
1000
0103
,  // measure 48
0001
0000
0001
0000
1000
0000
1000
0000
0010
0000
0100
0010
0100
0000
0001
0000
,  // measure 49
1000
1000
1000
0000
0100
0010
0001
1000
,  // measure 50
0010
0100
0010
1000
0100
0001
0100
1000
,  // measure 51
0002
0000
1000
0000
0010
0000
1003
0001
,  // measure 52
0001
1000
0100
0010
0100
1000
1100
0000
,  // measure 53
0001
0001
0001
0000
0010
0100
1000
0001
,  // measure 54
0100
0010
0100
0001
1000
0010
0001
0010
,  // measure 55
2000
0000
0001
0000
0100
0000
3001
1000
,  // measure 56
0001
0100
0000
0100
0010
0000
1000
0000
0001
0010
0000
0010
0001
0000
0100
0010
,  // measure 57
0100
0001
0010
0100
1000
1000
0001
0000
,  // measure 58
0001
1000
0010
0001
0010
1000
0100
0010
,  // measure 59
0100
1000
0010
0100
0001
0001
1000
0000
,  // measure 60
1000
0000
0001
0000
0010
0000
1000
0000
0010
0000
0001
0000
1000
0001
0000
0001
,  // measure 61
1000
0100
0000
0100
0100
0100
0010
0000
,  // measure 62
0001
1000
0100
0100
1000
0001
0100
0100
,  // measure 63
0001
1000
0000
1000
0100
0000
1000
0000
0100
0010
0000
0010
0100
0000
1000
0000
,  // measure 64
0010
1000
0000
1000
0001
0000
0010
0000
0100
0000
1000
0001
1000
0000
0001
0000
,  // measure 65
0010
0100
0000
0100
0100
0100
0010
0000
,  // measure 66
0001
1000
0100
1000
0010
1000
0100
1000
,  // measure 67
0002
0010
1000
0013
,  // measure 68
0001
0000
0001
0000
1000
0000
1000
0000
0010
0000
0100
0010
0100
0010
0100
0000
,  // measure 69
0220
0000
0000
0000
,  // measure 70
0000
0000
0000
0000
,  // measure 71
0330
0000
0000
0000
;
