#TITLE:TAKE THE FUN;
#SUBTITLE:;
#ARTIST:Anemo=Aspel by MLREC.;
#TITLETRANSLIT:;
#SUBTITLETRANSLIT:;
#ARTISTTRANSLIT:;
#CREDIT:DigiMindAxel;
#BANNER:TAKE THE FUN.png;
#BACKGROUND:TAKE THE FUN-bg.png;
#LYRICSPATH:TAKE THE FUN.lrc;
#CDTITLE:REFLEC BEAT.png;
#MUSIC:TAKE THE FUN.mp3;
#OFFSET:-7.640;
#SAMPLESTART:55.077;
#SAMPLELENGTH:12.000;
#SELECTABLE:YES;
#BPMS:0.000=140.000;
#STOPS:;
#BGCHANGES:;

//---------------dance-single - ----------------
#NOTES:
     dance-single:
     :
     Easy:
     3:
     0.241,0.233,0.086,0.181,0.004:
1000
0001
1000
0000
,
0100
1000
0100
0000
,
0010
0001
0010
0000
,
0200
0000
0310
0000
,
1001
1000
0001
1000
,
0010
0100
0001
0000
,
0100
0010
0100
0001
,
1000
0001
1000
0000
,
0010
0100
0010
0100
,
0001
0010
0100
0000
,
1000
0001
1000
0100
,
0020
0000
0030
0000
,
0120
0000
0000
0030
,
2000
0000
0000
3000
,
0002
0000
0000
0003
,
2000
0000
0000
3001
,
1001
0000
0000
0000
,
0200
0000
0000
0300
,
0020
0000
0000
0030
,
0200
0000
0000
0300
,
1001
0000
1000
0000
,
0002
0000
1003
0001
,
2000
0000
3002
0000
,
2003
0000
3001
1000
,
0020
0000
0230
0000
,
0310
0100
0010
0100
,
0001
0001
1000
1000
,
1001
0000
0000
0000
,
0001
0001
0001
0000
,
0010
0001
0010
0100
,
1000
1000
1000
0000
,
0100
1000
0100
0000
,
0010
0001
0100
0010
,
0100
0100
0001
0000
,
0010
0100
1000
0010
,
0110
0000
0000
0000
,
2000
0000
3001
0000
,
1000
0001
0010
0100
,
2000
0000
3001
0000
,
0100
0010
1000
0000
,
0001
0010
0001
0010
,
0001
1000
0001
0000
,
0100
0001
0100
0010
,
0100
0000
0000
0000
,
0110
0010
0100
0000
,
0001
1000
0001
0000
,
1000
0001
1000
0000
,
0010
0100
0001
0001
,
1000
0001
1000
0000
,
0010
0100
0010
0000
,
1000
0100
0010
0000
,
2002
0000
3003
0000
,
0001
1000
0001
0000
,
0010
0001
0100
0010
,
1000
0001
1000
0000
,
0100
1000
0010
0100
,
0001
1000
0001
0000
,
0010
0100
1000
0100
,
0010
0100
0010
0000
,
2002
0000
0000
0000
0000
0000
0000
0000
3003
0000
0000
0000
0000
0000
0000
1001
;

//---------------dance-single - ----------------
#NOTES:
     dance-single:
     :
     Medium:
     6:
     0.367,0.337,0.181,0.052,0.026:
0001
0010
0001
1000
,
0001
0010
0001
1000
,
0100
1000
0010
0100
,
0020
0000
0030
0000
,
0110
0100
0101
0100
,
0110
1000
0100
0010
,
1001
0001
0101
0001
,
0010
0100
1000
0010
,
0110
0100
0101
0100
,
0010
0100
1000
0010
,
1001
0001
1001
1000
,
0010
0000
0200
0000
0000
0000
0000
0310
0000
0000
0000
0000
0000
0000
0000
0000
,
1001
1000
0001
0010
,
0100
1000
0010
0100
,
0001
1000
0001
0000
0010
0000
0100
0000
,
1000
0010
0100
0001
,
1001
0000
0000
1000
0000
0000
0000
0000
0001
0000
0000
0000
0001
0000
0000
0000
,
1000
0001
1000
0000
0100
0000
0010
0000
,
0001
0100
0001
0000
0010
0000
0100
0000
,
1000
0010
1000
0000
0010
0000
0100
0000
,
0101
0010
0100
1000
,
0002
0000
1003
0000
,
1001
0100
0010
0001
,
2000
0000
3001
0100
,
0001
1000
0100
0010
,
0001
0100
0010
0100
,
0001
1000
0001
0000
0010
0001
0010
0000
,
2200
0000
0000
3300
,
1001
0000
0001
0000
1000
0000
0100
1000
,
0010
0000
0100
0010
0100
0000
0001
0000
,
0100
0001
0100
0000
0010
0100
0010
0000
,
1000
0100
1000
0000
0001
0000
0000
0000
,
0100
0001
0100
0000
0001
0010
0001
0000
,
1000
0000
0100
0000
0010
0001
0100
0000
,
0010
0100
0010
0000
1000
0100
1000
0000
,
1001
0000
0001
0000
0000
0000
1000
0001
,
1000
0000
1000
0000
1000
0000
0010
0100
,
0010
0010
0010
0010
,
0100
0001
0100
0000
0100
0000
0100
0000
,
0001
1000
0001
0000
0000
1001
0000
0000
,
1000
0001
1000
0000
1000
0000
1000
0000
,
0001
0100
0001
0000
0001
0000
0001
0000
,
0100
0010
0100
0000
0100
0000
0100
0000
,
0100
0000
0000
0000
0000
0110
0000
0000
,
0001
0000
1000
0001
1000
0000
0001
0000
,
0100
0000
0010
0100
0010
0000
1000
0000
,
0001
0000
0100
0001
0100
0000
0001
0000
,
0010
0000
0100
1000
0100
1000
0100
0000
,
0010
0000
0001
0100
0001
0000
0100
0000
,
0010
0000
1000
0010
1000
0000
0010
0100
,
0010
0000
0100
0000
0001
0000
0100
0001
,
1000
0000
0000
0000
0000
1001
0000
0000
,
0001
0010
0001
0000
0010
0001
0010
0000
,
0001
1000
0100
1000
0001
0000
0001
0000
,
1000
0100
1000
0000
0100
1000
0100
0000
,
1000
0001
0100
0001
1000
0000
1000
0000
,
0010
0100
0010
0000
0100
0010
0100
0000
,
0001
0010
0100
1000
0001
0000
0001
0000
,
0100
0010
0100
0000
0010
0100
0010
0000
,
1001
0000
0000
0000
0000
1000
0000
0000
0000
0001
0000
0000
0000
1000
0000
1001
;

//---------------dance-single - ----------------
#NOTES:
     dance-single:
     :
     Hard:
     8:
     0.525,0.523,0.199,0.225,0.328: // measure 1
1000
0000
0001
0100
1000
0000
0100
0000
,  // measure 2
0001
0000
1000
0010
0001
0000
0010
0000
,  // measure 3
1000
0001
0010
0000
0100
0000
0010
0001
,  // measure 4
2000
0000
0000
0001
3001
0000
0000
0000
,  // measure 5
1000
0000
0000
1000
0010
0000
0000
0000
0010
0000
0000
0010
0100
0000
0000
0000
,  // measure 6
0001
0010
1000
0010
0001
0000
1000
0000
,  // measure 7
0010
0000
0000
0010
0100
0000
0000
0000
0100
0000
0000
0100
0001
0000
0000
0000
,  // measure 8
1000
0000
0000
0010
0000
0000
0100
0000
0000
0000
0001
0000
1000
0000
0001
0000
,  // measure 9
0010
0000
0000
0010
0100
0000
0000
0000
0100
0000
0000
0100
1000
0000
0000
0000
,  // measure 10
0001
0010
1000
0010
0001
0000
1000
0000
,  // measure 11
0100
0000
0000
0100
0010
0000
0000
0000
0010
0000
0000
0010
0001
0000
0000
0000
,  // measure 12
1000
0010
1000
0010
0000
0100
0001
0100
0000
0000
0000
0000
0000
0000
0000
0000
,  // measure 13
0001
0000
0000
0001
0100
0000
0000
0000
0010
0000
1000
0000
0100
0000
0000
0000
,  // measure 14
0010
0000
0000
0010
0001
0000
0000
0000
0010
0000
0100
0000
1000
0000
0010
0000
,  // measure 15
0100
0000
0000
0100
0010
0000
0000
0000
1000
0000
0100
0000
0010
0000
0000
0000
,  // measure 16
0100
0000
0000
0100
1000
0000
0000
0000
0010
0000
0100
0000
0001
0000
0000
0000
,  // measure 17
1001
0000
0000
1001
0000
0000
0000
0000
0001
0000
0100
0000
0010
0000
0000
0000
,  // measure 18
0100
0000
0000
0100
0001
0000
0000
0000
0010
0000
0100
0000
1000
0000
0010
0000
,  // measure 19
0100
0000
0000
0100
0010
0000
0000
0000
1000
0000
0001
0000
0010
0000
0000
0000
,  // measure 20
0001
0000
0000
0001
0100
0000
0000
0000
0010
0000
1000
0000
0100
0000
0000
0000
,  // measure 21
1002
0203
2300
3200
,  // measure 22
0301
0000
0010
0000
0100
0000
1000
0001
2000
0000
0000
0000
3000
0000
0000
0000
,  // measure 23
2001
3200
0302
0203
,  // measure 24
2300
0000
0000
0000
3001
0000
1000
0001
1000
0000
0100
0000
0010
0000
0001
0000
,  // measure 25
2000
3200
0302
0203
,  // measure 26
1300
0001
0010
0000
0100
0010
0001
0000
,  // measure 27
0100
0010
0100
0000
0001
0000
0010
0000
0100
0000
1000
0000
0001
0000
0001
0000
,  // measure 28
0000
0000
0100
0000
0010
0000
0100
0000
0010
0000
1000
0000
0000
0000
0000
1001
0000
0000
0000
0000
0000
0000
0000
0000
,  // measure 29
0101
0000
0000
0100
0000
0000
1100
0000
0000
0000
1000
0000
0100
0000
0001
0000
,  // measure 30
0100
1000
0010
0000
0100
0001
0010
0100
,  // measure 31
1000
0001
0010
1000
0010
0001
1000
0000
,  // measure 32
0100
0000
0010
0000
0100
1000
0100
1000
0000
0000
1001
0000
0000
0000
0000
0000
,  // measure 33
1100
0000
0000
0100
0000
0000
0110
0000
0000
0000
0001
0000
0100
0000
1000
0000
,  // measure 34
0100
0001
0010
0000
0100
0010
0001
0010
,  // measure 35
0100
0000
1100
0000
0101
0000
0010
0100
,  // measure 36
0010
0100
0010
0000
1000
0001
1000
0001
0000
0000
1001
0000
0000
0000
0000
0000
,  // measure 37
0002
0000
0000
0203
0000
0000
0302
0000
0000
0000
1003
0000
0100
0000
0010
0000
,  // measure 38
0100
1000
0002
0000
0100
0000
0103
0000
,  // measure 39
0001
1000
0001
1000
0000
0010
0000
0100
0000
0010
0000
1000
0001
0000
0000
0000
,  // measure 40
0010
0000
0100
0000
1000
0001
1000
0001
0000
0000
1001
0000
0000
0000
0000
0000
,  // measure 41
1000
0000
1000
0000
0010
0100
0000
0001
0000
0100
0000
0001
1000
0000
0000
0000
,  // measure 42
0020
0000
0000
0230
0000
0000
0320
0000
0000
0000
0000
0000
0130
0000
0001
0000
,  // measure 43
0010
1000
0010
0001
1000
0010
0100
0000
,  // measure 44
0002
0000
0000
0003
0000
1001
0000
0000
,  // measure 45
0101
0000
0000
0100
0000
0000
0110
0000
0000
0000
1000
0000
0100
0000
0001
0000
,  // measure 46
0100
1000
0001
0001
0010
0100
0010
0001
,  // measure 47
0100
0000
0001
0010
1000
0010
0001
0000
,  // measure 48
0100
0000
0010
0000
1000
0001
1000
0001
0000
0000
1001
0000
0000
0000
0000
0000
,  // measure 49
0110
0000
0000
0010
0000
0000
1010
0000
0000
0000
0001
0000
0010
0000
1000
0000
,  // measure 50
0010
0001
1000
1000
0100
0010
0100
1000
,  // measure 51
0010
0101
0110
0100
,  // measure 52
0000
0000
0010
0000
0100
0000
0010
0000
0100
0000
0001
0000
0000
0000
0000
1001
0000
0000
0000
0000
0000
0000
0000
0000
,  // measure 53
1000
0000
0000
1000
0100
0000
0000
0000
0010
0000
0000
0010
0100
0000
0000
0000
,  // measure 54
1000
0000
0001
1000
0000
0100
0000
2000
0000
0000
0001
0000
3001
0000
0000
0000
,  // measure 55
0100
0001
0010
0100
0010
0001
0100
0000
,  // measure 56
0010
0000
0000
0100
0000
0000
0001
0000
0000
0000
1000
0000
0100
0000
1000
0000
,  // measure 57
0001
0000
0000
0001
0100
0000
0000
0000
0010
0000
0000
0010
0100
0000
0000
0000
,  // measure 58
0001
0000
1000
0001
0000
0100
0000
0002
0000
0000
1000
0000
1003
0000
0000
0000
,  // measure 59
0001
1000
0100
0010
0100
1000
0001
0000
,  // measure 60
0100
0001
0100
0001
0000
0010
0100
0010
0000
0100
1000
0100
0000
0010
0100
0020
,  // measure 61
0000
0000
0030
0000
;

//---------------dance-single - ----------------
#NOTES:
     dance-single:
     :
     Challenge:
     9:
     0.645,0.601,0.242,0.199,0.717:
0001
0000
0000
0001
0100
0000
0010
0000
0100
0000
0000
0000
0001
0000
0000
0000
,
1000
0000
0000
1000
0100
0000
0010
0000
0100
0000
0000
0000
0010
0000
0000
0000
,
0001
0000
0000
0001
1000
0000
0010
0000
1000
0000
0000
0000
0001
0000
1000
0001
,
1000
0000
0100
0000
0010
0000
0001
0000
0001
0000
1000
0000
0010
0200
0000
0000
,
0301
0000
0000
0001
1000
0000
0000
1000
0100
0000
0000
0100
0010
0000
0000
0010
,
0001
0000
1000
0010
0000
0100
0000
0002
0000
0000
1000
0000
1003
0000
0000
0000
,
0100
0000
0000
0100
1000
0000
0000
1000
0001
0000
0000
0001
0100
0000
0000
0100
,
0010
0000
0000
1010
0000
0000
0110
0000
0000
0000
0001
0000
0100
0020
0000
0000
,
1030
0000
0000
1000
0001
0000
0000
0001
0010
0000
0000
0010
0100
0000
0000
0100
,
1000
0000
0001
0100
0000
0010
0000
2000
0000
0000
0001
0000
3001
0000
0000
0000
,
0100
0000
0000
0100
0001
0000
0000
0001
1000
0000
0000
1000
0100
0000
0000
0000
,
1000
0100
1000
0001
0000
0010
0100
0020
0000
0000
0000
0000
0030
0000
0000
0000
,
1001
0000
0000
0001
1000
0000
0100
0000
0010
0000
0000
0000
0100
0000
1000
0000
,
0001
0000
0000
0001
1000
0000
0010
0000
0100
0000
0000
0000
0001
0000
0100
0000
,
0010
0000
0000
0010
0100
0000
0001
0000
1000
0000
0000
0000
0100
0000
0010
0000
,
0001
0000
0000
0001
1000
0000
0010
0000
0100
0000
0001
0000
0100
0010
0000
0000
,
0110
0000
0000
0110
0000
0000
0000
0000
0001
0000
0000
0000
0100
0000
0010
0000
,
1000
0000
0000
1000
0001
0000
0010
0000
0100
0000
0000
0000
0010
0001
0010
0001
,
1000
0000
0000
1000
0010
0000
0100
0000
0010
0000
0000
0000
0100
0000
0001
0000
,
1000
0000
0000
1000
0010
0000
0100
0000
0001
0000
0010
0000
0100
0000
0000
0000
,
1001
0000
0000
1000
0100
0000
0000
0100
0001
0000
0000
0001
0100
0000
0000
0100
,
2000
0000
0000
0000
3010
0100
0001
1000
0002
0000
0000
0000
0103
0000
0000
0000
,
1001
0000
0000
0001
0100
0000
0000
0100
1000
0000
0000
1000
0100
0000
0000
0100
,
0002
0000
0000
0000
0103
0010
1000
0001
1000
0000
0100
0000
0010
0000
0000
0000
,
1001
0000
0000
0001
0010
0000
0000
0010
1000
0000
0000
1000
0010
0000
0000
0010
,
0001
0000
0000
0001
1000
0000
0000
1000
0010
0000
0000
0010
0100
0000
0000
0000
,
0001
0010
0100
0000
1000
0001
1000
0000
0010
0000
0010
0000
0100
0000
0110
0000
,
0000
0000
0001
0000
0010
0000
0100
0000
1000
0000
0001
0000
0000
0000
0000
1001
0000
0000
0000
0000
0000
0000
0000
0000
,
0110
0000
0000
0001
1000
0000
0001
0000
0001
0000
1000
0000
0100
0000
0001
0000
,
0100
0000
1000
0001
0000
0001
1000
0000
0010
0100
0000
0001
0000
0100
0010
0000
,
1000
0000
0100
0000
0010
0000
0100
1000
0100
0000
0010
0000
0001
1000
0001
0000
,
0100
0000
0001
0000
1000
0010
0100
0001
0000
0000
1001
0000
0000
0000
0000
0000
,
0110
0000
0000
1000
0001
0000
1000
0000
1000
0000
0001
0000
0100
0000
1000
0000
,
0100
0000
0001
1000
0000
1000
0001
0000
0100
0010
0000
1000
0000
0010
0100
0000
,
0001
0000
0000
0001
0100
0000
0000
0100
0010
0000
0000
0010
1000
0000
0001
0000
,
0010
0001
0010
0000
0001
0100
0010
1000
0000
0000
2002
0000
0000
0000
3003
0000
,
1010
0000
0000
0110
0000
0000
0102
0000
0000
0000
1003
0000
0100
0000
1000
0001
,
0000
0001
1000
0000
0100
0010
0100
0000
1000
0000
0100
0000
0010
0000
0000
0000
,
0001
0100
0010
1000
0000
0010
0000
0100
0000
0010
0000
1000
0001
0000
0010
0000
,
0100
0000
0010
0000
0001
0100
0010
1000
0000
0000
2002
0000
0000
0000
3003
0000
,
0001
0000
0100
0000
0001
1000
0000
0100
0000
0010
0000
0001
1000
0100
1000
0000
,
1100
0000
0000
0110
0000
0000
0022
0000
0000
0000
0033
0000
0001
1000
0010
1000
,
0001
0000
0010
0000
0100
1000
0000
1000
0001
0000
0100
0000
0010
0100
0000
0100
,
0001
0000
0001
0000
1000
0100
1000
0001
0000
0000
1001
0000
0000
0000
0000
0000
,
1001
0000
0000
1000
0020
0000
0100
0000
0130
0000
0001
0000
0010
0000
1000
0000
,
0010
0000
0002
0000
1000
0000
1003
0000
0100
1000
0000
0001
0000
0100
0001
0000
,
1000
0000
0001
0000
0010
0000
0100
0010
0100
0000
0010
0000
0001
1000
0001
0000
,
0100
0000
0010
0000
1000
0100
0010
0001
0000
0000
1001
0000
0000
0000
0000
0000
,
1001
0000
0000
0001
0200
0000
0010
0000
0310
0000
1000
0000
0100
0000
0001
0000
,
0100
0000
2000
0000
0001
0000
3001
0000
0010
0001
0000
1000
0000
0010
1000
0000
,
0001
1000
0001
0000
0010
0000
0100
0000
1000
0000
0010
0000
0100
0010
0100
0000
,
0000
0000
0010
0000
1000
0000
0100
0000
0010
0000
0001
0000
0000
0000
0000
1001
0000
0000
0000
0000
0000
0000
0000
0000
,
0001
0000
0000
0001
1000
0000
0000
1000
0100
0000
0000
0100
0010
0000
0000
0010
,
0001
0000
0100
0010
0000
1000
0000
0020
0000
0000
0100
0000
0130
0000
0000
0000
,
0001
0000
0000
0001
0100
0000
0000
0100
0010
0000
0000
0010
1000
0000
0000
1000
,
0001
0000
0000
0101
0000
0000
0110
0000
0000
0000
1000
0000
0010
0200
0000
0000
,
0301
0000
0000
0001
1000
0000
0000
1000
0100
0000
0000
0100
0010
0000
0000
0010
,
0100
0000
1000
0001
0000
0010
0000
0200
0000
0000
0010
0000
0310
0000
0000
0000
,
0001
0000
0000
0001
0100
0000
0000
0100
0010
0000
0000
0010
1000
0000
0000
1000
,
0001
0010
0001
1000
0000
0100
0010
0100
0000
1000
0010
0100
0000
0001
1000
0002
,
0000
0000
0003
0000
;

//---------------dance-single - ----------------
#NOTES:
     dance-single:
     :
     Beginner:
     1:
     0.077,0.104,0.043,0.000,0.004:
1000
0000
0000
0000
,
0001
0000
0000
0000
,
1000
0000
0000
0000
,
1000
0000
0000
0000
,
1001
0000
0000
0000
,
0010
0000
0000
0000
,
0010
0000
0000
0000
,
0010
0000
0000
0000
,
0110
0000
0000
0000
,
0100
0000
0000
0000
,
0100
0000
0000
0000
,
0100
0000
0000
0000
,
1000
0000
0000
0000
,
0001
0000
0000
0000
,
1000
0000
0000
0000
,
0001
0000
0000
0000
,
1001
0000
0000
0000
,
0001
0000
0000
0000
,
1000
0000
0000
0000
,
0001
0000
0000
0000
,
0100
0000
0000
0000
,
0000
0000
0000
0000
,
0100
0000
0000
0000
,
0000
0000
0000
0000
,
0100
0000
0000
0000
,
0000
0000
0000
0000
,
0100
0000
0000
0000
,
0110
0000
0000
0000
,
0001
0000
0000
0000
,
0000
0000
0000
0000
,
1000
0000
0000
0000
,
0000
0000
0000
0000
,
0001
0000
0000
0000
,
0000
0000
0000
0000
,
0010
0000
0000
0000
,
0100
0000
0000
0000
,
1000
0000
0001
0000
,
1000
0000
0000
0000
,
0001
0000
1000
0000
,
0001
0000
0000
0000
,
0100
0000
0000
0000
,
0100
0000
0000
0000
,
0010
0000
0000
0000
,
0010
0000
0000
0000
,
0100
0000
0000
0000
,
0010
0000
0000
0000
,
1000
0000
0000
0000
,
0001
0000
0000
0000
,
1000
0000
0000
0000
,
0100
0000
0000
0000
,
0010
0000
0000
0000
,
0001
0000
0000
0000
,
1001
0000
0000
0000
,
1000
0000
0000
0000
,
0001
0000
0000
0000
,
1000
0000
0000
0000
,
0100
0000
0000
0000
,
0010
0000
0000
0000
,
0001
0000
0000
0000
,
0100
0000
0000
0000
0000
0000
0000
0000
0000
0000
0000
0000
0000
0000
0000
0100
;
