#TITLE:Starry☆night;
#SUBTITLE:;
#ARTIST:Qrispy Joybox feat. mao;
#TITLETRANSLIT:Starry night;
#SUBTITLETRANSLIT:;
#ARTISTTRANSLIT:;
#CREDIT:DigiMindAxel;
#BANNER:Starry night.png;
#BACKGROUND:Starry night-bg.png;
#LYRICSPATH:Starry night.lrc;
#CDTITLE:REFLEC BEAT.png;
#MUSIC:Starry night.mp3;
#OFFSET:-6.045;
#SAMPLESTART:68.589;
#SAMPLELENGTH:12.000;
#SELECTABLE:YES;
#BPMS:0.000=184.000;
#STOPS:;
#BGCHANGES:;

//---------------dance-single - ----------------
#NOTES:
     dance-single:
     :
     Easy:
     3:
     0.199,0.243,0.060,0.112,0.000:
0002
0000
0000
0000
0000
0000
0000
1003
,
0000
0000
0000
0000
,
0002
0000
0000
0000
0000
0000
0000
1003
,
0000
0000
0000
0000
,
0001
0000
0001
0000
,
1000
0000
1000
0000
,
1001
0000
0000
0000
0000
0000
0000
0010
,
0000
0000
0000
0000
,
1000
0000
0001
0000
,
1000
0000
0001
0000
,
0100
0000
0001
0000
,
1000
0000
0010
0000
,
1000
0000
0100
0000
,
0010
0000
0001
0000
,
0110
0000
0000
0000
0000
0000
0000
0100
,
0000
0000
0000
0000
,
0001
0000
0100
0000
,
0001
0000
0100
0000
,
0010
0000
1000
0000
,
0010
0000
1000
0000
,
0100
0000
0010
0000
,
0100
0000
0010
0000
,
0001
0000
1000
0000
,
0001
0000
1000
0000
,
0100
0000
1000
0000
,
0100
0000
1000
0000
,
0010
0000
0100
0000
,
0010
0000
0100
0000
,
0001
0000
0010
0000
,
0001
0000
0010
0000
,
0001
0000
0001
0000
,
1000
0000
1000
0000
,
1001
0000
0010
0000
,
0020
0000
0000
0030
,
0000
0000
0100
0000
,
0200
0000
0000
0300
,
0010
0000
0010
0000
,
0100
0000
0010
0000
,
2000
0000
0000
0000
,
3001
0000
0000
0000
,
1000
0000
0100
0000
,
1000
0000
0010
0000
,
0100
0000
0100
0000
,
0001
0000
1000
0000
,
1001
0000
0001
0000
,
0001
0000
0001
0000
,
1000
0000
1000
0000
,
1000
0000
0000
0000
,
0010
0000
0100
0010
,
0100
0000
0001
0000
,
1000
0000
0001
0000
,
0010
0000
0001
1000
,
0001
0000
1000
0000
,
0001
0000
1000
0000
,
0100
1000
0100
0000
,
0010
0000
0100
0000
,
0010
0000
0001
1000
,
0001
0000
1000
0000
,
0001
0000
0010
0100
,
0010
0000
0100
0000
,
1001
0000
0001
0000
,
1000
0000
0001
0000
,
0110
0000
0000
0000
0000
0000
0000
0100
,
0000
0000
0000
0000
,
0001
1000
0001
0000
,
0010
0000
0100
0000
,
1000
0001
1000
0000
,
0100
0000
0010
0000
,
0001
1000
0001
0000
,
0100
0000
0010
0000
,
1001
0000
0000
0000
0000
0000
0000
0001
,
0000
0000
0000
0000
,
0200
0000
0000
0000
0000
0000
0000
0320
,
0000
0000
0000
0030
,
2000
0000
0000
0000
0000
0000
0000
3002
,
0000
0000
0000
0003
,
0020
0000
0000
0000
0000
0000
0000
0230
,
0000
0000
0000
0300
,
2000
0000
0000
0000
0000
0000
0000
0002
,
0000
0000
0000
0000
,
0000
0000
0000
0000
,
3003
0000
0000
0000
;

//---------------dance-single - ----------------
#NOTES:
     dance-single:
     :
     Medium:
     6:
     0.384,0.417,0.180,0.283,0.000:
2000
0000
0000
0000
0000
0000
0000
3002
,
0000
0000
0000
0000
,
0203
0000
0000
0000
0000
0000
0000
0320
,
0000
0000
0000
0000
,
1030
1000
0001
0001
,
1000
0001
1000
0001
,
0220
0000
0000
0000
0000
0330
0000
2002
,
0000
0000
0000
3003
,
0001
1000
0001
0100
,
0001
1000
0001
0100
,
0001
0010
0100
1000
,
0010
0100
0010
0000
,
1000
0010
1000
0001
,
1000
0010
1000
0100
,
0220
0000
0000
0000
0000
0330
0000
2002
,
0000
0000
0000
3003
,
0001
0100
0001
0000
,
0100
0001
0100
0000
,
0010
0100
0010
0000
,
1000
0100
1000
0000
,
0010
0100
0010
0100
,
0010
1000
0001
1000
,
0002
0000
0023
0000
,
0230
0000
1300
0000
,
1001
0000
1000
0001
,
1000
0100
1000
0001
,
0100
0001
0010
0001
,
0100
0010
0100
0001
,
0010
0100
1000
0010
,
0100
0010
1000
0100
,
0010
0100
1000
0010
,
0100
0000
0001
1000
0001
0000
1000
0000
,
1001
0000
0000
0000
0102
0000
0000
2003
,
0000
0000
0000
0000
0000
3010
0000
0110
,
0000
0000
0000
0000
0002
0000
0000
2003
,
0000
3100
0010
0001
,
0200
0000
0000
0000
0310
0000
0100
0010
,
0000
1000
0000
0001
0000
1000
0000
0020
,
0000
0000
0000
0000
0000
0100
0000
0130
,
0000
0001
1000
0001
,
1001
0000
0100
0000
0010
0000
0100
1000
,
0000
0010
0010
0010
,
0100
0000
0001
0000
0010
0000
0100
0010
,
0000
0001
1000
0001
,
1001
0100
0010
0100
,
1000
0000
0001
0000
0100
0010
0100
0000
,
0001
0010
0100
1000
,
0110
0000
0000
0000
,
0010
0000
1000
0000
0001
0000
0100
0001
,
0100
0010
1000
0100
,
0010
0000
0100
0000
1000
0001
1000
0000
,
0010
0000
0100
0000
0001
1000
0100
1000
,
0000
0001
0100
0001
0000
1000
0100
1000
,
0000
0010
0000
0100
0000
0010
0000
0000
,
1000
0000
0001
1000
0000
0100
0000
0010
,
0000
0001
0000
1000
0000
0001
0000
0000
,
1001
0000
0000
0000
0001
0000
0100
0010
,
0100
0001
0010
0100
,
1000
0000
0001
0000
0100
0010
0100
0000
,
0010
1000
0100
0010
,
1001
0000
0010
0000
0100
0000
0010
0001
,
0010
0100
1000
0010
,
0110
0000
0010
0100
0000
0001
0000
2002
,
0000
0000
0000
3003
,
0100
0000
0001
0000
1000
0100
1000
0000
,
0100
1000
0100
0000
0010
0000
0100
0000
,
1000
0001
1000
0000
0010
0000
0100
0000
,
0001
0100
0001
0000
0010
0000
0100
0000
,
0010
0001
0010
0000
0001
1000
0001
0000
,
0010
0100
1000
0001
,
1001
0000
0001
1000
0000
0010
0000
0220
,
0000
0000
0000
0330
,
0102
0000
0000
0000
0000
0000
0000
0200
,
0000
0000
0000
0303
,
2100
0000
0000
0000
0000
0000
0000
0200
,
0000
0000
0000
3300
,
0120
0000
0000
0000
0000
0000
0000
0200
,
0000
0000
0000
0330
,
2001
0000
0000
0000
0000
0000
0000
0002
,
0000
0000
0000
0000
,
0000
0000
0000
0000
,
3003
0000
0000
0000
;

//---------------dance-single - ----------------
#NOTES:
     dance-single:
     :
     Hard:
     7:
     0.501,0.556,0.275,0.369,0.000: // measure 1
0101
0000
0000
0000
0100
0000
0000
2020
,  // measure 2
0000
0000
0000
3030
,  // measure 3
1100
0000
0000
0000
0100
0000
0000
0022
,  // measure 4
0000
0000
0000
0033
,  // measure 5
0001
0100
0010
0000
1000
0100
0010
0000
,  // measure 6
0001
0010
0100
0000
0010
0001
1000
0000
,  // measure 7
1001
0000
1000
0100
0000
0010
0000
0220
,  // measure 8
0000
0000
0000
0330
,  // measure 9
1001
0000
0001
0000
1000
0010
1000
0000
,  // measure 10
0100
0010
0100
0000
1000
0100
0010
0000
,  // measure 11
0002
0203
0320
0130
,  // measure 12
0001
0010
0001
0000
0100
0010
0100
0000
,  // measure 13
0001
0100
0010
0000
0100
0010
0100
0000
,  // measure 14
0001
0010
0200
0000
0320
0000
0031
0000
,  // measure 15
0220
0000
0000
0000
0000
0330
0000
2002
,  // measure 16
0000
0000
0000
3003
,  // measure 17
1001
0000
1000
0000
1000
0010
0100
0000
,  // measure 18
0100
0100
0100
0100
,  // measure 19
0001
0000
0001
0000
0001
0010
0100
0000
,  // measure 20
0100
0100
0100
0100
,  // measure 21
1000
0000
1000
0000
1000
0001
0010
0000
,  // measure 22
0010
0010
0010
0010
,  // measure 23
0120
1000
1000
1030
,  // measure 24
0210
0001
0001
0301
,  // measure 25
1001
0000
0100
0001
0100
0000
0001
0100
,  // measure 26
0010
0000
1000
0000
0100
1000
0010
0000
,  // measure 27
0100
0000
0010
0000
0100
0001
0100
0000
,  // measure 28
0001
0000
0010
0000
0100
1000
0010
0000
,  // measure 29
0100
0010
0100
0000
0001
0000
1000
0000
,  // measure 30
0100
0000
0010
0100
0010
0000
0001
0000
,  // measure 31
1000
0010
0100
0000
0010
0100
0001
0000
,  // measure 32
0010
0100
0010
0000
0001
0000
0101
0000
,  // measure 33
1001
0000
0000
0000
2100
0000
0000
3200
,  // measure 34
0000
0000
0000
0300
0000
1100
0000
1001
,  // measure 35
0000
0000
0000
0000
0002
0000
0000
0203
,  // measure 36
0000
0000
0301
0000
1000
0100
0010
0000
,  // measure 37
0200
0000
0000
0000
0310
0000
0001
1000
,  // measure 38
0000
0010
0000
0100
0000
0001
1000
0002
,  // measure 39
0000
0000
0000
0000
0000
0103
0000
0101
,  // measure 40
0000
2000
3200
0310
,  // measure 41
1001
0000
1000
0000
0010
0100
0001
0101
,  // measure 42
0000
2000
3002
1003
,  // measure 43
0010
1000
0100
0000
0010
0001
1000
1010
,  // measure 44
0000
1000
0001
0010
0100
1000
0001
0000
,  // measure 45
1001
0000
0010
0100
0001
0000
0010
0000
,  // measure 46
0100
1000
0010
0000
0100
0010
0100
0000
,  // measure 47
0001
0010
0100
1000
0001
0000
0101
0000
,  // measure 48
2002
0000
0000
3003
,  // measure 49
1001
0000
0001
0010
1000
0000
0010
0001
,  // measure 50
1000
0000
0100
0000
0001
0100
1000
0000
,  // measure 51
0010
1000
0100
0000
0010
0100
1000
0010
,  // measure 52
0100
0000
0001
0000
1000
0100
0010
0001
,  // measure 53
0000
0001
0100
1000
0000
1000
0100
0001
,  // measure 54
0000
1000
0000
0010
0000
0110
0000
0000
,  // measure 55
0001
0100
0001
1000
0100
0010
0000
0001
,  // measure 56
0100
0010
0000
1000
0100
0010
0001
0000
,  // measure 57
1001
0000
0001
0000
1000
0100
0001
0000
,  // measure 58
0100
1000
0001
0000
0010
0000
1000
0000
,  // measure 59
0010
0001
1000
0000
0100
0010
0001
0010
,  // measure 60
0100
0000
1000
0000
0010
0000
0100
0001
,  // measure 61
2000
0000
0100
0000
3100
0000
1000
0001
,  // measure 62
0200
0010
0310
1000
,  // measure 63
1001
0000
0001
1000
0000
0010
0000
0220
,  // measure 64
0000
0000
0000
0330
,  // measure 65
1000
0100
0001
0000
0100
1000
0010
0100
,  // measure 66
0010
1000
0100
0000
0001
0100
1000
0000
,  // measure 67
0001
0010
1000
0000
0010
0001
0010
0100
,  // measure 68
0010
0001
0010
0000
1000
0010
0001
0000
,  // measure 69
1000
0010
0100
0000
0010
0100
0001
0010
,  // measure 70
0100
1000
0001
0010
0100
0010
0001
0000
,  // measure 71
1001
0000
1000
0001
0000
0100
0000
0220
,  // measure 72
0000
0000
0000
0330
,  // measure 73
2000
0000
0000
0000
0000
0000
0000
0002
,  // measure 74
0000
0000
0000
3003
,  // measure 75
0002
0000
0000
0000
0000
0000
0000
0200
,  // measure 76
0000
0000
0000
0303
,  // measure 77
2000
0000
0000
0000
0000
0000
0000
0200
,  // measure 78
0000
0000
0000
3300
,  // measure 79
0002
0000
0000
0000
0000
0000
0000
2000
,  // measure 80
0000
0000
0000
0000
,  // measure 81
0000
0000
0000
0000
,  // measure 82
3003
0000
0000
0000
;

//---------------dance-single - ----------------
#NOTES:
     dance-single:
     :
     Challenge:
     8:
     0.554,0.626,0.292,0.206,0.000:
1001
0000
0001
0000
0101
0000
0010
0100
,
0010
1000
0001
1000
,
1001
0000
1000
0000
1100
0000
0010
0100
,
0010
0001
1000
0001
,
1000
0010
1000
0001
0010
0100
1000
0000
,
0100
0010
0001
1000
0010
1000
0001
0000
,
1001
0000
0010
0100
0000
0001
0000
0202
,
0000
0000
0000
0303
,
1001
0000
0001
1000
0100
0001
0100
1000
,
0001
0100
0010
0000
0100
0001
0010
0000
,
1000
0010
0001
0010
0100
0010
0001
0000
,
0010
0100
1000
0001
0100
0010
0100
0000
,
0001
0100
0001
1000
0100
0001
0100
1000
,
0010
0100
0001
0000
0010
0100
1000
0010
,
0210
0000
0001
0000
0001
0000
0301
2002
,
0000
0000
0000
3003
,
1001
0000
1000
0000
0010
0100
0001
0010
,
0000
0100
0000
1000
0001
0000
0100
0000
,
0010
0000
0100
0000
0001
0010
0100
1000
,
0000
0100
0000
0010
0000
0100
0010
0000
,
1001
0000
0001
0000
1000
0010
0100
0001
,
0000
1000
0000
0010
0000
0100
0000
0010
,
1000
0100
0010
0000
0010
0100
1000
0000
,
0001
0100
0010
0000
0010
0100
0001
0000
,
1001
0000
1000
0000
1100
0000
1000
0001
,
0100
0000
0001
0100
0010
0001
0010
0000
,
1001
0000
0001
0000
0101
0000
0001
1000
,
0100
0000
1000
0010
0100
1000
0100
0000
,
1001
0000
0010
0000
0110
0000
1000
0010
,
0100
0000
0001
0010
0100
0010
0001
0000
,
1001
0000
0100
0000
0110
0000
0001
0100
,
0010
0000
1000
0100
0010
0100
1000
0000
,
1001
0000
0100
0000
0001
0000
0100
1000
,
0002
0000
1000
0000
1003
0010
0000
0100
,
0001
0000
0010
0000
1000
0000
0010
0001
,
1000
0000
0100
0000
0010
0100
1000
0000
,
0010
0000
0100
0000
0010
0000
1000
0001
,
0000
0010
0000
0100
0000
1000
0000
0020
,
0000
0000
0000
0000
0000
0130
0000
0001
,
0000
1000
0100
0010
,
1001
0000
0001
0010
0100
0010
0001
0200
,
0000
0000
0310
1000
0100
0000
1100
0000
,
1000
0100
0010
0000
0001
0100
0010
0100
,
0001
0010
0100
1000
0001
0000
1000
0000
,
1001
0001
0011
0100
,
0110
1000
1100
0001
,
0010
0100
1000
0100
0010
0001
0100
0000
,
2002
0000
0000
3003
,
1001
0000
0010
0100
0010
0001
0100
1000
,
0100
0001
0010
0100
0010
0001
0100
0000
,
0001
0010
0100
0000
0010
0001
1000
0100
,
0010
0100
1000
0001
0000
1000
0100
0001
,
0000
0001
0100
1000
0000
1000
0100
0001
,
0000
0100
0000
1000
0000
1001
0000
0000
,
0010
0100
0010
1000
0100
0001
0100
1000
,
0001
0100
0010
0100
0001
0010
0100
0000
,
1001
0000
0010
0100
0010
1000
0100
0001
,
0100
1000
0001
0100
0010
0100
0001
0000
,
1000
0000
1000
0010
0100
0001
0010
0100
,
0010
0000
0001
0000
0100
0000
0010
1000
,
0002
0000
1000
0000
0103
0000
0001
2000
,
0000
0100
0010
3100
,
1001
0000
1000
0001
0000
0100
0000
0220
,
0000
0000
0000
0330
,
0001
0010
1000
0010
0001
0100
0010
0100
,
0001
0010
0100
1000
0010
0100
0001
0000
,
1000
0100
0001
0100
1000
0010
0100
0010
,
1000
0100
0010
0001
0100
0010
1000
0000
,
0001
0010
1000
0010
0001
0100
0010
1000
,
0100
0001
0100
1000
0010
0100
0001
1000
,
1001
0000
0001
1000
0000
0100
0000
0220
,
0000
0000
0000
0330
,
2000
0000
0000
0000
0000
0000
0000
0020
,
0000
0000
0000
3030
,
0002
0000
0000
0000
0000
0000
0000
0200
,
0000
0000
0000
0303
,
0200
0000
0000
0000
0000
0000
0000
0002
,
0000
0000
0000
0303
,
0020
0000
0000
0000
0000
0000
0000
2000
,
0000
0000
0000
0000
,
0000
0000
0000
0000
,
3030
0000
0000
0000
;

//---------------dance-single - ----------------
#NOTES:
     dance-single:
     :
     Beginner:
     1:
     0.066,0.134,0.060,0.000,0.000:
1000
0000
0000
0000
,
0000
0000
0000
0000
,
1000
0000
0000
0000
,
0000
0000
0000
0000
,
1001
0000
0000
0000
,
0000
0000
0000
0000
,
0001
0000
0000
0000
,
0000
0000
0000
0000
,
0100
0000
0000
0000
,
0100
0000
0000
0000
,
0100
0000
0000
0000
,
0000
0000
0000
0000
,
0010
0000
0000
0000
,
0010
0000
0000
0000
,
0010
0000
0000
0000
,
0000
0000
0000
0000
,
1001
0000
0000
0000
,
0000
0000
0000
0000
,
0001
0000
0000
0000
,
0000
0000
0000
0000
,
1000
0000
0000
0000
,
0000
0000
0000
0000
,
0001
0000
0000
0000
,
0100
0000
0000
0000
,
0010
0000
0000
0000
,
0000
0000
0000
0000
,
0100
0000
0000
0000
,
0000
0000
0000
0000
,
0100
0000
0000
0000
,
0000
0000
0000
0000
,
0010
0000
0000
0000
,
0000
0000
0000
0000
,
0110
0000
0000
0000
,
0000
0000
0000
0000
,
0000
0000
1000
0000
,
0000
0000
0000
0000
,
0001
0000
0000
0000
,
0000
0000
0000
0000
,
1000
0000
0000
0000
,
0000
0000
0000
0000
,
1001
0000
0000
0000
,
0000
0000
0000
0000
,
0001
0000
0000
0000
,
0000
0000
0000
0000
,
1000
0000
0000
0000
,
0000
0000
0000
0000
,
0001
0000
0000
0000
,
1001
0000
0000
0000
,
0100
0000
0000
0000
,
0000
0000
0000
0000
,
0010
0000
0000
0000
,
0000
0000
0000
0000
,
0100
0000
0000
0000
,
0000
0000
0000
0000
,
0010
0000
0000
0000
,
0000
0000
0000
0000
,
1001
0000
0000
0000
,
0000
0000
0000
0000
,
1000
0000
0000
0000
,
0000
0000
0000
0000
,
0001
0000
0000
0000
,
1000
0000
0000
0000
,
1001
0000
0000
0000
,
0000
0000
0000
0000
,
0010
0000
0000
0000
,
0010
0000
0000
0000
,
0010
0000
0000
0000
,
0000
0000
0000
0000
,
0100
0000
0000
0000
,
0100
0000
0000
0000
,
0100
0000
0000
0000
,
0000
0000
0000
0000
,
0001
0000
0000
0000
,
0000
0000
0000
0000
,
0001
0000
0000
0000
,
0000
0000
0000
0000
,
1000
0000
0000
0000
,
0000
0000
0000
0000
,
1000
0000
0000
0000
;
