#TITLE:Sol Cosine Job 2;
#SUBTITLE:;
#ARTIST:DJ TECHNORCH;
#TITLETRANSLIT:;
#SUBTITLETRANSLIT:;
#ARTISTTRANSLIT:;
#CREDIT:DigiMindAxel;
#BANNER:Sol Cosine Job 2.png;
#BACKGROUND:Sol Cosine Job 2-bg.png;
#LYRICSPATH:;
#CDTITLE:beatmania IIDX.png;
#MUSIC:Sol Cosine Job 2.mp3;
#OFFSET:-6.780;
#SAMPLESTART:21.899;
#SAMPLELENGTH:12.000;
#SELECTABLE:YES;
#BPMS:0.000=190.000,212.000=195.000,228.000=200.000;
#STOPS:242.000=0.300
;
#BGCHANGES:-22.000=Sol Cosine Job 2.avi=1.000=1=1=0,
99999=-nosongbg-=1.000=0=0=0 // don't automatically add -songbackground-
;

//---------------dance-single - ----------------
#NOTES:
     dance-single:
     :
     Easy:
     4:
     0.370,0.397,0.186,0.145,0.000:
1000
1000
1000
1000
,
0001
0001
0001
0001
,
0010
0100
1000
0010
,
0100
0001
1000
0001
,
1000
0000
0000
0000
,
2002
0000
0000
3003
,
1001
0000
0000
0000
,
0110
0000
0000
0000
,
1001
0000
0000
0000
,
1000
0100
0010
0001
,
1000
1000
0001
0001
,
2000
0000
0000
3000
,
0010
0100
0010
0100
,
0001
1000
0001
1000
,
0010
0100
0010
0100
,
0001
0010
0100
1000
,
0100
0010
0100
0010
,
0100
1000
0100
1000
,
0001
0100
0001
0100
,
0020
0100
0100
0130
,
0001
0010
0001
0010
,
0001
1000
0001
1000
,
0100
0010
0100
0010
,
0001
1000
0001
1000
,
0100
0010
0100
0010
,
0001
1000
0001
1000
,
0010
0010
0010
0010
,
0200
0000
0000
0300
,
0220
0000
0000
0330
,
0010
0100
0010
0100
,
0001
0001
0001
0001
,
0100
0010
0100
0010
,
1000
1000
1000
1000
,
0001
0100
0001
0100
,
0010
0010
0010
0010
,
1000
0010
1000
0010
,
0100
0100
0100
0100
,
0001
0010
0001
0010
,
0100
0100
0100
0100
,
1000
0100
1000
0100
,
0010
0010
0010
0010
,
0001
1000
0001
1000
,
0100
0010
0001
0010
,
0100
0100
0010
0010
,
0001
1000
0001
0100
,
0110
0000
0000
0000
,
0000
0000
0000
0000
,
0000
0000
0000
0000
,
0000
0000
0000
0000
,
2002
0000
0000
0000
,
0000
0000
0000
3003
,
0220
0000
0000
0330
,
2002
0000
0000
3003
,
1000
0100
0010
0001
,
1000
1000
0010
0010
,
0100
0001
0010
0100
,
1000
1000
0001
0001
,
0010
0100
0010
0001
,
1000
1000
0010
0010
,
1000
0100
0010
0100
,
1000
0001
0001
1001
,
0000
1001
0000
0110
,
0000
0110
0000
2002
,
0000
0000
0000
0000
,
0000
0000
0000
0000
,
0000
0000
0000
0000
,
0000
0000
3003
0001
,
0100
0001
0100
0001
,
1000
0001
1000
0010
,
1000
0010
1000
0020
,
0000
0000
0030
0110
,
0100
0010
0100
1000
,
0001
1000
0001
0010
,
0001
0010
0001
0010
,
0100
1000
0010
0110
,
0010
0100
0010
0100
,
0001
0100
0001
0010
,
0100
1000
0100
0010
,
0001
1000
0000
0001
,
1000
0001
1000
0010
,
0100
0010
0100
0001
,
0010
0100
0010
0001
,
1000
0001
1000
0100
,
0010
0100
1000
0010
,
0100
0010
0100
0001
,
0010
0100
1000
0010
,
0100
0010
0100
0110
,
0000
0110
0110
0000
,
1001
1001
1001
2002
,
0000
3003
0000
0000
;

//---------------dance-single - ----------------
#NOTES:
     dance-single:
     :
     Medium:
     7:
     0.509,0.613,0.194,0.315,0.000:
0001
0100
0001
1000
,
0100
0010
0001
1000
,
0010
0100
0010
1000
,
0100
0010
0001
0010
,
0100
0000
0000
0000
,
2002
0000
0000
3003
,
1001
0000
0000
1000
0000
0000
0001
0000
,
0010
0000
0000
0100
0000
0000
0010
0000
,
0100
0000
0000
1000
0000
0000
0001
0000
,
1000
0000
0000
0001
0000
0000
0010
0000
,
0100
0000
0000
0010
0000
0000
0001
0000
,
2002
0000
0000
3003
,
1000
0100
1000
0000
0100
1000
0100
0000
,
1000
0001
1000
0000
0001
0100
0001
0000
,
1000
0010
1000
0001
0100
0001
1000
0000
,
1001
0000
0001
0010
0001
1000
0100
0000
,
1000
0001
1000
0000
0001
1000
0001
0000
,
0010
0001
0010
0000
0100
1000
0010
0000
,
1001
0000
1000
0100
1000
0001
0010
0000
,
0002
0023
0230
2300
,
3001
0010
0001
0000
0010
0001
0010
0000
,
0100
1000
0100
0000
1000
0001
0100
0010
,
1000
0001
1000
0000
0100
0000
0010
0000
,
0200
2300
3002
0203
,
0301
0100
0001
0000
1000
0010
1000
0000
,
0010
0100
0010
0000
0100
0010
1000
0100
,
1000
0100
1000
0000
1100
0000
0001
0100
,
0002
0023
0230
2300
,
3001
0000
0000
0000
0000
0000
1000
0001
,
0100
0000
0010
0100
0000
0001
0000
1000
,
0001
0010
1000
0010
,
0001
0000
0100
0010
0000
1000
0000
0001
,
1000
0100
0001
0100
,
1000
0000
0010
0100
0000
0001
0000
0010
,
0100
1000
0010
0001
,
0010
0000
1000
0001
0000
0010
0000
0100
,
0010
0001
0100
1000
,
0100
0000
0001
1000
0000
1000
0100
0000
,
0010
0001
0010
0001
0010
0001
0010
0000
,
0001
0000
1000
0001
0000
0001
0010
0000
,
0100
1000
0100
1000
0100
1000
0100
0000
,
1000
0000
0001
0100
0000
0100
0010
0000
,
0100
0001
0100
0001
0100
0001
0100
0000
,
0010
0000
1000
0100
0000
0100
0010
0000
,
0001
0100
0001
0100
0010
1000
0001
0000
,
1001
0000
0000
0000
,
0000
0000
0000
0000
,
0000
0000
0000
0000
,
0000
0000
0000
0000
0000
0000
0000
0002
,
0200
0000
0000
0000
,
0000
0000
0000
0000
0000
0303
0000
0020
,
0200
0000
0000
0330
,
1001
0000
0000
1001
0000
0000
1001
0000
,
1000
0000
0010
0000
0100
0001
1000
0000
,
0100
0010
0100
0000
1000
0100
1000
0000
,
0001
0000
0010
0000
0100
0010
0001
0000
,
0100
0010
0100
0000
0001
1000
0001
0000
,
0100
0000
0010
0000
1000
0100
0010
0000
,
0100
1000
0100
0000
0010
0100
0010
0000
,
0001
0000
0010
0000
0100
1000
0010
0000
,
0100
0010
0200
0000
0310
0000
2200
0000
,
3300
0220
0330
0022
,
0033
0220
0330
2002
,
0000
0000
0000
3000
,
0000
0000
0000
0100
,
0000
0000
0000
0000
,
0000
1000
1003
0001
,
0010
0100
0010
0001
,
1000
0100
0010
0100
,
1000
0010
0100
0202
,
0000
0000
0303
0110
,
0010
1000
0000
1000
0010
0000
0100
0000
,
0001
1000
0000
1000
0001
0000
0100
0000
,
0010
0100
0000
0100
0010
0000
1000
0010
,
1000
0000
0001
0100
0001
0100
0010
0000
,
0100
0001
0000
0001
0100
0000
0010
0000
,
1000
0100
0000
0100
1000
0000
0010
0000
,
0100
0001
0000
0001
1000
0000
0010
0100
,
0010
0100
0020
0000
0000
0000
0130
0000
,
0001
1000
0000
1000
0100
0000
0010
0000
,
0001
1000
0100
1000
0001
0000
1000
0100
,
1000
0100
1000
0010
0100
0000
0001
0010
,
0001
0000
1000
0100
1000
0000
0010
0000
,
0100
0001
0000
0001
1000
0000
0100
0000
,
0010
0001
0000
0001
0100
0000
0010
0100
,
0010
0000
0100
0010
1000
0100
2000
0000
,
3020
0230
0301
0110
,
0000
0110
0110
0000
,
1001
1001
1001
2002
,
0000
3003
0000
0000
;

//---------------dance-single - ----------------
#NOTES:
     dance-single:
     :
     Hard:
     9:
     0.640,0.613,0.210,0.323,0.036: // measure 1
1001
0000
1000
0000
0100
0010
0001
0000
,  // measure 2
0110
0000
0001
0000
0010
0100
1000
0000
,  // measure 3
0110
0000
0001
0000
0100
0001
0010
0000
,  // measure 4
0110
0000
1000
0000
0010
0100
0001
0010
,  // measure 5
0200
0000
0000
0300
,  // measure 6
2002
0000
0000
3003
,  // measure 7
2000
0000
0000
3200
0000
0000
0302
0000
,  // measure 8
0203
0000
0000
1300
0001
0010
0100
1000
,  // measure 9
0002
0000
0000
0023
0000
0000
2030
0000
,  // measure 10
3020
0000
0000
0031
1000
0010
0100
0001
,  // measure 11
1000
0100
1000
0100
0010
0001
0010
0001
,  // measure 12
2000
0000
3002
0000
,  // measure 13
1003
0000
1000
0010
0000
0010
0100
0000
,  // measure 14
0001
0000
0001
0100
0000
0100
0010
0010
,  // measure 15
1000
0100
0010
0001
0010
0100
1000
0000
,  // measure 16
0001
0001
1000
1000
0100
0010
0100
1000
,  // measure 17
0001
0000
0001
0010
0000
0010
0100
0000
,  // measure 18
1000
0000
1000
0100
0000
0100
0010
0010
,  // measure 19
0001
0100
0010
1000
0010
0100
0001
1000
,  // measure 20
0100
0100
0010
0010
0100
0100
0020
0000
,  // measure 21
0031
1000
0100
0010
0001
1000
0100
0000
,  // measure 22
0010
0100
1000
0010
0100
0001
1000
1000
,  // measure 23
0001
0010
1000
0010
0001
1000
0100
0000
,  // measure 24
0020
0230
2300
3002
,  // measure 25
1003
0100
0010
0001
0100
0010
0200
0000
,  // measure 26
0301
0010
0100
0010
0001
1000
0010
0010
,  // measure 27
1000
0100
0001
0100
1000
0000
0100
0010
,  // measure 28
0001
0001
1000
1000
0001
0001
0100
0000
,  // measure 29
0220
0000
0000
0000
0330
0000
1000
0001
,  // measure 30
0001
1000
0100
0010
0000
0101
0000
0001
,  // measure 31
1000
0100
0010
0100
1000
0100
0010
0100
,  // measure 32
1000
0001
0010
0100
0000
1010
0000
1000
,  // measure 33
0001
0010
0100
0010
0001
0010
0100
0010
,  // measure 34
0001
1000
0010
0100
0000
0110
0000
0100
,  // measure 35
0001
0010
1000
0010
0001
0010
1000
0010
,  // measure 36
0001
1000
0010
0100
0000
0110
0000
0010
,  // measure 37
1000
0100
0001
0100
1000
0100
0001
0100
,  // measure 38
1000
0000
0000
0010
0100
0000
0002
0000
0000
0000
1003
0000
0000
0000
0001
0000
,  // measure 39
1000
0010
0001
0010
1000
0010
0001
0010
,  // measure 40
1000
0000
0000
0100
0010
0000
0002
0000
0000
0000
1003
0000
0000
0000
0001
0000
,  // measure 41
1000
0100
0001
0100
1000
0100
0001
0100
,  // measure 42
1000
0000
0000
0001
0100
0000
0020
0000
0000
0000
1030
0000
0000
0000
0001
0000
,  // measure 43
0010
1000
0010
0001
0010
1000
0010
0001
,  // measure 44
1000
0000
0000
0100
0010
0000
0002
0000
0000
0000
1003
0000
0000
0000
0001
0000
,  // measure 45
0100
1000
0100
0001
0100
1000
0100
0001
,  // measure 46
2000
0000
0000
0000
,  // measure 47
0000
0000
0000
0000
,  // measure 48
3002
0000
0000
0000
,  // measure 49
2003
0000
0000
0000
0000
3000
0000
0010
,  // measure 50
0220
0000
0000
0000
,  // measure 51
0000
0000
0000
0000
0330
0000
0000
0100
,  // measure 52
0220
0000
0000
0330
,  // measure 53
1001
0000
0000
0001
0000
0000
1000
0000
0000
0001
0000
0000
1000
0000
0001
0000
,  // measure 54
1000
0100
0010
0100
1000
0001
0100
0000
,  // measure 55
0001
0100
0010
0100
0001
0010
0100
0000
,  // measure 56
0010
0001
1000
0100
0001
0100
1000
0000
,  // measure 57
0010
1000
0001
0010
1000
0010
0001
0000
,  // measure 58
1001
0000
1000
0100
0010
0100
1000
0000
,  // measure 59
1001
0000
0001
0010
0100
0010
0001
0000
,  // measure 60
0110
0000
0010
1000
0100
1000
0010
0000
,  // measure 61
0110
0000
0000
0000
0100
0000
0001
0000
0010
0000
0000
0000
1001
0000
0000
0001
,  // measure 62
0000
0000
0001
0000
1000
0000
0000
1000
0000
0000
1000
0000
0100
0000
0000
0100
,  // measure 63
0000
0100
0020
0000
0030
0000
2002
0000
,  // measure 64
0000
0000
0000
0003
,  // measure 65
0000
0000
0000
0100
,  // measure 66
0000
0000
0000
0000
,  // measure 67
0000
0001
3001
1000
,  // measure 68
0100
0001
0100
1000
,  // measure 69
0001
0010
1000
0010
,  // measure 70
0001
1000
0001
0000
1000
0001
2000
0000
,  // measure 71
0000
0000
0002
0000
3003
0000
1000
0010
,  // measure 72
1000
0001
0010
0001
1000
0000
0010
0100
,  // measure 73
0010
1000
0100
1000
0001
0001
1000
0010
,  // measure 74
1000
0001
0010
0001
1000
0100
0010
0001
,  // measure 75
0100
0010
1000
0100
0010
0000
0001
0010
,  // measure 76
0001
1000
0010
1000
0001
0000
0100
0010
,  // measure 77
0100
0001
0010
0001
1000
1000
0001
0010
,  // measure 78
0100
1000
0010
0100
0001
0000
0010
0100
,  // measure 79
0010
0100
2000
0000
0000
0000
3001
0010
,  // measure 80
0001
1000
0100
0001
0100
0000
1000
0010
,  // measure 81
1000
0001
0100
1000
0100
0000
0001
0010
,  // measure 82
0100
0010
0001
0100
0010
0100
0001
0010
,  // measure 83
0100
1000
0100
0010
0001
0000
1000
0010
,  // measure 84
1000
0100
0001
0100
1000
0000
0001
0010
,  // measure 85
0001
0100
1000
0100
0001
0000
0100
0010
,  // measure 86
1000
0100
0010
0100
1000
0001
0100
0100
,  // measure 87
0001
0001
1000
1000
0001
0000
0101
0000
,  // measure 88
0000
1100
1100
0000
,  // measure 89
0110
1001
0110
2002
,  // measure 90
0000
3003
0000
0000
;

//---------------dance-single - ----------------
#NOTES:
     dance-single:
     :
     Challenge:
     10:
     0.792,0.902,0.218,0.170,0.449:
1001
0000
0001
1000
0100
1000
0001
0000
,
1001
0000
1000
0100
0010
0100
1000
0000
,
1100
0000
0010
0001
0010
0100
0010
0000
,
0011
0000
0100
1000
0100
0010
0100
1000
,
0002
0000
0000
0003
,
1000
0010
0200
0000
,
0301
0000
0001
1000
0000
1000
0002
0000
,
1003
0000
1000
0001
1000
0100
0010
0001
,
1000
0000
1000
0001
0000
0001
2000
0000
,
3001
0000
0001
1000
0001
0100
0010
1000
,
0100
0000
0000
1000
0001
0000
0000
0001
1000
0000
0100
0000
0010
0000
0001
0000
,
0100
0010
0100
0010
0100
0010
1000
0100
0010
0002
0000
0000
,
1003
0100
1000
0001
0010
0100
0010
0000
,
0001
0010
0100
1000
0100
0010
0100
0100
,
1000
0000
0010
0000
0100
0000
0000
0001
0100
0000
0000
0100
0010
0000
1000
0000
,
0001
0000
0001
0000
0010
0000
0010
0000
0100
0000
0010
0000
0001
1000
0001
0000
,
1000
0100
0010
0100
1000
0001
0010
0000
,
0100
0000
0000
0100
0001
0000
0010
0000
0100
0000
0000
0100
1000
0000
0001
0000
,
1000
0000
0100
0000
1000
0000
0000
0001
0100
0000
0000
0010
0100
0000
0001
0000
,
1000
0100
1000
0000
0100
1000
0100
0000
0010
0000
0001
0000
0100
0010
0100
0000
,
0001
0000
0000
0001
1000
0000
0100
0000
0010
0000
0100
0000
1000
0000
0000
0000
,
0100
0000
0000
0100
0010
0000
0001
0000
1000
0010
1000
0010
1000
0000
0001
0000
,
0100
0010
0100
0000
0001
0000
0010
0000
0100
0000
1000
0000
0002
0000
0000
0000
,
1003
1000
0010
0010
0100
0100
0001
0001
,
1000
0000
0001
0100
0001
0000
1000
0000
0100
0010
0100
0000
2000
0000
0000
0000
,
3001
0000
0010
0001
0010
0000
0100
0000
1000
0010
1000
0000
0001
0000
0001
0000
,
1000
0000
0100
0010
0100
0000
1000
0000
0001
1000
0001
0000
0010
0000
0100
0000
,
1000
0100
1000
0000
0100
0010
0100
0000
0010
0001
0010
0001
0100
0010
0100
0010
,
2000
0000
0000
0000
0000
0000
0001
3001
,
1000
0000
0100
1000
0100
0000
0010
0000
0000
0000
0101
0000
0000
0000
0001
0000
,
1000
1000
0100
0100
0010
0010
0001
0001
,
1000
0000
0100
1000
0100
0000
0010
0000
0000
0000
0101
0000
0000
0000
0001
0000
,
1000
0000
1000
0000
0010
0000
0010
0000
0100
0010
0100
0010
0100
0000
0001
0000
,
0010
0000
0100
0010
0100
0000
0010
0000
0000
0000
0101
0000
0000
0000
1000
0000
,
0001
0001
0010
0010
0100
0100
1000
1000
,
0001
0000
0010
0100
0010
0000
0100
0000
0000
0000
0101
0000
0000
0000
1000
0000
,
0001
0000
0001
0000
0100
0000
0100
0000
0010
0100
0010
0100
0010
0000
1000
0000
,
0001
0000
0000
0001
0100
0000
0110
0000
0000
0000
0110
0000
0000
0000
1000
0000
,
0001
0010
1000
0010
0001
0100
1000
0100
,
0001
1000
0000
1000
0010
0000
0110
0000
0000
0000
0110
0000
0000
0000
0001
0000
,
1000
0100
0001
0100
1000
0010
0001
0010
,
1000
0000
0000
0010
0100
0000
0020
0000
0000
0000
1030
0001
1000
0000
0001
1000
,
0001
0010
1000
0010
0001
0100
1000
0100
,
0001
0000
0000
0100
0010
0000
0200
0000
0000
0000
0301
1000
0001
0000
1000
0001
,
1000
0000
0100
0000
0001
0000
0100
0000
1000
0001
1000
0000
0010
0100
0010
0100
,
0020
0000
0000
0000
,
0000
0000
0000
0000
,
0200
0000
0000
0030
,
0002
0000
0000
0000
0000
0303
0000
1000
,
1100
0010
0001
0010
,
0100
0000
1000
0000
0001
0000
0100
0001
,
0101
0010
0100
1000
,
1100
0000
0000
1100
0000
0000
0110
0000
0000
0110
0000
0000
0001
0000
0001
0000
,
1000
0100
1000
0001
0100
0001
1000
0000
,
0100
0010
0001
0010
0100
1000
0001
0000
,
0100
0001
1000
0100
1000
0001
0010
0000
,
0100
0010
0001
1000
0010
0100
0001
0000
,
0010
0100
1000
0010
0001
0010
1000
0000
,
0100
0010
0001
0100
1000
0100
0001
0000
,
0010
0100
0010
0001
1000
0001
0100
0000
,
0010
0000
1000
0000
0100
0000
0010
0000
0001
0000
0000
0000
1001
0000
0000
0100
,
0000
0000
0001
0000
1000
0000
0000
0100
0000
0000
0010
0000
1000
0000
0000
0001
,
0000
0100
0220
0000
0330
0000
2002
0000
,
0000
0000
0000
3000
,
0000
0000
0000
0010
,
0000
0000
0000
0000
,
0000
0000
1003
0100
1000
0001
0010
0000
,
0100
0000
0010
0001
0000
0100
0010
0000
,
1000
0000
0001
0000
0000
0000
0010
0000
0000
0000
0100
0000
0010
0000
0000
0001
,
1000
0000
0000
0000
0000
0000
0100
0000
0000
0000
0000
0000
0010
0000
0000
0000
0000
0000
0000
0000
0000
0001
0000
0000
1000
0000
0000
0000
0000
0000
0010
0000
0000
0000
0000
0000
0100
0000
0000
0000
0001
0000
0000
0000
0100
0000
0000
0000
,
0001
0000
0000
0000
0100
0000
0000
0000
0001
0000
0000
0000
1000
0000
0000
0000
0100
0000
0000
0000
0010
0000
0000
0000
0001
0000
0000
0000
0000
0000
0000
0000
0000
0000
0000
0000
1000
0000
0000
0000
0000
0000
0001
0000
0000
0100
0000
0000
,
0001
0000
1000
0000
0100
1000
0100
0000
0010
0000
0000
0000
0001
0000
1000
0100
,
1000
0000
0001
0000
0100
0001
0100
0000
0001
0000
0001
0000
0010
0000
0100
0010
,
0100
0000
1000
0001
1000
0000
0001
0100
0001
0000
1000
0000
0010
0000
0100
0000
,
0001
0000
0100
0001
0100
0000
0010
0000
1000
0001
1000
0000
0001
0000
0100
0010
,
0100
0000
0001
0000
1000
0100
1000
0000
0001
0000
0000
0000
0100
0000
0010
0100
,
0010
0000
1000
0000
0001
0100
0001
0000
1000
0001
1000
0000
0010
0000
0100
0010
,
0100
0000
0001
0000
1000
0010
1000
0000
0001
0000
0010
0000
0100
1000
0100
0000
,
0010
0001
0010
0000
0200
0000
0000
0000
0000
0000
0000
0000
1300
0000
0010
0100
,
0010
0000
1000
0000
0100
0010
0100
0000
0010
0000
0000
0000
0001
0000
0010
0001
,
0010
0000
0100
0000
0010
0100
0010
0000
0100
0000
1000
0000
0001
0100
0001
0100
,
0001
0100
0001
0100
0001
0000
0010
0000
0100
0000
0010
0000
0001
0000
1000
0100
,
1000
0000
0001
0000
0100
0010
0100
0000
0001
0000
1000
0001
1000
0000
0100
1000
,
0100
0000
0010
0000
0001
0100
0010
0000
0100
0000
0000
0000
0010
1000
0010
1000
,
0010
0000
0100
0000
0001
0010
0001
0000
1000
0000
0100
0000
1000
0100
1000
0000
,
0001
0000
0010
0000
0100
0010
0100
0010
0001
0000
1000
0000
0001
0010
0001
0000
,
0010
0100
0010
0000
0100
1000
0100
1000
0010
0100
0010
0100
0002
0000
0000
0000
,
0003
0011
0011
0000
,
1100
1001
1100
2002
,
0000
3003
0000
0000
;

//---------------dance-single - ----------------
#NOTES:
     dance-single:
     :
     Beginner:
     3:
     0.191,0.287,0.162,0.000,0.000:
1000
0000
0000
0000
,
0001
0000
0000
0000
,
1000
0000
1000
0000
,
1000
0000
0000
0000
,
1001
0000
0000
0000
,
0001
0000
0000
0000
,
1001
0000
0000
0000
,
0010
0000
0000
0000
,
0010
0000
0000
0000
,
0010
0000
0000
0000
,
0110
0000
0100
0000
,
0010
0000
0000
0000
,
1000
0000
0001
0000
,
1000
0000
0001
0000
,
0100
0000
0001
0000
,
0100
0000
0010
0000
,
1000
0000
0001
0000
,
1000
0000
0001
0000
,
1000
0000
0100
0000
,
1000
0000
0100
0000
,
0010
0000
0001
0000
,
0010
0000
0001
0000
,
0100
0000
0010
0000
,
0100
0000
0001
0000
,
0010
0000
0100
0000
,
0010
0000
0100
0000
,
1000
0000
0001
0000
,
1000
0000
1000
0000
,
1001
0000
0000
0000
,
0001
0000
1000
0000
,
0001
0000
0010
0000
,
0100
0000
1000
0000
,
0100
0000
0010
0000
,
0001
0000
0100
0000
,
0010
0000
1000
0000
,
0100
0000
0010
0000
,
0001
0000
1000
0000
,
1001
0000
0000
0000
,
0010
0000
0010
0000
,
0110
0000
0000
0000
,
0100
0000
0100
0000
,
0110
0000
0000
0000
,
0001
0000
0001
0000
,
1001
0000
0000
0000
,
1000
0000
1000
0000
,
1001
0000
0000
0000
,
0000
0000
0000
0000
,
0000
0000
0000
0000
,
0000
0000
0000
0000
,
1001
0000
0000
0000
,
0000
0000
0000
0000
,
1001
0000
0000
0000
,
1001
0000
0000
0000
,
0001
0000
0001
0000
,
1000
0000
1000
0000
,
0001
0000
0001
0000
,
1000
0000
1000
0000
,
0001
0000
1000
0000
,
0001
0000
1000
0000
,
0100
0000
0010
0000
,
0100
0000
0010
1001
,
0000
1001
0000
1001
,
0000
1001
0000
1001
,
0000
0000
0000
0000
,
0000
0000
0000
0010
,
0000
0000
0000
0000
,
0000
0000
0000
0010
,
0000
0000
0000
0010
,
0000
0000
0000
0010
,
0000
0010
0000
0110
,
0000
0000
0000
1000
,
0000
0001
0000
1000
,
0000
0001
0000
0100
,
0000
0010
0000
0100
,
0000
0010
0000
1000
,
0000
0001
0000
1000
,
0000
0001
0000
0100
,
0000
0010
0000
1000
,
0000
1000
0000
0001
,
0000
1000
0000
0001
,
0000
0010
0000
0001
,
0000
1000
0000
0100
,
0000
1000
0000
0010
,
0000
0010
0000
0100
,
0000
0010
0000
1000
,
0000
1000
0000
0100
,
0000
0010
0000
1001
,
0000
1000
1000
0000
,
0001
0001
0001
1001
;
