#TITLE:SWEET ANGEL;
#SUBTITLE:;
#ARTIST:古川もとあき;
#TITLETRANSLIT:;
#SUBTITLETRANSLIT:;
#ARTISTTRANSLIT:MOTOAKI FURUKAWA;
#CREDIT:DigiMindAxel;
#BANNER:SWEET ANGEL.png;
#BACKGROUND:SWEET ANGEL-bg.png;
#LYRICSPATH:;
#CDTITLE:jubeat.png;
#MUSIC:SWEET ANGEL.mp3;
#OFFSET:-6.940;
#SAMPLESTART:38.880;
#SAMPLELENGTH:12.000;
#SELECTABLE:YES;
#BPMS:0.000=150.000;
#STOPS:;
#BGCHANGES:;

//---------------dance-single - ----------------
#NOTES:
     dance-single:
     :
     Easy:
     2:
     0.207,0.250,0.000,0.144,0.000:
0002
0000
0000
0000
,
2003
0000
0000
0000
,
3002
0000
0000
0000
,
2003
0000
0000
0000
,
3001
0000
0100
0010
,
0100
0000
0001
0000
,
1000
0000
0001
0000
,
1000
0000
0010
0000
,
0100
0001
0100
0000
,
0010
1000
0010
0000
,
0100
0010
0100
0000
,
0001
1000
0001
0000
,
0010
0000
0100
0000
,
0010
0000
0001
0000
,
1000
1000
1000
0000
,
0001
0001
0001
0000
,
1000
0001
1000
0000
,
0001
1000
0001
0000
,
0010
0100
0010
0000
,
0100
0010
0100
0000
,
1000
0001
1000
0000
,
0100
1000
0100
0000
,
0010
0001
0010
0000
,
0100
1000
0100
0000
,
0010
0100
0010
0000
,
0001
1000
0001
0000
,
0010
0001
0010
0000
,
0100
0010
0100
0000
,
1000
0001
0100
0000
,
0001
1000
0100
0000
,
1000
0001
1000
0000
,
0010
0100
0010
0000
,
1000
0001
0010
0000
,
0001
1000
0010
0000
,
1000
0001
1000
0100
,
0010
0000
0001
0000
,
1000
0001
1000
0001
,
1000
0010
0100
0010
,
1000
0001
1000
0000
,
0001
1000
0001
0000
,
0100
0010
0100
0010
,
0100
0001
0100
0001
,
1000
0100
1000
0000
,
0001
1000
0001
0000
,
0020
0000
0000
0000
,
0230
0000
0000
0000
,
0320
0000
0000
0000
,
0032
0000
0000
0000
,
2003
0000
0000
0000
,
3002
0000
0000
0000
,
0203
0000
0320
0000
,
0230
0000
0000
0000
,
0310
0000
0000
0000
,
0010
0000
0000
0000
,
2000
0000
0000
0000
,
0002
0000
0000
0000
,
0000
0000
0000
0000
,
0000
0000
0000
0000
0000
0000
0000
3003
;

//---------------dance-single - ----------------
#NOTES:
     dance-single:
     :
     Medium:
     5:
     0.359,0.361,0.211,0.182,0.000:
1000
0000
0000
1000
0000
0000
0000
0000
,
0001
0000
0000
0001
0000
0000
0000
0000
,
0100
0000
0000
0100
0000
0000
0000
0000
,
0010
0000
0000
0010
0000
0000
0000
0000
,
2000
0000
0000
0000
3000
0001
0100
0001
,
2000
0000
3002
0000
0000
1003
0000
0000
,
0100
0000
0000
1000
0000
0000
0010
0000
,
0200
0000
0000
0302
0000
0000
0000
0003
,
2000
0000
0000
3200
0000
0000
1300
0000
,
0002
0000
0000
0203
0000
0000
0301
0000
,
2000
0000
0000
3200
0000
0000
1300
0000
,
0020
0000
0230
0000
,
0300
0001
1000
0100
1000
0000
0001
0000
,
0000
1000
0001
0100
0001
0000
1000
0000
,
0001
0100
1000
0100
,
0001
1000
0010
0100
,
0010
0100
0001
0000
0001
0100
0010
0000
,
1000
0100
0010
0000
0010
0100
1000
0000
,
0001
0100
0010
0000
0100
0010
1000
0000
,
0100
0010
0001
0000
0010
0100
1000
0000
,
0010
0110
0010
0110
,
0010
0110
0010
0110
,
1000
1001
1000
1001
,
1000
1001
1000
1001
,
0001
0101
0001
0101
,
0010
1010
0010
1010
,
1000
1100
0100
1100
,
0001
0011
0001
0011
,
0200
0001
0001
0301
,
2000
0100
0100
3100
,
0010
0001
0010
0000
0100
1000
0100
0000
,
0001
0100
1000
0100
,
0001
1000
0001
0000
0010
0000
0100
0000
,
0010
0001
0010
0000
0100
0000
1000
0000
,
0010
0100
0010
0000
1000
0100
1000
0000
,
0002
0000
2003
0000
,
3001
0100
0010
0000
0100
0010
0100
0000
,
0010
0100
0010
0000
1000
0001
1000
0000
,
0010
1000
0100
0000
1000
0100
1000
0000
,
0010
0100
0010
0000
1000
0001
1000
0000
,
0001
0100
0001
0000
0010
0001
0010
0000
,
0001
0100
0001
0000
0010
0001
0010
0000
,
0100
1000
0100
0000
1000
0010
1000
0000
,
0100
1000
0100
0000
1000
0010
1000
0000
,
0010
0000
0000
0010
0000
0000
0010
0000
,
0100
0000
0000
0100
0000
0000
0100
0000
,
0001
0000
0000
0001
0000
0000
0001
0000
,
1000
0000
0000
1000
0000
0000
1000
0000
,
0100
0000
0000
0100
0000
0000
0100
0000
,
0010
0000
0000
0010
0000
0000
0010
0000
,
1001
0000
0000
0001
0000
0000
1000
0000
,
1001
0000
0000
0010
0000
0000
0000
0000
,
0110
0000
0000
0100
0000
0000
0010
0000
,
0110
0000
0000
1000
0000
0000
0000
0000
,
0001
0000
0000
1001
0000
0000
1000
0000
,
2002
0000
0000
0000
,
0000
0000
0000
0000
,
0000
0000
0000
0000
0000
0000
0000
3003
;

//---------------dance-single - ----------------
#NOTES:
     dance-single:
     :
     Hard:
     7:
     0.518,0.527,0.211,0.336,0.038:
0002
0000
0000
0103
0000
0000
0010
0000
,
2000
0000
0000
3010
0000
0000
0100
0000
,
0020
0000
0000
0130
0000
0000
0001
0000
,
2000
0000
0000
3100
0000
0000
0000
0000
,
1000
0000
0000
0010
0100
0000
0000
0000
0001
0000
0100
0000
1000
0000
0100
0000
,
0001
0000
0000
0010
0100
0000
0000
0000
1000
0000
0001
0000
0100
0000
0000
0000
,
0010
1000
0100
0001
0100
1000
0010
0000
,
0100
0001
0010
1000
0010
0001
0100
0000
,
0001
0010
1000
0010
0001
0100
0010
0000
,
1000
0100
0001
0100
1000
0010
0100
0000
,
0001
0010
0100
0010
0001
1000
0100
0000
,
0010
0100
1000
0100
0010
0001
0100
0001
,
0000
1000
1000
0100
0001
0100
1000
0001
,
0000
0001
0001
0010
1000
0010
0001
1000
,
0100
0010
0100
0000
1000
0100
0010
0000
,
0100
0010
0001
0000
0010
0001
0010
0000
,
0001
0100
0010
1000
0001
0100
0010
1000
,
0001
0010
0100
1000
0001
0010
0100
1000
,
0001
0010
1000
0010
0001
0100
1000
0100
,
0002
0000
0000
1003
0000
1000
0001
0000
2000
0000
0000
3001
0000
0001
1000
0000
,
0001
0010
0100
2000
0000
3100
0010
0100
,
1000
0000
1000
0010
0000
0010
0100
0000
,
0001
0010
0100
2000
0000
3100
0010
0001
,
1000
1100
0011
1100
,
1000
0100
0010
0002
0000
0103
0010
1000
,
0001
0000
0001
0100
0000
0020
0000
0000
,
0130
0101
1010
0101
,
0220
0330
2002
3003
,
0200
0000
0301
1000
0100
0010
0100
0000
,
0020
0000
0130
0001
0010
0100
0010
0000
,
0001
0010
0100
2000
0000
3100
0010
0100
,
1000
1010
0101
1010
,
1000
0100
0010
0002
0000
0013
0100
0010
,
0001
0100
1000
0100
0000
0002
0000
0000
,
1003
1100
0011
1100
,
0220
0330
2002
3003
,
1000
0000
0000
0010
0100
0000
0000
0000
0001
0000
0010
0000
0100
0000
0010
0000
,
0001
0100
0101
0000
0010
1000
0001
0000
,
1000
0100
0001
0100
1000
0010
0001
0010
,
1000
0010
0100
0001
0010
0100
1000
0000
,
0001
0000
0000
0010
0100
0000
0000
0000
1000
0000
0010
0000
0100
0000
0010
0000
,
1000
0100
1100
0000
0010
0001
1000
0000
,
0001
0010
1000
0010
0001
0100
1000
0100
,
0001
0010
0100
1000
0010
0100
0001
0000
,
0200
0000
0301
0010
0100
0000
1000
0001
,
0200
0000
0301
0010
0100
0000
1000
0000
,
0020
0000
1030
0100
0010
0000
0001
1000
,
0020
0000
1030
0100
0010
0000
0001
0000
,
2000
0000
3010
0100
0001
0000
0010
0100
,
2000
0000
3010
0100
0001
0000
1000
0000
,
0002
0000
0103
0010
1000
0000
0100
0010
,
0002
0000
0103
0010
1000
0000
0010
0000
,
0200
0000
0301
0010
0100
0000
0010
0001
,
0200
0000
0310
1000
0100
0000
0010
0000
,
1001
0000
0000
1001
0000
0000
0110
0000
,
2002
0000
0000
0000
,
0000
0000
0000
0000
,
0000
0000
0000
0000
0000
0000
0000
3003
;

//---------------dance-single - ----------------
#NOTES:
     dance-single:
     :
     Challenge:
     9:
     0.649,0.860,0.249,0.297,0.542: // measure 1
0002
0000
1003
0010
2000
0000
3001
0100
,  // measure 2
0020
0000
1030
0100
2000
0000
3010
0000
,  // measure 3
0200
0000
0310
0100
0020
0000
1030
0001
,  // measure 4
0200
0000
0310
0100
0020
0000
1030
0000
,  // measure 5
0001
0100
0000
0100
0001
0000
1000
0000
0010
0000
0100
0000
0001
0100
0001
0000
,  // measure 6
1000
0100
0000
0100
1000
0000
0001
0000
0010
0000
0100
0000
1000
0001
1000
0000
,  // measure 7
0010
0100
0000
0100
0010
0000
1000
0000
0001
0000
0010
0000
0100
0010
0100
0000
,  // measure 8
1000
0001
0000
0001
1000
0000
0010
0000
0100
0000
0001
0000
0010
0100
0010
0000
,  // measure 9
0001
1000
0000
1000
0010
0000
0100
0000
0001
0000
0010
0000
0100
0010
0100
0000
,  // measure 10
1000
0001
0000
0001
0010
0000
0100
0000
0010
0000
0001
0000
1000
0010
1000
0000
,  // measure 11
0010
0100
0000
0100
0001
0000
0010
0000
0100
0000
1000
0000
0100
0010
0100
0000
,  // measure 12
1000
0001
0000
0001
0100
0000
0001
0000
0010
0100
0000
0100
0010
0000
0001
0000
,  // measure 13
1000
0010
0100
0000
0110
0000
0000
0000
0100
0000
0100
0000
1001
0000
0000
0000
,  // measure 14
0001
0100
0010
0000
0110
0000
0000
0000
0100
0000
0100
0000
1001
0000
0000
0000
,  // measure 15
1000
0010
1000
0000
0010
0000
0100
0000
0001
0100
0001
0000
0100
0000
0010
0000
,  // measure 16
1000
0100
1000
0000
0100
0000
0010
0000
0001
0010
0001
0000
0010
0000
0100
0000
,  // measure 17
1000
0010
1000
0010
1000
0010
1000
0010
0100
0001
0100
0001
0100
0001
0100
0000
,  // measure 18
0001
0010
0001
0010
0001
0010
0001
0010
0100
1000
0100
1000
0100
1000
0100
0000
,  // measure 19
1000
0001
1000
0001
1000
0001
1000
0001
0100
0010
0100
0010
0100
0010
0100
0000
,  // measure 20
0001
1000
0000
1000
0000
1000
0010
0000
1000
0001
0000
0001
0000
0001
0100
0000
,  // measure 21
0010
0000
0000
0010
0100
0000
0000
0100
0001
0000
0000
0001
1000
0000
0000
1000
,  // measure 22
0100
0000
0000
0100
0001
0000
0000
0001
0100
0000
0000
0100
1000
0000
0000
1000
,  // measure 23
0001
0000
0000
0001
0100
0000
0000
0100
0010
0000
0000
0010
0100
0000
0000
0100
,  // measure 24
0001
1001
0110
1001
,  // measure 25
0100
0000
0000
0100
0010
0000
0000
0010
1000
0000
0000
1000
0001
0000
0000
0001
,  // measure 26
0100
0000
0000
0100
1000
0000
0000
1000
0100
0000
0000
0100
0001
0000
0000
0001
,  // measure 27
1000
1001
0110
1001
,  // measure 28
1000
0100
0001
0100
1000
0010
0100
0001
,  // measure 29
0100
0000
0000
0100
0010
0000
0000
0010
1000
0000
0000
1000
0001
0000
0000
0001
,  // measure 30
1000
0000
0000
1000
0100
0000
0000
0100
0001
0000
0000
0001
0100
0000
0000
0100
,  // measure 31
1000
0000
0000
1000
0001
0000
0000
0001
0100
0000
0000
0100
0010
0000
0000
0010
,  // measure 32
1000
1001
0110
1001
,  // measure 33
0010
0000
0000
0010
1000
0000
0000
1000
0010
0000
0000
0010
0100
0000
0000
0100
,  // measure 34
0001
0000
0000
0001
0010
0000
0000
0010
1000
0000
0000
1000
0010
0000
0000
0010
,  // measure 35
0001
1001
0110
1001
,  // measure 36
0001
0010
1000
0010
0001
0100
0010
1000
,  // measure 37
0001
0000
0000
0100
0001
0000
1000
0000
0010
0000
0001
0000
0010
0000
1000
0000
,  // measure 38
0001
0001
1000
0100
0001
0100
1000
0001
,  // measure 39
1000
1000
0001
0010
0100
1000
0001
0100
,  // measure 40
1000
0001
0010
1000
0001
0100
0010
0100
,  // measure 41
0001
0000
0000
1000
0001
0000
0100
0000
1000
0000
0100
0000
0001
0000
1000
0000
,  // measure 42
1000
0000
0000
0001
0000
0000
0010
0000
0000
1000
0000
0000
0010
0000
0000
0001
0000
0000
1000
0000
0000
0000
0010
0000
,  // measure 43
0100
0001
0100
0001
1000
0100
1000
0100
0010
0001
0010
0100
,  // measure 44
1000
0010
0100
0001
0100
0020
0000
0000
0000
0130
0000
0000
,  // measure 45
0002
0000
0013
0100
0020
0000
0130
1000
,  // measure 46
0002
0000
1003
0100
2000
0000
3001
0000
,  // measure 47
2000
0000
3100
0010
0200
0000
0310
0001
,  // measure 48
2000
0000
3010
0100
0020
0000
0130
0000
,  // measure 49
0002
0000
1003
0100
2000
0000
3010
0100
,  // measure 50
0002
0000
0103
0010
0200
0000
0310
0000
,  // measure 51
0102
0000
0000
2003
0000
0000
3100
0000
,  // measure 52
1001
0000
0000
2002
0000
0000
3003
0000
,  // measure 53
2100
0000
0000
3002
0000
0000
0103
0000
,  // measure 54
1001
0000
0000
2002
0000
0000
3003
0000
,  // measure 55
1100
0000
0000
0011
0000
0000
0110
0000
,  // measure 56
2002
0000
0000
0000
,  // measure 57
0000
0000
0000
0000
,  // measure 58
0000
0000
0000
0000
0000
0000
0000
3003
;

//---------------dance-single - ----------------
#NOTES:
     dance-single:
     :
     Beginner:
     1:
     0.067,0.105,0.000,0.000,0.000:
1000
0000
0000
0000
,
0000
0000
0000
0000
,
0001
0000
0000
0000
,
0000
0000
0000
0000
,
1000
0000
0000
0000
,
0001
0000
0000
0000
,
0100
0000
0000
0000
,
0010
0000
0000
0000
,
0100
0000
0000
0000
,
0100
0000
0000
0000
,
0001
0000
0000
0000
,
0001
0000
0000
0000
,
1000
0000
0000
0000
,
0001
0000
0000
0000
,
1000
0000
1000
0000
,
1000
0000
0000
0000
,
0001
0000
0000
0000
,
1000
0000
0000
0000
,
0001
0000
0000
0000
,
0010
0000
0000
0000
,
0100
0000
0000
0000
,
0010
0000
0000
0000
,
0100
0000
0000
0000
,
1000
0000
0000
0000
,
0001
0000
0000
0000
,
1000
0000
0000
0000
,
0001
0000
0000
0000
,
0001
0000
0000
0000
,
0010
0000
0000
0000
,
0001
0000
0000
0000
,
0010
0000
0000
0000
,
0100
0000
0000
0000
,
1000
0000
0000
0000
,
0100
0000
0000
0000
,
1000
0000
0000
0000
,
0100
0000
0000
0000
,
0010
0000
0000
0000
,
0000
0000
0000
0000
,
0001
0000
0000
0000
,
1000
0000
0000
0000
,
0001
0000
0000
0000
,
0001
0000
0000
0000
,
1000
0000
0000
0000
,
1000
0000
0000
0000
,
0010
0000
0000
0000
,
0000
0000
0000
0000
,
0010
0000
0000
0000
,
0000
0000
0000
0000
,
0010
0000
0000
0000
,
0000
0000
0000
0000
,
0010
0000
0000
0000
,
0000
0000
0000
0000
,
0100
0000
0000
0000
,
0000
0000
0000
0000
,
0100
0000
0000
0000
,
0001
0000
0000
0000
;
