#TITLE:スパンコール;
#SUBTITLE:;
#ARTIST:Yukky feat. Rio Kuniyoshi;
#TITLETRANSLIT:SPANGLE;
#SUBTITLETRANSLIT:;
#ARTISTTRANSLIT:;
#CREDIT:DigiMindAxel;
#BANNER:SPANGLE.png;
#BACKGROUND:SPANGLE-bg.png;
#LYRICSPATH:SPANGLE.lrc;
#CDTITLE:REFLEC BEAT.png;
#MUSIC:SPANGLE.mp3;
#OFFSET:-5.730;
#SAMPLESTART:72.900;
#SAMPLELENGTH:12.000;
#SELECTABLE:YES;
#BPMS:0.000=200.000;
#STOPS:;
#BGCHANGES:;

//---------------dance-single - ----------------
#NOTES:
     dance-single:
     :
     Easy:
     3:
     0.219,0.301,0.078,0.107,0.000:
2000
0000
0000
0000
,
0000
0000
3000
0000
,
0200
0000
0000
0000
,
0000
0300
0000
0000
,
0020
0000
0000
0000
,
0031
0000
0000
0000
,
1000
0000
0001
0000
,
1000
0000
1000
0000
,
0010
0100
0010
0000
,
1000
0000
0001
0000
,
0010
0001
0010
0000
,
0001
0000
1000
0000
,
0100
1000
0100
0000
,
1000
0000
0001
0000
,
0100
0010
0100
0000
,
0010
0100
0010
0000
,
1001
0000
0000
1001
,
0000
0000
0000
0000
,
1001
0000
0000
1001
,
0000
0000
0000
0000
,
0010
0100
0010
0000
,
1000
0000
0001
0000
,
0100
0010
0100
0010
,
0100
0000
0000
0000
,
1001
0000
0000
0000
,
0010
0000
0000
0000
,
0100
0000
0000
0000
,
0000
0000
0000
0000
,
2000
0000
0000
0000
,
3002
0000
0000
0000
,
1003
0000
0000
0000
,
0010
0000
0100
0000
,
0010
0100
0010
0000
,
1000
0001
1000
0000
,
0100
0000
0010
0000
,
0001
0000
1000
0000
,
0001
0000
0100
0000
,
0010
0000
0100
0000
,
0001
0000
1000
0000
,
0100
0000
0010
0000
,
0002
0000
0000
0000
,
2003
0000
0000
0000
,
3001
0000
0100
0000
,
0010
0000
0100
0000
,
0002
0000
0000
0000
,
2003
0000
0000
0000
,
3100
0000
0010
0000
,
0100
0000
1000
0000
,
0010
0000
0010
0000
,
0010
0000
0010
0000
,
0110
0000
0000
0000
,
0000
0000
0000
0000
,
0100
0000
0010
0000
,
1000
0000
1000
0000
,
0010
0000
0100
0000
,
0001
0000
0000
0000
,
1001
0000
1000
0000
,
0001
0000
0010
0000
,
0200
0000
0000
0000
,
0000
0000
0300
0000
,
1000
0000
0100
0000
,
0010
0000
0001
1000
,
0020
0000
0000
0000
,
0030
0000
0000
0000
,
0100
0000
0010
0000
,
0100
0010
0100
0000
,
0001
0000
1000
0000
,
0001
1000
0001
0000
,
0010
0000
0100
0000
,
1000
0000
0010
0100
,
0010
0000
1000
0000
,
0100
0000
0010
0001
,
0010
0000
0100
1000
,
0100
0000
1000
0001
,
1000
0000
0010
0100
,
0010
0000
1000
0100
,
0010
0000
0000
0000
,
0001
0000
0000
1001
0000
0000
0000
0000
;

//---------------dance-single - ----------------
#NOTES:
     dance-single:
     :
     Medium:
     6:
     0.449,0.639,0.136,0.379,0.000:
0002
0000
0000
0000
,
0000
0000
0103
0010
,
2000
0000
0000
0000
,
0000
0000
3010
0100
,
0002
0000
0103
0000
,
0010
1000
0100
0000
,
1000
0100
0010
0001
,
1000
0000
0000
1000
0000
0000
1000
0000
,
0002
0000
0000
0103
0000
0000
0010
0000
,
1000
0100
0010
0001
,
2000
0000
0000
3010
0000
0000
0000
0000
,
0100
0001
0010
0100
,
2000
0000
0000
3010
0000
0000
0100
0000
,
0001
0010
0100
1000
,
0010
0000
0100
0010
0100
0000
0001
0000
,
1000
0001
1000
0000
1001
0000
0000
0000
,
1000
0100
1000
0000
0000
0000
0100
0010
,
0100
0000
0000
0000
0010
0001
0010
0000
,
0001
1000
0001
0000
0000
0000
0010
0100
,
0010
0000
0000
0000
0001
1000
0001
0000
,
0100
0001
0010
0100
,
1000
0000
0010
0000
0100
0010
0100
0000
,
0000
0001
0010
0001
1000
0100
1000
0100
,
0020
0000
0000
0030
,
1002
0000
0203
0000
,
0320
0000
0230
0000
,
0301
1000
0200
0000
,
0000
0300
0000
1000
,
0200
0000
0000
0000
,
0320
0000
0000
0000
,
0032
0000
0000
0000
,
1003
0000
0000
0000
0010
0100
0010
0000
,
1000
0100
0001
0100
,
1000
0100
0010
0001
,
0100
0000
0010
0100
0010
0000
0000
0000
,
1000
0100
1000
0100
1000
0000
0001
0000
,
1000
0100
0001
0100
,
1000
0010
0100
0001
,
1000
0001
1000
0000
0001
1000
0001
0000
,
0010
0100
1000
0010
,
0200
0001
0001
0301
,
2000
0100
0100
3100
,
1000
0000
0010
0100
0010
0000
1000
0000
,
0001
0010
0100
1000
,
0020
1000
1000
1030
,
0002
0010
0010
0013
,
0001
1000
0001
0000
0100
0000
1000
0000
,
0100
0001
1000
0010
,
0100
0001
0101
0000
,
0100
1000
1100
0000
,
0010
0100
0010
1000
,
0100
0001
0100
1000
,
0001
0100
0001
0100
0001
0000
0000
0000
,
1000
0100
1000
0100
1000
0000
0000
0000
,
0110
0000
0000
0010
0000
0000
0100
0000
,
0001
1000
0001
0000
0000
0000
0000
0000
,
0202
0303
0220
0330
,
0202
0303
0220
0330
,
0010
0000
2000
0020
0000
0000
0000
0000
,
0000
3030
0100
0100
,
2200
3300
0220
0330
,
2200
3300
0110
0100
,
0002
1000
0000
1000
,
0000
1003
0010
0100
,
0001
0000
0001
0000
1000
0000
1000
0001
,
0100
0100
0010
0010
,
1000
0000
1000
0000
0001
0000
0001
1000
,
0010
0000
0100
0010
0100
0010
0100
0000
,
0001
0010
0100
0100
,
1000
1000
0001
0001
,
0000
0100
0010
1000
,
0100
0010
0010
0001
,
0002
0000
0000
1000
0000
0000
0000
0000
,
1000
0000
0000
1003
0000
0000
0001
0010
,
0001
0000
1000
0000
0001
0000
1000
0100
,
1000
0000
0001
0000
1000
0000
0020
0200
,
0000
0000
0000
0330
,
0100
0000
0000
1001
0000
0000
0000
0000
;

//---------------dance-single - ----------------
#NOTES:
     dance-single:
     :
     Hard:
     8:
     0.622,0.602,0.369,0.282,0.000: // measure 1
1001
1000
1000
1000
,  // measure 2
1000
1000
0010
0100
,  // measure 3
0110
0010
0010
0010
,  // measure 4
0010
0010
1000
0001
,  // measure 5
2001
0000
0000
0001
0000
0000
3001
0000
,  // measure 6
1002
0000
0000
1000
0000
0000
1003
0000
,  // measure 7
1001
0001
0100
1000
,  // measure 8
0100
0000
0001
1000
0001
0000
0010
0100
,  // measure 9
1000
0000
0010
0200
0000
0000
0301
0010
,  // measure 10
0100
0000
0010
0000
0001
1000
0100
0010
,  // measure 11
0001
0000
0010
0200
0000
0000
1300
0000
,  // measure 12
0010
0000
0100
0010
0100
0000
0110
0000
,  // measure 13
0001
0000
0100
0002
0000
0000
1003
0000
,  // measure 14
0001
0010
0100
0000
0010
0000
0001
0100
,  // measure 15
1000
0000
1000
0100
0001
0000
1000
0001
,  // measure 16
0010
0001
1000
0000
1001
0000
0000
0000
,  // measure 17
1000
1000
1000
0000
0000
0000
0001
0001
,  // measure 18
0001
0000
1000
1001
,  // measure 19
0001
0001
0001
0000
0000
0000
1000
1000
,  // measure 20
1000
0000
0001
1001
,  // measure 21
0001
1000
0100
0000
0020
0000
0100
0000
,  // measure 22
0031
0000
1000
0001
0100
0000
0100
0000
,  // measure 23
0000
0001
0010
0100
1000
0100
0010
0001
,  // measure 24
0200
0000
0010
0310
,  // measure 25
2100
0000
3200
0000
,  // measure 26
0302
0000
0203
0000
,  // measure 27
1300
0000
0001
0200
0000
0000
0000
0000
,  // measure 28
0010
0000
0310
1000
,  // measure 29
0202
0000
0000
0303
,  // measure 30
0220
0000
0000
0330
,  // measure 31
2020
0000
0000
0000
0000
3030
0000
0010
,  // measure 32
0100
0000
0001
1000
0001
0010
0100
0000
,  // measure 33
1000
0000
0100
0010
0100
0000
1000
0001
,  // measure 34
0010
0000
0100
1000
0020
0000
0100
0000
,  // measure 35
1030
0100
0010
0001
0100
0000
0010
0100
,  // measure 36
0001
0000
0010
0100
0010
0001
0100
0010
,  // measure 37
1000
0000
0100
1000
0010
0000
0010
1000
,  // measure 38
0100
0000
1000
0100
0010
0001
0100
0000
,  // measure 39
0010
0100
0001
0000
0001
0100
0010
0000
,  // measure 40
1000
0100
0001
0100
1000
0010
0100
0010
,  // measure 41
1000
1100
0100
0110
,  // measure 42
0010
0011
0110
0110
,  // measure 43
0100
1000
0010
0000
0010
1000
0100
0000
,  // measure 44
0010
0001
0100
0000
0100
0001
0010
0100
,  // measure 45
1000
0000
1000
0010
0100
0000
0001
1000
,  // measure 46
0001
0000
0001
0100
0010
0000
1000
0001
,  // measure 47
1000
0000
1001
0000
0001
0000
0100
0010
,  // measure 48
1000
0000
1000
0001
1000
0001
0100
0000
,  // measure 49
0001
0101
0100
0110
,  // measure 50
0010
1010
0110
0110
,  // measure 51
0100
0001
0010
0000
0010
0001
0100
0000
,  // measure 52
0010
1000
0100
0000
0100
1000
0010
0100
,  // measure 53
0001
0010
1000
0010
0001
0000
0000
0000
,  // measure 54
1000
0100
0001
0100
1000
0000
0001
0000
,  // measure 55
0102
0000
0000
2003
0000
0000
3100
0000
,  // measure 56
0010
0010
0110
0000
0000
0000
0000
0000
,  // measure 57
1000
0100
0010
0000
0010
0100
1000
0000
,  // measure 58
1000
0100
0010
0000
0010
0100
1000
0010
,  // measure 59
0100
0000
0001
0100
0000
1000
0100
0000
,  // measure 60
0001
0000
1000
0010
0001
0010
1000
0000
,  // measure 61
0001
0010
0100
0000
0100
0010
0001
0000
,  // measure 62
0001
0010
0100
0000
0100
0010
0001
0100
,  // measure 63
0020
1000
0100
1000
,  // measure 64
0130
1100
0110
0011
,  // measure 65
0100
1000
0001
0010
0100
1000
0002
0000
,  // measure 66
0100
0203
0010
0310
,  // measure 67
0100
0001
1000
0100
0010
0001
2000
0000
,  // measure 68
0001
0000
3001
0100
0010
0100
0001
1000
,  // measure 69
0100
0000
1100
0000
1000
0100
0001
0000
,  // measure 70
0001
0100
1000
0000
1001
0000
0110
0000
,  // measure 71
0001
0000
0011
0000
0001
0010
1000
0000
,  // measure 72
1000
0010
0001
0000
1001
0000
0110
0000
,  // measure 73
0100
1000
0001
0200
0000
0000
0301
0000
,  // measure 74
0100
0001
1000
0200
0000
0000
1300
0100
,  // measure 75
0001
0100
1000
0000
1100
0000
0001
0010
,  // measure 76
1000
0010
0001
0000
0011
0000
0100
0020
,  // measure 77
0000
0000
1030
0100
0010
0002
0000
1000
,  // measure 78
1003
0000
0000
1001
0000
0000
0000
0000
;

//---------------dance-single - ----------------
#NOTES:
     dance-single:
     :
     Beginner:
     2:
     0.106,0.188,0.088,0.000,0.000:
0001
0000
0000
0000
,
0000
0000
0000
0000
,
0001
0000
0000
0000
,
0000
0000
0000
0000
,
1000
0000
0000
0000
,
1000
0000
0000
0000
,
1000
0000
0000
0000
,
0000
0000
0000
0000
,
1001
0000
0000
0000
,
0001
0000
0000
0000
,
1000
0000
0000
0000
,
0000
0000
0000
0000
,
0100
0000
0000
0000
,
0010
0000
0000
0000
,
0001
0000
0000
0000
,
0000
0000
0000
0000
,
1001
0000
0000
0000
,
0000
0000
0000
0000
,
1001
0000
0000
0000
,
0000
0000
0000
0000
,
1000
0000
0000
0000
,
0001
0000
0000
0000
,
1000
0000
0000
0000
,
0000
0000
0000
0000
,
1001
0000
0000
0000
,
0010
0000
0000
0000
,
0010
0000
0000
0000
,
0000
0000
0000
0000
,
0100
0000
0000
0000
,
0100
0000
0000
0000
,
0100
0000
0000
0000
,
0000
0000
0000
0000
,
0010
0000
0000
0000
,
0100
0000
0000
0000
,
0010
0000
0000
0000
,
0100
0000
0000
0000
,
0001
0000
0000
0000
,
1000
0000
0000
0000
,
0001
0000
0000
0000
,
1000
0000
0000
0000
,
0001
0000
0000
0000
,
0001
0000
0000
0000
,
0001
0000
0000
0000
,
0001
0000
0000
0000
,
1000
0000
0000
0000
,
1000
0000
0000
0000
,
1000
0000
0000
0000
,
1000
0000
0000
0000
,
0001
0000
0000
0000
,
0010
0000
0000
0000
,
0100
0000
0000
0000
,
1000
0000
0000
0000
,
1001
0000
0000
0000
,
0000
0000
0000
0000
,
1001
0000
0000
0000
,
1000
0000
0000
0000
,
0001
0000
0000
0000
,
0010
0000
0000
0000
,
0100
0000
0000
0000
,
1000
0000
0000
0000
,
0100
0000
0000
0000
,
0010
0000
0000
0000
,
0001
0000
0000
0000
,
1000
0000
0000
0000
,
1001
0000
0000
0000
,
0001
0000
0000
0000
,
1001
0000
0000
0000
,
1000
0000
0000
0000
,
0100
0000
0000
0000
,
0010
0000
0000
0000
,
0001
0000
0000
0000
,
0010
0000
0000
0000
,
0100
0000
0000
0000
,
1000
0000
0000
0000
,
0001
0000
0000
0000
,
1000
0000
0000
0000
,
0001
0000
0000
0000
,
0000
0000
1001
0000
;
