#TITLE:白猫きゃらめる夢幻のわたあめ;
#SUBTITLE:;
#ARTIST:愛原圭織;
#TITLETRANSLIT:SHIRONEKO CARAMEL MUGEN NO WATAAME;
#SUBTITLETRANSLIT:;
#ARTISTTRANSLIT:KAORI AIHARA;
#CREDIT:DigiMindAxel;
#BANNER:SHIRONEKO CARAMEL MUGEN NO WATAAME.png;
#BACKGROUND:SHIRONEKO CARAMEL MUGEN NO WATAAME-bg.png;
#LYRICSPATH:SHIRONEKO CARAMEL MUGEN NO WATAAME.lrc;
#CDTITLE:TAIKO NO TATSUJIN.png;
#MUSIC:SHIRONEKO CARAMEL MUGEN NO WATAAME.mp3;
#OFFSET:-8.150;
#SAMPLESTART:28.067;
#SAMPLELENGTH:12.000;
#SELECTABLE:YES;
#BPMS:0.000=144.000;
#STOPS:;
#BGCHANGES:;

//---------------dance-single - ----------------
#NOTES:
     dance-single:
     :
     Hard:
     8:
     0.485,0.517,0.050,0.020,0.094: // measure 1
0001
0010
0100
0000
0010
0001
0100
0000
,  // measure 2
0001
0010
0100
0000
0010
0001
1000
0000
,  // measure 3
0001
1000
0100
0010
0001
0010
0100
1000
,  // measure 4
0001
0000
0100
0000
0001
0000
0000
0000
1000
0001
1000
0001
1000
0001
1000
0000
,  // measure 5
0001
0001
0100
0000
0010
1000
0100
0010
,  // measure 6
0000
0001
2000
0000
,  // measure 7
3001
0000
0001
0000
0001
0000
0000
1000
0000
1000
0000
1000
0001
0000
0001
0000
,  // measure 8
1000
0100
1000
0000
0100
0010
0100
0000
,  // measure 9
1000
1000
0010
0000
0100
0001
0010
0100
,  // measure 10
0000
1000
0002
0000
,  // measure 11
1003
1000
1000
0000
0001
0001
0001
0000
,  // measure 12
1000
0010
0100
0000
0001
1000
0001
0000
,  // measure 13
1000
0100
0010
0100
1000
0100
0010
0000
,  // measure 14
0001
0000
0001
0000
0001
0000
0000
1000
0000
1000
0000
1000
0001
0000
0001
0000
,  // measure 15
0100
0000
0100
0000
0100
0000
0000
0000
0010
0000
0000
0010
0000
0000
0010
0000
,  // measure 16
0000
0000
0010
0000
1000
0100
0010
0001
,  // measure 17
1000
0010
0100
0010
1000
0100
0010
0000
,  // measure 18
0001
0001
0001
0000
1000
1000
1000
0000
,  // measure 19
0100
0000
0100
0000
0100
0000
0000
0000
0010
0000
0000
0010
0000
0000
0010
0000
,  // measure 20
0000
0000
0010
0000
0001
0010
0100
1000
,  // measure 21
0001
0100
0010
0100
0001
0001
0001
0000
,  // measure 22
1000
0100
0010
0100
1000
1000
1000
0000
,  // measure 23
0010
0100
0001
0000
0010
0100
1000
0001
,  // measure 24
1000
0100
0001
0100
,  // measure 25
1000
0001
0010
0100
1000
0100
0010
0000
,  // measure 26
0001
0100
0010
1000
0100
0010
0100
0000
,  // measure 27
1000
0001
0100
0100
0100
0001
1000
1000
,  // measure 28
1000
0001
1000
0100
0010
0001
1000
0000
,  // measure 29
0100
0000
1100
0000
1000
0100
0001
0100
,  // measure 30
1000
0010
0100
0001
,  // measure 31
0010
0100
0010
0001
0100
0010
0100
0001
,  // measure 32
0100
0001
0101
1000
,  // measure 33
0001
0010
1000
0010
0001
1000
0001
1000
,  // measure 34
0001
0010
0100
1000
,  // measure 35
0001
0010
1000
0010
0001
1000
0001
1000
,  // measure 36
0001
1000
1100
0100
,  // measure 37
1000
0100
0001
0100
1000
0100
0001
0100
,  // measure 38
1000
0000
0001
0000
0010
0100
0010
0000
,  // measure 39
0001
0100
1000
0100
0001
0100
1000
0100
,  // measure 40
0001
0000
1000
0000
0010
0100
0010
0000
,  // measure 41
1000
0010
0001
0010
1000
0010
0001
0010
,  // measure 42
1000
0000
0001
0000
0100
0010
0100
0000
,  // measure 43
0001
0010
1000
0010
0001
0010
1000
0010
,  // measure 44
0001
0000
1000
0000
0100
0000
0010
0000
0001
1000
0001
1000
0001
1000
0001
0000
,  // measure 45
1000
1000
0100
0001
0100
1000
0001
0000
,  // measure 46
1000
0000
1000
0000
1000
0000
1000
0000
0001
0000
0000
0001
0000
0000
0001
0000
,  // measure 47
0100
0000
0100
0000
0100
0000
0000
0010
0000
0010
0000
0010
0100
0000
0100
0000
,  // measure 48
0000
0000
0001
0001
1000
0100
0010
0001
,  // measure 49
1000
1000
0010
0001
0010
1000
0001
0000
,  // measure 50
1000
0000
1000
0000
1000
0000
0000
0000
0001
0000
0000
0001
0000
0000
0001
0000
,  // measure 51
0010
0010
0010
0010
0100
0100
0100
0100
,  // measure 52
0000
0000
0110
0000
0000
1000
0100
0001
,  // measure 53
0000
1001
0000
0000
;

//---------------dance-single - ----------------
#NOTES:
     dance-single:
     :
     Easy:
     3:
     0.175,0.207,0.020,0.000,0.000:
0001
0000
0000
0000
,
1000
0000
0000
0000
,
0001
0000
0000
0000
,
1000
0000
0010
0100
,
0010
0000
0010
0000
,
0010
0000
0000
0000
,
1000
0000
1000
0000
,
1000
0000
0000
0000
,
0001
0000
0001
0000
,
0001
0000
0000
0000
,
0010
0000
0010
0000
,
0010
0000
0000
0000
,
0001
1000
0001
1000
,
0001
0000
0001
0000
,
0001
0000
0001
0000
,
0001
0000
0000
0000
,
1000
0001
1000
0001
,
1000
0000
1000
0000
,
1000
0000
1000
0000
,
1000
0000
0000
0000
,
0010
0000
0100
0010
,
0100
0000
0010
0100
,
0010
0000
1000
0001
,
1000
0000
0000
0000
,
0001
1000
0001
0000
,
1000
0001
1000
0000
,
0100
1000
0100
0000
,
0010
0001
0010
0000
,
0001
0001
0001
0000
,
1000
0000
0001
0000
,
1000
1000
1000
0000
,
0001
0000
1000
0000
,
0001
0001
0001
0000
,
1000
0000
0001
0000
,
1000
1000
1000
0000
,
0010
0000
0100
0000
,
0010
0010
0010
0000
,
0100
0000
0010
0000
,
0100
0100
0100
0000
,
0001
0000
1000
0000
,
0001
0001
0001
0000
,
1000
0000
0001
0000
,
1000
1000
1000
0000
,
0001
0000
1000
0000
,
0110
0000
0010
0000
,
0100
0010
0100
0000
,
0001
1000
0001
1000
,
0001
0000
0010
0000
,
0001
1000
0001
0000
,
1000
0100
1000
0100
,
1000
0000
0010
0000
,
0100
0010
0100
0000
,
0000
1001
0000
0000
;

//---------------dance-single - ----------------
#NOTES:
     dance-single:
     :
     Medium:
     5:
     0.338,0.310,0.010,0.000,0.000: // measure 1
1000
1000
0100
0100
,  // measure 2
1000
1000
0100
0100
,  // measure 3
0010
0010
0001
0001
,  // measure 4
1000
0000
1000
0000
0010
0100
0010
0100
,  // measure 5
0010
0000
0010
0000
0100
0010
0100
0000
,  // measure 6
0001
1000
0001
0000
,  // measure 7
1000
0100
1000
0000
0100
0000
0100
0000
,  // measure 8
1000
0001
0010
0100
,  // measure 9
1000
0001
1000
0000
0001
0000
1000
0001
,  // measure 10
1000
0000
0010
0100
0010
0000
1000
0000
,  // measure 11
0001
1000
0001
0000
0100
0001
0100
0000
,  // measure 12
0001
0100
0001
1000
,  // measure 13
0100
1000
0100
1000
0100
1000
0100
0000
,  // measure 14
1000
0001
0010
0100
,  // measure 15
1000
0001
0010
0100
,  // measure 16
1000
0001
0100
0001
,  // measure 17
1000
0100
1000
0100
1000
0100
1000
0000
,  // measure 18
0010
0100
0001
1000
,  // measure 19
0010
0100
0001
1000
,  // measure 20
0001
0000
1000
0000
0010
0100
0010
0000
,  // measure 21
1000
0000
0100
0000
0010
0001
0010
0000
,  // measure 22
0001
0000
1000
0000
0010
0100
0010
0000
,  // measure 23
1000
0000
0010
0000
0100
0001
0100
0000
,  // measure 24
0000
0000
0000
0000
,  // measure 25
0001
0000
0010
0000
0100
1000
0100
0000
,  // measure 26
1000
0000
0001
0000
0100
0010
0100
0000
,  // measure 27
0010
0000
1000
0000
0001
0100
0001
0000
,  // measure 28
1000
0000
0001
0000
1000
0001
1000
0001
,  // measure 29
1000
0100
0010
0001
,  // measure 30
0010
0100
1000
0010
,  // measure 31
0100
0010
1000
0010
,  // measure 32
0100
0001
1000
0001
,  // measure 33
1000
0100
0010
0001
,  // measure 34
0010
0100
1000
0010
,  // measure 35
0100
0010
1000
0001
,  // measure 36
0010
0100
0010
0010
,  // measure 37
0001
0001
1000
1000
,  // measure 38
0001
0010
0100
1000
,  // measure 39
0010
0010
0100
0100
,  // measure 40
0001
1000
0001
0000
1000
0000
0100
0000
,  // measure 41
0010
0001
1000
0010
,  // measure 42
0100
0010
0100
0000
0010
0100
0010
0000
,  // measure 43
1000
0100
0010
0001
,  // measure 44
1000
0001
1000
0000
0001
1000
0001
0000
,  // measure 45
0010
0000
0001
0000
0100
0010
0100
0000
,  // measure 46
0001
0000
1000
0000
0100
1000
0100
0000
,  // measure 47
1000
0000
0001
0000
0100
0001
0100
0000
,  // measure 48
0001
1000
0000
0000
,  // measure 49
0010
0000
0100
0000
0001
0010
0001
0000
,  // measure 50
0100
0000
0010
0000
1000
0001
1000
0000
,  // measure 51
0100
1000
0100
0000
0010
0001
0010
0000
,  // measure 52
0001
1000
0010
0010
,  // measure 53
0000
1001
0000
0000
;

//---------------dance-single - ----------------
#NOTES:
     dance-single:
     :
     Challenge:
     9:
     0.686,0.724,0.010,0.139,0.619: // measure 1
0001
0100
0010
0100
0001
0000
0010
0100
,  // measure 2
1000
0000
0010
0000
0100
0000
0010
0000
1000
0000
0001
0000
0000
0001
0000
0000
,  // measure 3
1000
0100
0001
0100
1000
0010
0100
0001
,  // measure 4
0010
0000
1000
0000
0010
0000
0001
0000
1000
0001
1000
0001
1000
0001
1000
0000
,  // measure 5
0001
0010
0001
0000
1000
0000
1000
0000
0100
1000
0100
0000
0010
0000
0100
0000
,  // measure 6
1000
0000
0010
1000
0100
0010
0001
0000
,  // measure 7
1000
0100
1000
0000
0100
0000
1000
0100
0000
0100
0000
0100
1000
0000
1000
0000
,  // measure 8
0001
0010
0100
0000
0010
0100
1000
0001
,  // measure 9
1000
0010
1000
0000
0001
0000
0001
0000
0010
0001
0010
0000
0100
0000
1000
0000
,  // measure 10
0010
0000
0100
0001
1000
0100
0010
0000
,  // measure 11
0001
0100
0001
0000
0100
0000
0100
0000
0100
0000
0001
0100
0001
0000
0100
0000
,  // measure 12
0001
0010
0100
0000
0010
0100
1000
0000
,  // measure 13
0100
0010
0100
0010
0100
0010
0100
0000
1000
0000
0001
0000
0010
0000
0100
0000
,  // measure 14
1000
0010
1000
0000
0010
0000
1000
0010
0000
0010
0000
0010
1000
0000
0001
0000
,  // measure 15
1000
0000
1000
0000
0001
0010
0001
0000
0010
0001
0000
0001
0010
0000
0002
0000
,  // measure 16
0000
0000
1003
0000
0001
0010
1000
0010
,  // measure 17
0001
1000
0001
1000
0001
1000
0001
0000
1000
0000
0010
0000
0100
0000
0001
0000
,  // measure 18
1000
0100
1000
0000
0100
0000
0100
0000
0100
0000
1000
0100
1000
0000
0001
0000
,  // measure 19
0100
0000
0100
0000
0010
1000
0010
0000
1000
0010
0000
0010
1000
0000
0020
0000
,  // measure 20
0000
0000
1030
0000
0001
0100
1000
0100
,  // measure 21
0001
1000
0001
1000
0001
0000
0100
0000
0010
1000
0010
0000
0100
0001
0100
0000
,  // measure 22
0001
1000
0001
1000
0001
0000
0010
0000
0100
1000
0100
0000
0010
0001
0010
0000
,  // measure 23
0001
0000
0001
0000
0100
0010
0100
0000
0001
0000
0100
0000
0010
0000
1000
0001
,  // measure 24
1000
0100
0010
0100
1000
0020
0000
0130
,  // measure 25
0001
1000
0001
1000
0001
0000
0100
0000
0100
0000
0010
0000
1000
0010
1000
0000
,  // measure 26
0100
0000
0010
0000
0001
0000
1000
0000
0001
1000
0001
1000
0001
0000
0010
0000
,  // measure 27
0100
0000
0010
0001
0010
0001
0010
0000
0100
0000
0010
0001
0010
0001
0010
0001
,  // measure 28
1000
0100
1000
0000
0001
0010
0001
0000
1000
0100
0010
0001
0100
0010
0100
0010
,  // measure 29
1000
0000
0000
1000
0001
0000
0000
0001
1000
0000
0000
1000
0010
0000
0000
0010
,  // measure 30
0100
0000
0000
0100
0001
0000
0000
0001
1000
0000
0000
1000
0100
0000
0000
0100
,  // measure 31
0010
0000
0000
0010
0001
0000
0000
0001
1000
0000
0000
1000
0010
0000
0000
0010
,  // measure 32
0100
0000
0001
0000
0001
0000
1000
0001
1000
0000
0020
0000
0000
0000
0130
0000
,  // measure 33
0001
0000
0000
0001
1000
0000
0000
1000
0100
0000
0000
0100
0010
0000
0000
0010
,  // measure 34
0001
0000
0000
0001
0100
0000
0000
0100
0010
0000
0000
0010
1000
0000
0000
1000
,  // measure 35
0001
0000
0000
0001
1000
0000
0000
1000
0010
0000
0000
0010
0100
0000
0000
0100
,  // measure 36
0001
0000
1000
0000
1000
0000
0010
0100
0020
0000
0000
0000
0130
0000
0000
0000
,  // measure 37
0002
0000
1000
0000
0000
1000
0000
0000
1003
0000
0001
0000
0010
0000
0001
0000
,  // measure 38
0200
0000
0001
0000
0000
0001
0000
0000
0301
0000
1000
0000
0100
0000
0010
0000
,  // measure 39
0002
0000
0100
0000
0000
0100
0000
0000
0103
0000
0001
0000
1000
0000
0100
0000
,  // measure 40
2000
0000
0001
0000
0000
0001
0000
0000
3001
0000
1000
0000
0010
0000
0100
0000
,  // measure 41
0020
0000
1000
0000
0000
1000
0000
0000
1030
0000
0001
0000
0010
0000
0001
0000
,  // measure 42
2000
0000
0100
0000
0000
0100
0000
0000
3100
0000
1000
0000
0001
0000
0010
0000
,  // measure 43
0002
0000
1000
0000
0000
1000
0000
0000
1003
0000
0001
0000
0010
0000
0100
0000
,  // measure 44
1000
0001
1000
0000
0001
0000
0001
0000
1000
0100
1000
0100
0010
0001
0010
0001
,  // measure 45
1000
0010
1000
0010
1000
0010
1000
0000
0001
0100
0001
0100
0001
0100
0001
0000
,  // measure 46
1000
0000
1000
0000
0100
1000
0100
0000
1000
0100
0000
0100
1000
0000
0001
0000
,  // measure 47
1000
0001
1000
0000
0001
0000
0010
0001
0000
0001
0000
0001
0010
0000
0002
0000
,  // measure 48
0000
0000
1000
1003
0001
0100
0010
1000
,  // measure 49
0001
0010
0001
0010
0001
0010
0001
0000
1000
0100
1000
0100
1000
0100
1000
0000
,  // measure 50
0001
0000
0001
0000
0100
0001
0100
0000
0001
0100
0000
0100
0001
0000
1000
0000
,  // measure 51
0010
1000
0010
0000
1000
0000
1000
0000
1000
0000
0001
1000
0001
0000
2000
0000
,  // measure 52
0000
0000
0000
0000
3001
0100
0001
0000
0010
0100
0010
0100
0010
0001
1000
0001
,  // measure 53
0000
1001
0000
0000
;

//---------------dance-single - ----------------
#NOTES:
     dance-single:
     :
     Beginner:
     2:
     0.095,0.129,0.030,0.000,0.000:
0001
0000
0000
0000
,
1000
0000
0000
0000
,
0001
0000
0000
0000
,
0100
0000
0100
0000
,
0110
0000
0000
0000
,
0000
0000
0000
0000
,
0010
0000
0000
0000
,
0010
0000
0000
0000
,
0110
0000
0000
0000
,
0000
0000
0000
0000
,
0001
0000
0000
0000
,
0001
0000
0000
0000
,
1000
0000
0100
0000
,
1000
0000
0000
0000
,
0010
0000
0000
0000
,
0100
0000
0000
0000
,
0001
0000
1000
0000
,
0001
0000
0000
0000
,
0010
0000
0000
0000
,
0100
0000
0000
0000
,
1000
0000
0000
0000
,
0010
0000
0000
0000
,
0100
0000
0000
0000
,
0001
0000
0000
0000
,
0100
0000
0000
0000
,
0010
0000
0000
0000
,
1000
0000
0000
0000
,
0001
0000
0000
0000
,
1000
0000
1000
0000
,
1000
0000
0000
0000
,
0001
0000
0001
0000
,
0001
0000
0000
0000
,
1000
0000
1000
0000
,
1000
0000
0000
0000
,
0001
0000
0001
0000
,
0001
0000
0000
0000
,
0100
0000
0010
0000
,
0100
0000
0000
0000
,
0010
0000
0100
0000
,
0010
0000
0000
0000
,
1000
0000
0001
0000
,
1000
0000
0000
0000
,
0001
0000
1000
0000
,
0001
0000
0000
0000
,
1000
0000
0100
0000
,
0010
0000
0000
0000
,
0010
0000
0000
0000
,
0010
0000
0000
0000
,
0001
0000
0010
0000
,
0100
0000
0000
0000
,
0100
0000
0000
0000
,
0100
0000
0000
0000
,
0000
0110
0000
0000
;
