#TITLE:聖者の行進;
#SUBTITLE:(AOR EDITION);
#ARTIST:日野友香 (metro trip);
#TITLETRANSLIT:SEIJA NO KOUSHIN;
#SUBTITLETRANSLIT:;
#ARTISTTRANSLIT:TOMOKA HINO (metro trip);
#CREDIT:DigiMindAxel;
#BANNER:SEIJA NO KOUSHIN (AOR EDITION).png;
#BACKGROUND:SEIJA NO KOUSHIN (AOR EDITION)-bg.png;
#LYRICSPATH:SEIJA NO KOUSHIN (AOR EDITION).lrc;
#CDTITLE:DANCE 86.4.png;
#MUSIC:SEIJA NO KOUSHIN (AOR EDITION).mp3;
#OFFSET:-11.130;
#SAMPLESTART:58.401;
#SAMPLELENGTH:12.000;
#SELECTABLE:YES;
#BPMS:0.000=123.050;
#STOPS:;
#BGCHANGES:;

//---------------dance-single - ----------------
#NOTES:
     dance-single:
     :
     Easy:
     2:
     0.194,0.196,0.099,0.089,0.000:
0002
0000
1003
0100
,
0020
0000
0030
0001
,
0010
0100
1000
0010
,
0110
0100
0010
0000
,
1000
0100
0010
0001
,
0100
0010
0100
0000
,
0010
0100
0001
0010
,
0100
0000
0000
0000
,
0000
0000
0000
0000
,
1001
0100
1000
0100
,
0010
0001
0100
0010
,
0200
0000
0310
0000
,
1001
0001
0000
1000
,
0000
0001
0000
0010
,
0000
0100
0000
1000
,
0000
0001
0000
1000
,
0100
1000
0000
0010
,
0100
0010
0000
1000
,
0100
1000
0000
0000
,
0001
0010
0001
0100
,
0010
0000
0100
0000
,
0010
0000
0100
0000
,
0001
0000
1000
0000
,
0001
0010
0100
1000
,
0020
0000
0000
0030
,
1001
1000
0001
1000
,
0100
1000
0100
1000
,
0100
0010
0001
1000
,
0020
0000
0000
0130
,
0110
0000
0010
0100
,
1001
0000
0000
0001
,
1000
0001
1000
0001
,
0100
0010
1000
0100
,
0010
1001
0000
0001
,
1000
0001
1000
0100
,
0010
0001
0010
0001
,
0200
0000
0000
0310
,
0110
0000
0000
0000
,
0000
0000
0000
0000
,
1001
0001
1000
0001
,
0010
0100
1000
0010
,
0200
0000
0000
0000
0310
0000
0000
2002
,
0000
0000
0000
0000
,
0000
0000
0000
0000
,
3003
0000
0000
0000
;

//---------------dance-single - ----------------
#NOTES:
     dance-single:
     :
     Medium:
     5:
     0.291,0.283,0.149,0.129,0.005:
2000
0000
3010
0110
,
0200
0000
0000
0000
0000
0300
0001
1000
,
0001
0010
0100
1000
,
0001
0100
0010
0100
0000
0001
1000
0001
,
0000
1000
0000
0100
0000
0001
0000
0000
,
0100
1000
0100
0010
,
0002
0000
0000
0000
1003
0000
0010
0100
,
0020
0000
0100
0000
,
0130
0000
0000
0000
,
1001
0001
0100
0010
,
1000
0100
0000
0010
0000
0001
0000
0100
,
0020
0000
0130
0000
,
1001
1000
0001
0100
,
0001
0100
0001
0000
1000
0100
1000
0000
,
0010
0100
0010
1000
,
0010
0100
0010
0000
1000
0001
1000
0000
,
1001
0000
0010
0000
0100
0001
0100
0000
,
0010
1000
0010
0000
0100
0000
0001
0000
,
0010
0001
0010
0000
0100
1000
0100
0000
,
1000
0000
0000
0001
0000
0000
0100
0000
0000
0000
0000
0000
0010
0000
0100
0000
,
0110
0010
0100
0010
,
0100
0001
1000
0001
,
2000
0100
0010
3001
,
2002
0000
0000
3003
,
0110
0000
0000
0000
,
1000
0001
0100
0001
0000
1000
0001
1000
,
0000
1100
0000
0100
0000
0110
0000
0000
,
0010
0100
0010
0000
1000
0100
0010
0000
,
0001
0010
0100
0000
1000
0001
1000
0010
,
0200
0000
0000
0001
0301
0000
1000
0000
,
0010
0100
0000
0000
0000
0000
0001
0000
,
0001
1000
0100
1000
0000
0010
0100
0010
,
0000
0100
0000
0101
0000
0100
0001
0010
,
0100
1000
0010
1000
0000
0100
0010
0100
,
0000
1000
0000
1001
0000
0001
0000
0000
,
0100
0010
0100
0000
0001
0010
0100
0000
,
2002
0000
0000
0000
3003
0000
0100
0010
,
0110
0000
0000
0000
,
0000
0000
0000
0000
0000
0000
0001
1000
,
0001
0010
0100
0000
1000
0100
0010
0000
,
0001
0100
0110
0000
1000
0010
0100
0001
,
1000
0000
0000
0000
0010
0100
0000
2002
,
0000
0000
0000
0000
,
0000
0000
0000
0000
,
3003
0000
0000
0000
;

//---------------dance-single - ----------------
#NOTES:
     dance-single:
     :
     Hard:
     7:
     0.482,0.588,0.307,0.129,0.307: // measure 1
0100
0000
0000
0000
0000
0000
0000
1100
0000
0000
1001
0000
0000
0000
0000
0000
,  // measure 2
0100
0000
0000
0000
0000
0000
0000
0101
0000
0000
1001
0000
0000
0000
0000
0000
,  // measure 3
1000
0000
0000
0000
0000
0000
0000
1100
0000
0000
1001
0000
0001
1000
0001
0000
,  // measure 4
1000
0100
0001
0100
0000
1000
0001
0010
,  // measure 5
0000
0110
0000
1100
0000
0011
0000
0100
,  // measure 6
1000
0000
0001
0000
0200
0000
0000
0000
0302
0000
0000
0000
1003
0100
1000
0000
,  // measure 7
0002
0000
0100
0000
0000
0100
0000
0000
1003
0000
0100
0000
0001
0000
0100
0000
,  // measure 8
1000
0001
1000
0001
,  // measure 9
1000
0000
0000
0000
0001
0000
1000
0000
1000
0000
0000
0000
0001
1000
0001
0000
,  // measure 10
1000
0000
0000
1000
0010
0000
0000
0010
0100
0000
0000
0100
0002
0000
0000
0000
,  // measure 11
0000
1003
0000
0101
0000
0110
0000
1100
,  // measure 12
2002
3003
0220
0330
,  // measure 13
1000
0000
0010
0000
0100
0000
0000
0100
0000
0000
0100
0000
0000
0000
0001
0000
,  // measure 14
1000
0000
0001
0100
0000
0000
0001
0000
1000
0000
0100
0000
0010
0000
0000
0000
,  // measure 15
0001
0000
0010
0000
0100
0000
0001
0000
0000
0000
0100
0000
0000
1000
0000
0000
,  // measure 16
0001
1000
0100
0010
0000
0001
1000
0010
,  // measure 17
0110
0000
0001
0000
0100
0000
0001
0000
1000
0000
0100
0000
0000
0100
0000
0000
,  // measure 18
0100
0001
0100
1000
0010
0110
0000
0000
,  // measure 19
1000
0000
1000
0000
0001
0000
1000
0010
0000
0000
0100
0000
0000
0001
0000
0000
,  // measure 20
0100
0000
0000
1000
0000
0000
0010
0000
0100
0000
0000
0001
1000
0100
1000
0000
,  // measure 21
1001
0000
1000
0100
0001
0100
1000
0010
,  // measure 22
0100
1000
0100
0001
0100
0010
0001
1000
,  // measure 23
1001
0000
0001
0010
1000
0010
0001
1000
,  // measure 24
1002
0000
0000
0000
0100
0000
0000
0000
1003
0000
0010
0100
0010
0100
0001
0100
,  // measure 25
0001
0000
0000
0000
0000
0000
0000
0000
0000
0000
0000
0000
1000
0001
1000
0000
,  // measure 26
0001
0000
1000
0010
1000
0010
1000
0000
0001
0000
0010
0100
0010
0100
0010
0000
,  // measure 27
0001
0101
0000
0110
0000
1010
0000
0000
,  // measure 28
0100
0000
0000
0100
0001
0000
0000
0001
1000
0000
0000
1000
0100
0000
0000
0100
,  // measure 29
0010
0000
0001
0000
1000
0010
1000
0000
0100
0000
0010
0000
0001
0100
0001
0000
,  // measure 30
0210
0000
0000
0000
0310
0000
1000
0000
0200
0000
0000
0000
1300
0001
1000
0000
,  // measure 31
0001
0000
1000
0000
0100
0000
0001
0000
0000
0000
0100
0000
1000
0010
1000
0000
,  // measure 32
0001
0000
0010
0001
0010
0001
0010
0000
0000
0000
0100
0000
1000
0000
0010
0000
,  // measure 33
0100
0010
0100
0000
0001
0100
0001
0000
1000
0010
1000
0010
1000
0100
0010
0001
,  // measure 34
1000
0000
0110
0000
0100
0010
0100
0000
0001
0000
1000
0100
1000
0100
1000
0000
,  // measure 35
0001
0101
0000
0110
0000
1010
0000
0000
,  // measure 36
0001
0000
0000
0001
0100
0000
0000
0100
1000
0000
0000
1000
0100
0000
0000
0100
,  // measure 37
0001
0000
0010
0000
0100
0000
1000
0000
0010
0000
0100
0000
0001
0100
0001
0000
,  // measure 38
0101
0010
0100
0010
,  // measure 39
0100
0000
0000
0000
0010
0000
0100
0000
0100
0000
0000
0000
0010
0100
0010
0000
,  // measure 40
1000
0000
0001
0100
0001
0100
0001
0000
1000
0000
0100
0010
0100
0010
0100
0000
,  // measure 41
1000
0000
0010
0000
0110
0000
0100
0000
0001
0100
0001
0100
0001
0010
0100
1000
,  // measure 42
0001
0000
0100
0010
0000
0100
0010
0000
1000
0000
1100
0000
0000
0000
2002
0000
,  // measure 43
0000
0000
0000
0000
,  // measure 44
0000
0000
0000
0000
,  // measure 45
3003
0000
0000
0000
;

//---------------dance-single - ----------------
#NOTES:
     dance-single:
     :
     Beginner:
     1:
     0.074,0.124,0.089,0.000,0.000:
0001
0000
0000
0000
,
0001
0000
0000
0000
,
0001
0000
0000
0000
,
1001
0000
0000
0000
,
1000
0000
0000
0000
,
0100
0000
0000
0000
,
0010
0000
0000
0000
,
0001
0000
0000
0000
,
0000
0000
0000
0000
,
1001
0000
0000
0000
,
0001
0000
0000
0000
,
1000
0000
0000
0000
,
1001
0000
0000
0000
,
0000
0000
0000
0000
,
0100
0000
0000
0000
,
0010
0000
0000
0000
,
0100
0000
0000
0000
,
0000
0000
0000
0000
,
1000
0000
0001
0000
,
1000
0000
0000
0000
,
1001
0000
0001
0000
,
0001
0000
0001
0000
,
1000
0000
1000
0000
,
1000
0000
0000
0000
,
1001
0000
0000
0000
,
0001
0000
0000
0000
,
0100
0000
0000
0000
,
0010
0000
0000
0000
,
1000
0000
0000
0000
,
0010
0000
0000
0000
,
0100
0000
0000
0000
,
0001
0000
0000
0000
,
1001
0000
0000
0000
,
1001
0000
0000
0000
,
1000
0000
0000
0000
,
0100
0000
0000
0000
,
0010
0000
0000
0000
,
0001
0000
0000
0000
,
0000
0000
0000
0000
,
1001
0000
0000
0000
,
0001
0000
0000
0000
,
1000
0000
0000
0000
0000
0000
0000
1001
;
