#TITLE:さよならトリップ;
#SUBTITLE:;
#ARTIST:Dormir;
#TITLETRANSLIT:SAYONARA TRIP;
#SUBTITLETRANSLIT:;
#ARTISTTRANSLIT:;
#CREDIT:DigiMindAxel;
#BANNER:SAYONARA TRIP.png;
#BACKGROUND:SAYONARA TRIP-bg.png;
#LYRICSPATH:SAYONARA TRIP.lrc;
#CDTITLE:jubeat.png;
#MUSIC:SAYONARA TRIP.mp3;
#OFFSET:-8.740;
#SAMPLESTART:59.233;
#SAMPLELENGTH:12.000;
#SELECTABLE:YES;
#BPMS:0.000=133.000;
#STOPS:;
#BGCHANGES:;

//---------------dance-single - ----------------
#NOTES:
     dance-single:
     :
     Easy:
     2:
     0.180,0.212,0.082,0.163,0.000:
0001
0000
0001
0000
,
1000
0000
1000
0000
,
0001
0000
1000
0000
,
0002
0000
0000
0003
,
1001
0000
1001
0000
,
1000
0000
0001
0000
,
0100
0000
0010
0000
,
1000
0000
0001
0000
,
1001
0000
1001
0000
,
0001
0000
1000
0000
,
0100
0000
0010
0000
,
0002
0000
0000
0003
,
1001
0000
1000
0000
,
0001
0000
1000
0000
,
0010
0100
0010
0000
,
0100
0010
0100
0000
,
1001
0000
0001
0000
,
1000
0000
0001
0000
,
0100
0010
0100
0000
,
0010
0100
0010
0000
,
1002
0000
0000
0000
,
2003
0000
0000
0000
,
3002
0000
0000
0000
,
2003
0000
0000
0000
,
3200
0000
0000
0000
,
0320
0000
0000
0000
,
0032
0000
0000
0000
,
2003
0000
0000
3000
,
1001
1000
0001
0000
,
1000
0001
1000
0000
,
0100
1000
0100
0000
,
0010
0001
0010
0000
,
0001
1000
0001
0000
,
1000
0001
1000
0000
,
0010
1000
0010
0000
,
0100
0001
0100
0000
,
0002
0000
0000
0000
,
2003
0000
0000
0000
,
3200
0000
0000
0000
,
0320
0000
0000
0000
,
0032
0000
0000
0000
,
0203
0000
0000
0000
,
0320
0000
0000
0000
,
2030
0000
0000
3000
,
1001
1000
0001
0100
,
0001
1000
0000
0100
,
1000
0010
0100
0010
,
1000
0001
1000
0100
,
0010
0100
1000
0000
,
0010
0100
0001
1000
,
0001
0100
0001
0000
,
0010
0100
1000
0001
,
1000
0000
0000
0000
;

//---------------dance-single - ----------------
#NOTES:
     dance-single:
     :
     Medium:
     4:
     0.300,0.330,0.181,0.254,0.000:
1000
0100
1000
0100
,
1000
0001
1000
0001
,
0010
0100
1000
0010
,
0200
0000
0000
0300
,
1001
0000
1001
0000
,
1100
0000
0011
0000
,
0100
0000
1000
0001
1000
0000
0100
0000
,
0010
0000
0001
0000
0100
0010
0100
0000
,
1001
0000
1001
0000
,
1010
0000
0101
0000
,
0001
0000
0100
0001
0100
0000
0001
0000
,
0010
0000
0100
0000
1000
0001
1000
0000
,
1001
0000
1001
0000
,
0011
0000
1100
0000
,
1000
0000
0010
0100
0010
0000
1000
0000
,
0001
0100
0001
0000
1000
0100
1000
0000
,
1001
0000
1001
0000
,
1010
0000
0101
0000
,
0010
0000
0100
0010
0100
0000
0001
0000
,
1000
0100
1000
0000
0010
0100
0010
0000
,
2001
0000
0000
0000
,
3200
0000
0000
0000
,
0320
0000
0000
0000
,
0032
0000
0000
0000
,
0203
0000
0000
0000
,
0320
0000
0000
0000
,
2030
0000
0000
0000
,
3002
0000
0000
1003
,
0001
0100
0001
0000
0100
0001
0100
0000
,
0002
0000
1003
0000
0001
0010
0100
0000
,
2000
0000
3001
0000
1000
0100
0010
0000
,
0001
1000
0001
0000
0010
0000
0100
0000
,
1000
0010
1000
0000
0010
1000
0010
0000
,
0200
0000
0301
0000
1000
0001
0100
0000
,
0020
0000
1030
0000
0001
1000
0100
0000
,
1000
0001
1000
0000
0001
0000
1000
0000
,
0120
0000
2030
0000
,
3002
0000
0203
0000
,
0320
0000
2030
0000
,
3200
0000
0320
0000
,
0032
0000
2003
0000
,
3002
0000
0203
0000
,
0320
0000
2030
0000
,
3002
0000
1003
0001
,
1001
0000
0010
1000
0100
0000
1000
0000
,
0001
0000
1000
0001
0100
0000
0001
0000
,
1000
0000
0001
1000
0100
0000
1000
0001
,
0010
0100
1000
0001
0100
0000
0010
0000
,
1000
0000
0001
0100
0010
0000
1000
0000
,
0001
0000
1000
0010
0100
0000
0001
0000
,
1000
0000
0010
0100
0001
0000
1000
0100
,
1000
0010
0100
0001
1000
0000
0001
0000
,
1001
0000
0000
0000
;

//---------------dance-single - ----------------
#NOTES:
     dance-single:
     :
     Hard:
     7:
     0.505,0.565,0.009,0.263,0.086: // measure 1
1000
0000
0100
0000
0001
0100
1000
0000
,  // measure 2
0001
0000
0010
0000
1000
0010
0001
0000
,  // measure 3
1000
0000
0100
0000
0001
0100
1000
0000
,  // measure 4
0010
0100
0010
0100
0010
0100
0010
1000
,  // measure 5
0200
0000
0301
1000
0020
0000
0031
1000
,  // measure 6
0200
0000
0301
1000
0020
0000
0031
0000
,  // measure 7
1000
0001
0010
1000
0010
0001
0000
0100
,  // measure 8
0010
1000
0100
1000
0001
0000
1000
0001
,  // measure 9
0200
0000
1300
0001
0020
0000
1030
0001
,  // measure 10
0200
0000
1300
0001
0020
0000
1030
0000
,  // measure 11
0001
1000
0100
0001
0100
1000
0001
0100
,  // measure 12
0001
0010
0100
0001
0100
1000
0001
1000
,  // measure 13
0200
0000
0301
1000
0020
0000
0031
1000
,  // measure 14
0200
0000
0301
1000
0020
0000
0031
1000
,  // measure 15
0100
0000
0010
0100
1000
0100
0010
0000
,  // measure 16
0001
0100
1000
0100
0001
1000
0010
1000
,  // measure 17
0200
0000
0301
1000
0020
0000
0031
1000
,  // measure 18
0200
0000
0301
1000
0020
0000
0031
1000
,  // measure 19
0010
0100
0010
1000
0000
0001
0100
1000
,  // measure 20
0100
0000
0001
0000
1000
0000
0010
0000
0100
0000
0001
1000
0001
0000
0010
0000
,  // measure 21
0200
0000
1000
0000
0000
0010
0000
0310
,  // measure 22
0002
0000
1000
0000
0000
0100
0000
0103
,  // measure 23
0020
0000
0001
0000
0000
1000
0000
1030
,  // measure 24
0200
0000
0010
0000
0000
1000
0000
1300
,  // measure 25
0002
0000
0100
0000
0000
1000
0000
1003
,  // measure 26
0020
0000
0100
0000
0000
1000
0000
1030
,  // measure 27
0001
0010
0100
1000
0001
0010
0100
1000
,  // measure 28
0010
0100
0010
0100
0010
0100
0010
0100
0010
0000
0000
0000
1000
0100
1000
0000
,  // measure 29
0001
0010
1000
0010
0100
1000
0100
0001
,  // measure 30
0100
0010
0001
1000
0001
0010
0100
1000
,  // measure 31
0002
0000
0103
0010
1000
0100
0001
0100
,  // measure 32
1000
0000
0010
0000
0100
0000
0000
0000
0001
0000
0000
0001
1000
0000
0010
0000
,  // measure 33
1000
0100
0010
1000
0010
0001
0010
0100
,  // measure 34
0001
0100
1000
0001
0100
0010
1000
0000
,  // measure 35
0001
0001
0010
0100
1000
0001
0010
1000
,  // measure 36
0010
0000
0001
0000
1000
0000
0010
0000
0100
0010
0100
0010
0100
0010
0100
0010
,  // measure 37
0100
0001
0010
0000
1000
0010
0001
0000
,  // measure 38
0100
0001
0010
0000
1000
0010
0001
0000
,  // measure 39
1000
0001
0100
0000
1000
0100
0001
0000
,  // measure 40
1000
0001
0100
0000
1000
0100
0001
0000
,  // measure 41
0010
0001
0100
0000
1000
0100
0001
0000
,  // measure 42
1000
0001
0010
0000
1000
0010
0001
0000
,  // measure 43
0010
0100
0010
0100
1000
0001
1000
0001
,  // measure 44
0100
0010
0100
0010
0100
0010
0100
0010
0100
0010
0100
0000
0001
0100
0001
0000
,  // measure 45
1001
0001
2000
0001
3001
1000
0100
0001
,  // measure 46
0100
1000
0002
0100
0103
0001
1000
0010
,  // measure 47
0001
0010
2000
0001
3001
0000
1000
0100
,  // measure 48
0001
0000
1000
0000
0010
0000
0001
0000
1000
0000
0000
1000
0001
0000
0100
0000
,  // measure 49
0001
1000
0200
0010
0310
0001
0100
1000
,  // measure 50
0001
0010
2000
0001
3001
1000
0100
0001
,  // measure 51
1000
0010
0002
1000
1003
0001
1000
0001
,  // measure 52
0100
0000
1000
0000
0100
0000
0010
0000
1000
0000
0000
1000
0001
0000
0100
0000
,  // measure 53
0010
0000
0000
0000
;

//---------------dance-single - ----------------
#NOTES:
     dance-single:
     :
     Beginner:
     1:
     0.069,0.118,0.063,0.000,0.000:
1000
0000
0000
0000
,
1000
0000
0000
0000
,
1000
0000
0000
0000
,
1001
0000
0000
0000
,
1001
0000
0000
0000
,
0001
0000
0000
0000
,
1000
0000
0000
0000
,
0001
0000
0000
0000
,
0010
0000
0000
0000
,
0100
0000
0000
0000
,
0010
0000
0000
0000
,
0100
0000
0000
0000
,
1001
0000
0000
0000
,
0001
0000
0000
0000
,
1000
0000
0000
0000
,
0001
0000
0000
0000
,
1000
0000
0000
0000
,
0100
0000
0000
0000
,
1000
0000
0000
0000
,
0010
0000
0000
0000
,
0110
0000
0000
0000
,
0000
0000
0000
0000
,
0100
0000
0000
0000
,
0000
0000
0000
0000
,
0010
0000
0000
0000
,
0000
0000
0000
0000
,
0100
0000
0000
0000
,
0000
0000
0000
0000
,
1001
0000
0000
0000
,
1000
0000
0000
0000
,
0001
0000
0000
0000
,
1000
0000
0000
0000
,
0010
0000
0000
0000
,
0100
0000
0000
0000
,
0001
0000
0000
0000
,
1000
0000
0000
0000
,
1001
0000
0000
0000
,
0000
0000
0000
0000
,
0000
0000
0000
0000
,
0000
0000
0000
0000
,
0010
0000
0000
0000
,
0010
0000
0000
0000
,
0010
0000
0000
0000
,
0010
0000
0000
0000
,
0110
0000
0000
0000
,
1000
0000
0000
0000
,
0001
0000
0000
0000
,
1000
0000
0000
0000
,
0100
0000
0000
0000
,
0010
0000
0000
0000
,
0100
0000
0000
0000
,
1000
0000
0000
0000
,
0001
0000
0000
0000
;
