#TITLE:Running Around The City;
#SUBTITLE:;
#ARTIST:澤和雄;
#TITLETRANSLIT:;
#SUBTITLETRANSLIT:;
#ARTISTTRANSLIT:KAZUO SAWA;
#CREDIT:DigiMindAxel;
#BANNER:Running Around The City.png;
#BACKGROUND:Running Around The City-bg.png;
#LYRICSPATH:;
#CDTITLE:DigiMindAxel original simfile.png;
#MUSIC:Running Around The City.mp3;
#OFFSET:-9.860;
#SAMPLESTART:42.667;
#SAMPLELENGTH:12.000;
#SELECTABLE:YES;
#BPMS:0.000=204.800;
#STOPS:;
#BGCHANGES:;

//---------------dance-single - ----------------
#NOTES:
     dance-single:
     :
     Challenge:
     9:
     0.790,0.782,0.592,0.237,1.000:
0001
0000
1000
0100
0000
1000
0100
0000
1000
0100
0000
0000
,
0010
0000
0001
0100
0000
0001
0100
0000
0001
0100
0000
0000
,
0010
0000
1000
0001
0000
1000
0001
0000
1000
0001
0000
0000
,
0010
0000
0001
0100
0000
0001
0100
0000
0000
0110
0000
0000
,
1001
0000
0001
0010
0000
0001
0010
0000
0001
0010
0000
0000
,
0100
0000
1000
0010
0000
1000
0010
0000
1000
0010
0000
0000
,
0100
0000
0001
1000
0000
0001
1000
0000
0001
1000
0000
0000
,
0010
0000
0100
0010
0000
0100
0010
0000
0000
0110
0000
0000
,
1001
0000
1000
0001
0000
1000
0001
0000
1000
0001
0000
0000
,
0010
0000
0100
1000
0000
0100
1000
0000
0100
1000
0000
0000
,
0010
0000
0100
0001
0000
0100
0001
0000
0100
0001
0000
0000
,
1001
0000
0000
1000
0001
1000
0001
1000
0001
1000
0001
1000
,
0001
0000
0000
0101
0000
0000
0101
0000
0000
0010
0000
1000
,
0100
0000
0010
0000
0000
1002
0000
0000
0000
1003
0000
0010
,
0100
0000
0000
0001
0000
0000
0010
0000
0100
0010
0000
0001
,
0100
0000
0010
1000
0000
0002
0000
0000
0000
1003
0000
0000
,
0110
0000
0000
1010
0000
0000
1010
0000
0000
0100
0000
0001
,
1000
0000
0100
0000
0000
2001
0000
0000
0000
3001
0000
0100
,
0010
0000
1000
0100
0000
1000
0100
0000
1000
0100
0000
1000
,
0001
0000
0010
0100
0000
2000
0000
0000
0000
3001
0100
0001
,
2000
0000
0000
3000
0000
1001
0000
0000
0000
1000
0000
0001
,
0200
0000
0000
0300
0000
1001
0000
0000
0000
0010
0000
1000
,
0002
0000
0000
0003
0000
1001
0000
0000
1100
0000
0000
1000
,
0100
0000
0010
0001
0000
1000
0000
0000
0000
0010
0100
0010
,
2000
0000
0000
3000
0000
1001
0000
0000
0000
0100
0000
0001
,
2000
0000
0000
3000
0000
1001
0000
0000
0000
0010
0000
1000
,
0001
0000
0000
1001
0000
0000
0001
0000
1000
0001
0010
0100
,
1000
0000
0010
0100
0010
0100
0010
0100
0010
0100
0010
0100
,
0010
0000
0000
0101
0000
0000
0110
0000
0000
0010
0000
1000
,
0100
0000
0010
0000
0000
0002
0000
0000
0000
1003
0000
0010
,
0100
0000
0000
0001
0000
0000
1001
0000
1000
0100
0000
1000
,
0100
0000
1000
0001
0000
0200
0000
0000
0000
0301
0000
0000
,
0110
0000
0000
0101
0000
0000
0110
0000
0000
0100
0000
0010
,
1000
0000
0001
0000
0000
0200
0000
0000
0000
0310
0000
0100
,
0010
0000
0100
0001
0000
0100
0001
0000
0100
0001
0000
1000
,
0100
0000
0010
0100
0000
2000
0000
0000
0000
3001
0100
0001
,
2000
0000
0000
3000
0000
1001
0000
0000
0000
0010
0000
0001
,
2000
0000
0000
3000
0000
1001
0000
0000
0000
0100
0000
1000
,
0002
0000
0000
0003
0000
1001
0000
0000
0001
0000
0000
1000
,
0100
0000
0010
0001
0000
2000
0000
0000
0000
3001
0010
0001
,
2000
0000
0000
3000
0000
1001
0000
0000
0000
1000
0000
0010
,
0200
0000
0000
0300
0000
1001
0000
0000
0000
0001
0000
0100
,
0010
0000
0000
1001
0000
0000
1001
0000
1000
0001
0010
0100
,
1000
0000
0100
0010
0100
0010
0100
0010
0100
0010
0100
0010
,
0100
0000
0000
0101
0000
0000
0110
0000
0000
0100
0000
1010
,
0000
0000
0000
1000
0000
0100
0010
0000
0001
0100
0000
0000
,
0010
0000
0000
0110
0000
0000
0011
0000
0000
0010
0000
0101
,
0000
0000
0000
0001
0000
0010
0100
0000
1000
0010
0000
0000
,
0100
0000
0000
0101
0000
0000
0110
0000
0000
0100
0000
1010
,
0000
0000
0000
1000
0000
0010
0100
0000
0001
1000
0000
0000
,
0010
0000
0000
0110
0000
0000
0011
0000
0000
0010
0000
0101
,
0000
0000
0000
0001
0000
0100
0010
0000
1000
0001
0000
0000
,
1001
0000
0000
1100
0000
0000
1001
0000
0000
0100
0000
1100
,
0000
0000
1000
0001
0000
0010
0100
0000
1000
0001
0000
0000
,
1001
0000
0000
0101
0000
0000
1001
0000
0000
0100
0000
0101
,
0000
0000
0001
1000
0000
0010
0100
0010
0100
0010
0100
0010
,
0100
0000
0000
0101
0000
0000
0010
0000
1000
0100
0000
1000
,
0100
0000
0010
0100
0000
1000
0000
0000
0010
0100
0000
0010
,
0200
0000
0000
0302
0000
0000
1003
0000
0100
0010
0000
0100
,
0010
0000
0001
1000
0000
0020
0000
0000
0000
0130
0000
0001
,
1000
0000
0000
1001
0000
0000
1001
0000
0000
0010
0000
1000
,
0001
0000
0000
1001
0000
0000
1001
0000
0000
1000
0000
0010
,
0200
0000
0000
0302
0000
0000
1003
0000
0010
0100
0000
0001
,
1000
0000
0100
0010
0000
0002
0000
0000
0000
1003
0000
0000
,
0001
0000
0010
0100
0000
0010
0100
0000
0010
0100
0000
1000
,
0001
0000
0001
1000
0000
0010
0100
0000
0001
0000
0000
0000
,
1000
0000
0100
0010
0000
0100
0010
0000
0100
0010
0000
0001
,
0000
0000
0100
0010
0000
1000
0001
1000
0001
1000
0001
1000
,
0001
0100
0001
1000
0000
0000
0100
1000
0100
0010
0000
0000
,
0001
0100
0010
1000
0000
0000
0100
0010
0001
0100
0000
0000
,
0010
0100
0001
1000
0000
0000
0010
0100
0001
1000
0000
0000
,
0100
0010
0001
1000
0000
0000
0010
1000
0001
0010
0000
0000
,
0001
0010
0001
0100
0000
0000
0010
0100
0010
1000
0000
0000
,
0100
1000
0100
0010
0000
0000
0001
0100
0010
1000
0000
0000
,
0100
0010
0100
1000
0000
0000
0010
0100
0001
1000
0000
0000
,
0100
0010
0001
1000
0000
0000
0001
0010
0001
0100
0000
0000
,
0001
0000
1000
0100
0000
1000
0100
0000
0100
0010
0000
0100
,
0010
0000
0010
0001
0000
0010
0001
0000
0001
1000
0000
0001
,
1000
0000
0100
0010
0000
0001
1000
0000
0010
0100
0000
0001
,
1000
0000
0100
0010
0100
0010
0100
0010
0100
0010
0100
0010
,
0100
0000
0000
1100
0000
1000
0002
0000
0000
0013
0000
0000
,
0110
0000
0000
0110
0000
0000
0010
0000
0101
0000
0000
0000
,
0010
0000
0000
0011
0000
0001
2000
0000
0000
3100
0000
0000
,
1000
0001
1000
0001
1000
0001
1000
0001
1000
0001
1000
0001
,
1000
0000
0000
1010
0000
0010
0200
0000
0000
0301
0000
0000
,
0110
0000
0000
0110
0000
0000
0010
0000
0101
0000
0000
0000
,
0001
0000
0001
1000
0000
0001
1000
0000
0001
1000
0000
0001
,
1000
0000
1100
0000
0000
0110
0000
0000
1100
0000
0000
0000
,
1001
0000
0000
0000
;

//---------------dance-single - ----------------
#NOTES:
     dance-single:
     :
     Hard:
     9:
     0.583,0.596,0.110,0.279,0.673:
0001
0000
1000
0010
0000
1000
0010
0000
0000
1000
0000
0000
,
0001
0000
0010
0100
0000
0010
0100
0000
0000
1000
0000
0000
,
0010
0000
0100
0010
0000
0100
0010
0000
0000
1000
0000
0000
,
0001
0000
0100
0010
0000
0100
0010
0000
0000
1001
0000
0000
,
1000
0000
0001
0010
0000
0001
0010
0000
0000
0001
0000
0000
,
1000
0000
0100
0010
0000
0100
0010
0000
0000
0001
0000
0000
,
1000
0000
0010
0100
0000
0010
0100
0000
0000
0010
0000
0000
,
0100
0000
1000
0001
0000
1000
0001
0000
0000
1001
0000
0000
,
1000
0000
0010
0100
0000
0010
0100
0000
0000
0001
0000
0000
,
0010
0000
0100
0010
0000
0100
0010
0000
0000
0001
0000
0000
,
1000
0000
0010
1000
0000
0010
1000
0000
0000
0100
0000
0000
,
0110
0220
0000
0330
,
0110
0000
0000
0100
0000
0000
0100
0000
0000
0001
0000
1000
,
0010
0000
0100
0000
0000
0001
0000
0000
0000
1000
0000
0001
,
1000
0000
0000
0010
0000
0000
0100
0000
0001
1000
0000
0001
,
1000
0000
0100
0010
0000
0002
0000
0000
0000
0000
0000
0000
,
0103
0000
0000
0100
0000
0000
0100
0000
0000
0001
0000
1000
,
0100
0000
0010
0000
0000
0001
0000
0000
0000
0100
0000
0010
,
2000
0000
0000
3002
0000
0000
1000
0000
0000
1003
0000
0010
,
0100
0000
0010
0100
0000
0001
0000
0000
0000
1000
0000
0010
,
0200
0000
0000
0000
0000
0310
0000
0000
0000
1000
0000
0100
,
0020
0000
0000
0000
0000
0130
0000
0000
0000
1000
0000
0010
,
0200
0000
0000
0000
0000
0301
0000
0000
1000
0000
0000
0010
,
0100
0000
0001
0000
0000
1001
0000
0000
0000
0001
0000
0100
,
0020
0000
0000
0000
0000
0130
0000
0000
0000
0001
0000
0010
,
0200
0000
0000
0000
0000
0310
0000
0000
0000
0001
0000
0100
,
0010
1000
0100
0001
,
2200
0000
0000
3300
,
1000
0000
0000
1000
0000
0000
1000
0000
0000
0001
0000
0100
,
0001
0000
1000
0000
0000
0100
0000
0000
0000
0010
0000
0100
,
1000
0000
0000
0001
0000
0000
0010
0000
0100
0010
0000
0100
,
0010
0000
0001
1000
0000
0010
0000
0000
0000
0000
0000
0000
,
1000
0000
0000
1000
0000
0000
1000
0000
0000
0010
0000
0100
,
0001
0000
0010
0000
0000
0100
0000
0000
0000
0010
0000
0001
,
2000
0000
0000
3020
0000
0000
0100
0000
0000
0130
0000
0001
,
1000
0000
0001
1000
0000
0010
0000
0000
0000
1000
0000
0010
,
0200
0000
0000
0000
0000
0301
0000
0000
0000
0010
0000
0100
,
2000
0000
0000
0000
0000
3010
0000
0000
0000
1000
0000
0001
,
0020
0000
0000
0000
0000
0130
0000
0000
1000
0000
0000
0010
,
0100
0000
0010
0100
0000
0001
0000
0000
0000
1000
0000
0010
,
0200
0000
0000
0000
0000
0310
0000
0000
0000
1000
0000
0001
,
0020
0000
0000
0000
0000
0130
0000
0000
0000
1000
0000
0100
,
0010
0100
1000
0010
,
0220
0000
0000
0330
,
1001
0000
0000
0010
0000
0000
0100
0000
0000
1000
0000
0001
,
0000
0000
0100
0000
0000
0100
0010
0000
0000
1000
0000
0000
,
0001
0000
0000
0100
0000
0000
0010
0000
0000
1000
0000
0001
,
0000
0000
0010
0000
0000
0010
0100
0000
0000
1000
0000
0000
,
0010
0000
0000
0100
0000
0000
0001
0000
0000
0010
0000
0100
,
0000
0000
1000
0000
0000
0010
0100
0000
0000
0001
0000
0000
,
1000
0000
0000
0100
0000
0000
0010
0000
0000
0100
0000
1000
,
0000
0000
0010
0000
0000
0100
0010
0000
0000
1000
0000
0000
,
0001
0000
0000
0010
0000
0000
0100
0000
0000
0010
0000
0001
,
0000
0000
0100
0000
0000
0010
0100
0000
0000
0001
0000
0000
,
1000
0000
0000
0100
0000
0000
0001
0000
0000
0100
0000
1000
,
0000
0000
0010
0000
0000
0100
0010
0000
0000
0000
0000
0000
,
1001
0000
0000
1001
0000
0000
0000
0000
0010
0100
0000
0010
,
0100
0000
0010
0100
0000
0001
0000
0000
0010
0100
0000
0000
,
2000
0000
0000
3200
0000
0000
0310
0000
0001
1000
0000
0010
,
0100
0000
0010
0100
0000
0001
0000
0000
0000
0100
0000
0010
,
0100
0000
0000
0001
0000
0000
1000
0000
0000
0010
0000
0100
,
0010
0000
0000
1000
0000
0000
0001
0000
0000
0010
0000
0100
,
0010
0000
0000
0001
0000
0000
1000
0000
0100
0010
0000
0100
,
0010
0000
0100
0010
0000
0001
0000
0000
0000
0000
0000
0000
,
1000
0100
0001
0100
,
1000
0000
0010
0100
0000
0010
0100
0000
0001
0000
0000
0000
,
1000
0010
0001
0010
,
1000
0000
0100
0010
0000
0002
0000
0000
0000
0003
0000
0000
,
2000
3100
0020
0130
,
2000
3100
0020
0130
,
2000
3010
0200
0310
,
2000
3010
0200
0310
,
1000
0000
0001
1000
0000
0000
0001
0000
1000
0001
0000
0000
,
0010
0000
0001
0010
0000
0000
0100
0000
1000
0100
0000
0000
,
0010
0000
0001
0100
0000
0000
0010
0000
1000
0100
0000
0000
,
0010
0000
0001
0100
0000
0000
0010
0000
1000
0100
0000
0000
,
0000
0000
1000
0001
0000
1000
0001
0000
1000
0001
0000
0010
,
0100
0000
0010
0100
0000
0010
0100
0000
1000
0001
0000
1000
,
0001
0000
0010
0100
0000
1000
0100
0000
0010
0100
0000
1000
,
0100
0000
0010
0001
0000
2000
0000
0000
0000
3000
0000
0000
,
1001
0000
0000
1000
0000
0010
0100
0000
0000
0001
0000
0000
,
0010
0000
0000
0100
0000
0000
0010
0000
0001
0000
0000
0000
,
0100
0000
0000
0010
0000
1000
0100
0000
0000
0010
0000
0000
,
0001
0000
0001
1000
0000
0001
1000
0000
0001
1000
0000
0001
,
1000
0000
0000
0010
0000
0100
0001
0000
0000
0010
0000
0000
,
0100
0000
0000
1000
0000
0000
0010
0000
0100
0000
0000
0000
,
0001
0000
0001
0010
0000
0001
0010
0000
0001
1000
0000
0001
,
1000
0000
0100
0000
0000
0010
0000
0000
0100
0000
0000
0000
,
1001
0000
0000
0000
;

//---------------dance-single - ----------------
#NOTES:
     dance-single:
     :
     Medium:
     7:
     0.481,0.484,0.211,0.228,0.330:
0001
0100
0100
0001
,
1000
0010
0010
1000
,
0001
0010
0010
0001
,
1000
0100
0100
1000
,
0010
0100
0100
0010
,
0100
0001
0001
1000
,
0100
0010
0010
0001
,
1000
0010
0010
0100
,
0001
1000
1000
0100
,
0010
0001
0001
0100
,
0010
1000
1000
0010
,
0220
0000
0000
0330
,
1000
1000
1000
0001
,
1000
0000
0001
0000
0000
0100
0000
0000
0000
0001
0000
0000
,
0010
0100
1000
0001
,
1000
0000
0000
0010
0000
0200
0000
0000
0000
0300
0000
0000
,
0001
0001
0001
1000
,
0010
0000
0100
0000
0000
0010
0000
0000
0000
1000
0000
0000
,
0100
2000
0001
0001
,
3001
0000
0000
1000
0000
0010
0000
0000
0000
1000
0000
0001
,
0100
0000
0000
0000
0000
1001
0000
0000
0000
0001
0000
1000
,
0010
0000
0000
0000
0000
1001
0000
0000
0000
1000
0000
0010
,
0100
0000
0000
0000
0000
1001
0000
0000
0001
0000
0000
1000
,
0010
0000
0000
0000
0000
0110
0000
0000
0000
0001
0000
0100
,
0010
0000
0000
0000
0000
1001
0000
0000
0000
1000
0000
0010
,
0100
0000
0000
0000
0000
1001
0000
0000
0000
0001
0000
1000
,
0010
0100
0001
1000
,
2002
0000
0000
3003
,
0001
0000
0000
0100
0000
0000
0001
0000
0000
1000
0000
0010
,
0100
0000
0001
0000
0000
0001
0000
0000
0000
1000
0000
0100
,
1000
0001
0010
0100
,
1000
0000
0000
0001
0000
0200
0000
0000
0000
0000
0000
0000
,
0310
0000
0000
0100
0000
0000
0001
0000
0000
1000
0000
0010
,
0100
0000
0001
0000
0000
0001
0000
0000
0000
0100
0000
0000
,
0010
2000
0001
0001
,
3001
0000
1000
0010
0000
0100
0000
0000
0000
0000
0000
0000
,
1001
0000
0000
0000
0000
0110
0000
0000
0000
0000
0000
0000
,
1100
0000
0000
0000
0000
1100
0000
0000
0000
0000
0000
0000
,
0011
0000
0000
0000
0000
0001
0000
0000
1000
0000
0000
0001
,
1000
0000
0000
0000
0000
0110
0000
0000
0000
0000
0000
0000
,
1001
0000
0000
0000
0000
0110
0000
0000
0000
0000
0000
0000
,
0011
0000
0000
0000
0000
0011
0000
0000
0000
0000
0000
0000
,
0010
0000
0000
0100
0000
0000
1000
0000
0010
0100
0000
0000
,
0002
1000
1000
1003
,
1001
0000
0000
0010
0000
0000
0100
0000
0000
1000
0000
0001
,
0000
0000
0100
0000
0000
0100
0010
0000
0000
0100
0000
0000
,
0001
0000
0000
0010
0000
0000
0100
0000
0000
1000
0000
0001
,
0000
0000
0010
0000
0000
0010
0100
0000
0000
1000
0000
0000
,
0100
0000
0000
0010
0000
0000
0100
0000
0000
1000
0000
0001
,
0000
0000
0010
0000
0000
0010
0100
0000
0000
1000
0000
0000
,
0100
0000
0000
0010
0000
0000
0100
0000
0000
1000
0000
0001
,
0000
0000
0100
0000
0000
0100
0010
0000
0000
1000
0000
0000
,
0100
0000
0000
0001
0000
0000
0100
0000
0000
1000
0000
0001
,
0000
0000
0010
0000
0000
0100
0010
0000
0000
0001
0000
0000
,
0010
0000
0000
1000
0000
0000
0010
0000
0000
0001
0000
1000
,
0000
0000
0010
0000
0000
0100
0010
0000
0000
0000
0000
0000
,
1001
1001
0000
0010
,
0100
1000
0001
0100
,
0001
0100
0001
1000
,
1000
0100
0010
0000
,
0001
0100
0010
0000
,
0100
0001
0010
0000
,
0001
0010
0100
1000
,
0010
0100
0010
0000
,
1000
1000
1000
1000
,
0001
0010
0110
0000
,
0001
0001
0001
1000
,
0100
0110
0000
0000
,
0002
1003
0002
1003
,
0002
1003
0002
1003
,
0020
0130
0020
0130
,
0002
1003
0002
1003
,
0200
1300
0200
1300
,
0020
0031
0020
0031
,
2000
3010
2000
3010
,
0200
0301
0200
0301
,
0000
0000
1000
0001
0000
1000
0001
0000
0000
0010
0000
0000
,
0100
0000
0000
1000
0000
0001
0100
0000
0000
0001
0000
0100
,
0010
0000
0100
0010
0000
0100
0010
0000
0000
1000
0000
0000
,
0010
0220
0000
0330
,
1000
0000
0000
0100
0000
1000
0001
0000
0000
0100
0000
0000
,
0010
0000
0000
0100
0000
0000
0001
0000
1000
0000
0000
0000
,
0001
0000
0000
0010
0000
0001
1000
0000
0000
0010
0000
0000
,
0000
0000
0100
0000
0000
0100
0000
0000
0100
0000
0000
0100
,
0010
0000
0000
1000
0000
0010
0100
0000
0000
0001
0000
0000
,
0010
0000
0000
0100
0000
0000
1000
0000
0001
0000
0000
0000
,
1000
0000
0010
0100
0000
0010
0100
0000
0010
0100
0000
0000
,
0001
0000
0100
0000
0000
0010
0000
0000
1000
0000
0000
0000
,
1001
0000
0000
0000
;

//---------------dance-single - ----------------
#NOTES:
     dance-single:
     :
     Easy:
     4:
     0.323,0.372,0.178,0.195,0.000:
0001
1000
0001
0000
,
0000
0100
0001
0100
,
0000
0010
1000
0010
,
0000
0100
0010
0100
,
0100
0001
1000
0001
,
0000
0010
0001
0010
,
0000
0100
1000
0100
,
0000
1000
0001
1000
,
1000
0010
0100
0010
,
0000
0100
0001
0100
,
0000
0010
1000
0010
,
2000
0000
0000
0000
,
3001
0010
0001
0010
,
0001
0000
0000
1000
,
0010
0100
0010
0100
,
0010
1000
0000
0000
,
0010
0100
0010
0100
,
0001
0010
0001
0010
,
0200
0000
0000
0300
,
1000
0001
1000
0010
,
0220
0000
0330
0000
,
2002
0000
3003
0000
,
0220
0000
0330
0000
,
0001
0000
1000
0000
,
2002
0000
3003
0000
,
0220
0000
0330
0000
,
0001
1000
0001
1000
,
0100
0000
0000
0000
,
1000
1000
1000
0010
,
0100
0001
0000
0010
,
0100
0010
0000
0001
,
1000
0001
0000
0000
,
0010
0010
0010
0100
,
0010
0000
0000
0100
,
1000
0100
0000
0000
,
0010
0100
0010
0000
,
2002
0000
3003
0220
,
0000
0330
0000
2002
,
0000
0000
3003
0000
,
1000
0000
0001
0000
,
0220
0000
0330
0000
,
2002
0000
3003
0000
,
0100
0010
0100
0001
,
1000
0000
0000
0000
,
0010
0010
0010
0010
,
0000
0100
0010
0100
,
0001
0001
0001
0001
,
0000
0100
0010
0100
,
0010
0010
0010
0010
,
0000
1000
0100
1000
,
0001
0001
0001
0001
,
0000
0010
0100
0010
,
0001
0001
0001
0001
,
0000
1000
0100
1000
,
0010
0010
0010
0010
,
0000
1000
0001
0000
,
1000
0000
0000
0100
,
0000
1000
0000
0001
,
0000
1000
0000
0001
,
0000
1000
0000
0001
,
0000
0010
0000
0001
,
0000
0010
0000
0001
,
0000
0100
0000
0010
,
0000
0100
0000
0010
,
0000
1000
0000
0001
,
0000
1000
0000
0100
,
0000
0010
0000
0001
,
0000
1000
0000
0000
,
1001
0000
1000
0000
,
1001
0000
0010
0000
,
0110
0000
0100
0000
,
0110
0000
0001
0000
,
1001
0000
1000
0000
,
1001
0000
1000
0000
,
0110
0000
0001
0000
,
0110
0000
0001
0000
,
0000
1000
0001
1000
,
0100
1000
0100
1000
,
0001
1000
0001
0010
,
0001
0010
0000
0000
,
1001
0000
0001
0000
,
1000
0100
1000
0000
,
0110
0000
0010
0000
,
0100
0010
0100
0010
,
0100
0000
0001
0000
,
1000
0001
1000
0000
,
0001
0010
0001
0010
,
0002
0000
0003
0000
,
1001
0000
0000
0000
;

//---------------dance-single - ----------------
#NOTES:
     dance-single:
     :
     Beginner:
     2:
     0.138,0.186,0.051,0.000,0.000: // measure 1
1000
0000
0000
0000
,  // measure 2
0001
0000
0000
0000
,  // measure 3
1000
0000
0000
0000
,  // measure 4
0001
0000
0000
0000
,  // measure 5
0010
0000
0000
0000
,  // measure 6
0100
0000
0000
0000
,  // measure 7
0010
0000
0000
0000
,  // measure 8
0100
0000
0000
0000
,  // measure 9
1000
0000
0000
0000
,  // measure 10
0010
0000
0000
0000
,  // measure 11
1000
0000
0000
0000
,  // measure 12
0001
0000
0000
0000
,  // measure 13
1000
0000
1000
0000
,  // measure 14
1000
0000
0000
0000
,  // measure 15
0001
0000
0001
0000
,  // measure 16
0001
0000
0000
0000
,  // measure 17
1000
0000
1000
0000
,  // measure 18
1000
0000
0000
0000
,  // measure 19
0001
0000
0001
0000
,  // measure 20
0001
0000
0000
0000
,  // measure 21
1001
0000
0000
0000
,  // measure 22
0010
0000
0000
0000
,  // measure 23
0100
0000
0000
0000
,  // measure 24
0000
0000
0000
0000
,  // measure 25
0010
0000
0000
0000
,  // measure 26
0100
0000
0000
0000
,  // measure 27
0001
0000
0000
0000
,  // measure 28
1001
0000
0000
0000
,  // measure 29
1000
0000
1000
0000
,  // measure 30
1000
0000
0000
0000
,  // measure 31
0001
0000
0001
0000
,  // measure 32
0001
0000
0000
0000
,  // measure 33
1000
0000
1000
0000
,  // measure 34
1000
0000
0000
0000
,  // measure 35
0001
0000
0001
0000
,  // measure 36
0001
0000
0000
0000
,  // measure 37
1001
0000
0000
0000
,  // measure 38
0100
0000
0000
0000
,  // measure 39
0010
0000
0000
0000
,  // measure 40
0100
0000
0000
0000
,  // measure 41
0010
0000
0000
0000
,  // measure 42
0100
0000
0000
0000
,  // measure 43
0001
0000
0000
0000
,  // measure 44
1000
0000
0000
0000
,  // measure 45
1001
0000
0000
0000
,  // measure 46
0000
0000
0000
0000
,  // measure 47
0001
0000
0000
0000
,  // measure 48
0000
0000
0000
0000
,  // measure 49
1000
0000
0000
0000
,  // measure 50
0000
0000
0000
0000
,  // measure 51
0001
0000
0000
0000
,  // measure 52
0000
0000
0000
0000
,  // measure 53
0010
0000
0000
0000
,  // measure 54
0000
0000
0000
0000
,  // measure 55
0100
0000
0000
0000
,  // measure 56
0000
0000
0000
0000
,  // measure 57
1000
0000
1000
0000
,  // measure 58
1000
0000
0000
0000
,  // measure 59
0001
0000
0001
0000
,  // measure 60
0001
0000
0000
0000
,  // measure 61
0010
0000
0010
0000
,  // measure 62
0010
0000
0000
0000
,  // measure 63
0100
0000
0100
0000
,  // measure 64
0100
0000
0000
0000
,  // measure 65
1000
0000
1000
0000
,  // measure 66
1000
0000
1000
0000
,  // measure 67
1000
0000
0000
0000
,  // measure 68
0001
0000
0000
0000
,  // measure 69
0010
0000
0100
0000
,  // measure 70
0010
0000
0100
0000
,  // measure 71
0010
0000
0100
0000
,  // measure 72
0010
0000
0100
0000
,  // measure 73
1000
0000
0001
0000
,  // measure 74
1000
0000
0001
0000
,  // measure 75
1000
0000
0100
0000
,  // measure 76
1000
0000
0100
0000
,  // measure 77
0010
0000
0000
0000
,  // measure 78
0001
0000
0000
0000
,  // measure 79
0010
0000
0000
0000
,  // measure 80
0001
0000
0000
0000
,  // measure 81
1001
0000
1000
0000
,  // measure 82
0001
0000
0000
0000
,  // measure 83
1000
0000
0001
0000
,  // measure 84
1000
0000
0000
0000
,  // measure 85
0010
0000
0100
0000
,  // measure 86
0010
0000
0000
0000
,  // measure 87
0100
0000
0100
0000
,  // measure 88
0100
0000
0000
0000
,  // measure 89
1001
0000
0000
0000
;
