#TITLE:ROUND!;
#SUBTITLE:;
#ARTIST:WESTARENA by MLREC.;
#TITLETRANSLIT:;
#SUBTITLETRANSLIT:;
#ARTISTTRANSLIT:;
#CREDIT:DigiMindAxel;
#BANNER:ROUND!.png;
#BACKGROUND:ROUND!-bg.png;
#LYRICSPATH:ROUND!.lrc;
#CDTITLE:REFLEC BEAT.png;
#MUSIC:ROUND!.mp3;
#OFFSET:-9.710;
#SAMPLESTART:41.896;
#SAMPLELENGTH:12.000;
#SELECTABLE:YES;
#BPMS:0.000=134.000;
#STOPS:100.000=0.448
,149.000=0.448
,178.000=0.448
;
#BGCHANGES:;

//---------------dance-single - ----------------
#NOTES:
     dance-single:
     :
     Easy:
     3:
     0.223,0.234,0.101,0.128,0.000:
0001
1000
0001
0000
,
0010
0001
0010
0001
,
0020
0000
0000
0030
,
0200
0000
0000
0300
,
1000
0001
1000
0000
,
0100
1000
0100
1000
,
0200
0000
0000
0300
,
0020
0000
0000
0030
,
2002
0000
0000
3003
,
0010
0100
0010
0000
,
1000
0100
0010
0001
,
1000
1000
1000
0000
,
2002
0000
0000
3003
,
0020
0000
0000
0030
,
0100
0010
0100
0010
,
0100
0010
0100
0001
,
0110
0000
1001
0000
,
0110
0000
0000
0000
,
0001
0010
0100
1000
,
0001
0001
0001
0000
,
1000
0100
0010
0001
,
1000
1000
1000
0000
,
0010
0100
0001
0010
,
0200
0000
0300
0000
,
0010
0001
1000
0010
,
0110
0000
0000
0100
,
0100
0100
0000
0001
,
0010
0100
1000
0010
,
0010
0010
0000
1000
,
0100
0010
0001
0100
,
0100
0010
0010
0100
,
0100
0001
0001
1000
,
0010
0100
0001
0020
,
0000
0000
0030
0100
,
0000
1000
0000
0100
,
0000
0010
0001
1000
,
0000
1000
0000
2002
,
0000
3003
1000
0100
,
0010
0001
1000
1000
,
1000
0000
0001
0010
,
0100
1000
0001
0001
,
0001
0000
0100
0010
,
1000
0001
0200
0000
,
0300
0000
0010
0100
,
0010
0100
0110
0000
,
0000
0001
0010
0001
,
1000
0100
0010
0001
,
0000
1000
0100
1000
,
0001
0100
0010
1000
,
0000
0110
0000
1001
,
0000
0010
0100
0010
,
0110
0000
0000
0000
;

//---------------dance-single - ----------------
#NOTES:
     dance-single:
     :
     Medium:
     5:
     0.332,0.328,0.101,0.055,0.000:
0001
0010
0100
1000
,
0010
0100
0010
1000
,
0001
0100
0000
0100
0000
0100
0010
0100
,
0000
0001
0000
0001
0000
0001
0100
0001
,
1000
0100
0010
0001
,
0100
0010
1000
0001
,
1000
0100
0000
0100
0000
0100
0010
0100
,
0000
1000
0000
1000
0000
1000
0100
0010
,
0002
0000
0103
0010
,
0200
0000
0310
1000
,
0001
0100
0001
0000
1000
0100
1000
0000
,
0001
0010
0100
1000
0001
0000
0000
0000
,
0200
0000
0310
1000
,
0002
0000
0000
0000
0103
0010
0100
0010
,
0100
0001
1000
0100
,
0010
0001
1000
0010
,
0100
0110
0000
1001
,
0000
0010
0110
0000
,
1000
0100
0001
0010
,
1000
0001
1000
0001
1000
0000
0000
0000
,
0001
0010
1000
0100
,
0001
1000
0001
1000
0001
0000
0000
0000
,
0100
0010
1000
0100
,
0010
1001
0000
0000
,
0010
0100
0010
0000
1000
0100
1000
0000
,
1001
0000
0000
0001
,
0010
0000
1000
0000
0100
0000
0001
1000
,
0001
0000
1000
0001
1000
0000
0001
0000
,
0100
0000
1000
0000
0010
0000
0001
1000
,
0001
0000
1000
0001
1000
0000
0100
1000
,
0100
0000
0010
0001
0010
0000
0100
1000
,
0100
0000
0010
0001
0010
0000
0001
1000
,
0010
1000
0010
0000
0100
0000
0001
1000
,
0001
1000
0010
0100
0001
0000
1000
0100
,
1000
0000
0100
1000
0100
0000
1000
0100
,
1000
0000
0001
0010
0100
1000
0001
0000
,
0000
0101
0010
0220
,
0000
0330
1000
0100
,
0001
0000
0010
0000
1000
0001
1000
0001
,
1000
0000
0001
0100
,
1000
0000
0010
0000
0001
1000
0001
1000
,
0001
0000
0000
0000
0100
0001
1000
0000
,
0100
1000
0100
0000
1100
0000
1001
0000
,
0000
0000
0000
0000
1000
0100
1000
0000
,
0010
0100
0010
0000
1001
0000
0000
0000
,
0000
1000
0100
0001
,
0010
0000
1000
0010
0100
0010
1000
0100
,
1000
0001
1000
0000
0010
0000
0001
0000
,
0100
0000
1000
0001
1000
0100
1000
0010
,
0100
0010
1000
0100
0000
0000
0010
0001
,
0000
0000
0010
0100
1000
0001
0001
0000
,
1001
0000
0000
0000
;

//---------------dance-single - ----------------
#NOTES:
     dance-single:
     :
     Hard:
     7:
     0.534,0.468,0.330,0.101,0.165: // measure 1
0001
1000
0010
0000
2000
0000
3001
0000
,  // measure 2
1000
0001
0100
0000
0020
0000
0130
0000
,  // measure 3
0000
1001
0000
1100
0000
0101
0010
0100
,  // measure 4
0000
1001
0000
0110
0000
1100
0010
0001
,  // measure 5
1001
0000
0100
1000
0010
0000
0100
0001
,  // measure 6
0010
0000
0100
0010
0001
1000
0010
0100
,  // measure 7
0000
0101
0000
1100
0000
1001
0010
0100
,  // measure 8
0000
1100
0000
0101
0000
1001
0100
0010
,  // measure 9
0210
0000
0000
0000
0310
0100
0001
0010
,  // measure 10
0200
0000
0000
0000
1300
0010
0100
0001
,  // measure 11
1000
0100
0001
0100
1000
0010
0001
0010
,  // measure 12
1000
1000
0001
0001
1001
0000
0010
0100
,  // measure 13
0001
0001
0000
0100
0010
1000
0000
0010
,  // measure 14
0100
0001
0001
1000
0100
0010
0100
1000
,  // measure 15
0001
0010
0100
0010
0001
1000
0010
0100
,  // measure 16
0010
1000
0100
0010
0100
1000
0001
1000
,  // measure 17
0001
0100
0101
0000
0010
1000
1100
0000
,  // measure 18
0010
0100
0110
0001
0202
0000
0303
0000
,  // measure 19
0001
0000
0000
0001
0100
0000
0000
0100
1000
0000
0000
1000
0010
0000
0000
0010
,  // measure 20
0001
1000
0100
0010
0100
1000
0001
0000
,  // measure 21
1000
0000
0000
1000
0100
0000
0000
0100
0001
0000
0000
0001
0010
0000
0000
0010
,  // measure 22
1000
0001
0010
0100
0010
0001
1000
0000
,  // measure 23
0110
0001
0100
0010
0100
0001
1000
0100
,  // measure 24
1100
0000
0000
0000
0101
0000
0000
1001
0000
0000
0000
0000
0000
0000
0000
0000
,  // measure 25
1000
0100
0001
0100
1000
0010
0001
0010
,  // measure 26
1010
0000
0000
0100
0010
0000
0100
0000
0001
0000
0001
0000
1000
0000
1000
0000
,  // measure 27
0100
0100
0001
0010
0100
1000
0001
0001
,  // measure 28
0100
0100
0001
0001
1000
1000
0001
0001
,  // measure 29
0100
0000
0100
0000
1000
0000
0010
0000
0100
0000
0001
0000
1000
0000
0100
0010
,  // measure 30
0100
0010
0100
0000
1000
0000
1000
0000
0001
0000
0001
0000
1001
0000
0001
0000
,  // measure 31
0010
1000
0001
0100
1000
0001
1000
0001
,  // measure 32
0010
0000
1000
0000
0001
0000
0100
0000
1000
0000
0001
0000
1000
0000
0010
0100
,  // measure 33
0010
0100
0201
0000
0310
0000
1000
1000
,  // measure 34
0001
0001
0100
0100
0100
0100
0120
0000
,  // measure 35
1030
0000
0210
0000
0301
0000
1000
0100
,  // measure 36
0001
0000
0100
0000
1000
0000
0001
0000
0010
0000
0001
0000
1000
0000
0010
0100
,  // measure 37
0000
0010
0100
0000
0001
0000
0010
0100
0000
0010
0100
0000
2002
0000
0000
0000
,  // measure 38
0000
0000
3003
0000
1001
0000
0000
0000
0001
0000
0000
0001
0010
0000
0000
0010
,  // measure 39
1000
0000
0000
1000
0100
0000
0000
0100
0001
0000
1000
0000
0010
0000
0100
0000
,  // measure 40
0010
0000
1000
0000
0001
0000
0000
0000
1000
0000
0000
1000
0010
0000
0000
0010
,  // measure 41
0001
0000
0000
0001
0100
0000
0000
0100
1000
0000
0001
0000
0100
0000
0010
0000
,  // measure 42
0100
0001
1000
0000
0110
1000
0001
0010
,  // measure 43
0100
0000
1000
0000
0001
0000
0100
0000
0101
0000
0000
0000
1100
0000
0000
1001
,  // measure 44
0000
0000
0000
0000
0001
0100
1000
0100
,  // measure 45
0001
0000
0010
0000
1000
0000
0010
0000
0011
0000
0000
0010
0100
0000
0010
0000
,  // measure 46
1000
1000
0001
0001
0010
0010
1000
0100
,  // measure 47
0010
0000
0001
0000
1000
0001
1000
0000
0100
0000
0010
0000
0001
0000
0001
0000
,  // measure 48
0100
0001
1000
1000
0100
0100
0001
0010
,  // measure 49
0100
0000
1000
0000
0001
1000
0001
0000
0010
0000
0100
0000
0010
0001
0010
0000
,  // measure 50
0001
0000
0100
0000
0001
0000
1000
0100
0000
1000
0100
0000
0010
0000
0001
0100
,  // measure 51
0000
0001
0100
0000
0001
0000
0010
0100
0000
0010
0100
0000
1000
0000
0000
0000
,  // measure 52
1001
0000
0000
0000
;

//---------------dance-single - ----------------
#NOTES:
     dance-single:
     :
     Challenge:
     9:
     0.680,0.609,0.413,0.184,0.372:
1000
0001
0010
0001
1000
0100
0010
0000
,
0001
1000
0100
1000
0001
0010
0100
1000
,
0001
0000
0101
0000
0000
0000
1010
0000
0000
0000
0110
0000
0001
1000
0001
0000
,
0010
0001
0010
0000
0001
1000
0001
0000
0010
0001
0010
0001
0010
0100
1000
0000
,
1001
0100
0010
0001
1000
0100
0010
0000
,
0100
1000
0001
0100
0010
1000
0100
0010
,
0001
0000
0101
0000
0000
0000
1010
0000
0000
0000
1001
0000
0010
0100
0010
0000
,
1000
0000
0100
0000
1000
0001
1000
0000
0010
1000
0010
0000
0010
0000
0010
0000
,
0101
0010
0100
1000
0001
0010
0100
1000
,
0010
0001
0010
1000
0002
0000
1003
0000
,
0110
0001
0010
1000
0010
0001
1000
0010
,
0110
0000
0110
0000
1001
0000
1001
0000
1001
0000
0001
0010
0100
1000
0001
0100
,
0001
0010
0100
1000
0001
0010
0100
1000
,
0010
0001
0010
1000
0001
0001
1000
1000
,
0001
0010
1000
0010
0001
0100
1000
0100
,
0001
0010
1000
0010
0001
0100
1000
0100
,
0001
0001
0101
0000
1000
1000
1010
0000
,
0110
0000
0001
0010
0100
1000
0010
0100
0020
0000
0000
0000
0130
0000
0000
0000
,
0001
0000
1000
0010
1000
0010
1000
0000
0001
0000
0010
0100
0010
0100
0010
0000
,
0001
0000
0010
0001
0010
0001
0010
0000
0100
0000
1000
0000
0001
0100
0010
0000
,
1000
0000
0100
1000
0100
1000
0100
0000
1000
0000
0001
1000
0001
1000
0001
0000
,
1000
0000
0001
0100
0001
0100
0001
0000
1000
0000
0010
1000
0001
0000
0010
0000
,
0011
0000
1000
0010
1000
0010
1000
0000
0001
0000
0010
0001
0010
0001
0010
0000
,
1001
0000
0000
0000
1001
0000
0000
0110
0000
0000
0000
0000
0000
0010
0000
0100
,
0002
1000
1000
1003
0020
0100
0100
0130
,
1001
0000
0000
1000
0001
0000
0100
0000
0010
0000
1000
0000
0002
0000
0013
0000
,
0200
0310
0001
0001
0010
0100
1000
1010
,
0010
0110
1000
1010
0010
0110
2000
3100
,
0020
0000
0130
0000
1000
0000
1000
0000
0010
0000
0100
0000
0001
0000
0010
0001
,
0100
0010
0100
0000
0001
0100
0010
0100
0001
0000
0001
0000
2000
0000
0100
0000
,
0100
0000
3100
0000
0020
0000
0001
0000
0001
0000
0031
0000
1000
0000
0010
1000
,
0100
0000
0010
0000
0002
0000
1000
0000
1000
0000
1003
0000
0001
0000
0100
0001
,
0010
0100
1020
0000
0130
0001
1000
1100
,
0100
0110
0100
1100
1100
0011
0011
1000
,
0100
0010
0001
1000
0100
0010
0001
0100
,
1000
0000
0100
0000
0001
0000
0001
0000
1000
0000
1000
0000
0001
0000
0100
0001
,
0000
0001
0010
0000
0100
0000
1000
0010
0000
0010
0100
0000
2002
0000
0000
0000
,
0000
0000
3003
0000
1001
0000
0000
0000
1000
0000
0001
0100
0010
0100
0001
0000
,
1000
0000
0001
0010
0100
0010
0001
0000
1000
0000
0100
1000
0100
0010
0100
0000
,
1000
0000
0001
0000
0100
0010
1000
0000
0001
0000
1000
0100
0010
0100
1000
0000
,
0001
0000
1000
0010
0100
0010
1000
0000
0001
0000
0010
0001
0010
0100
0010
0000
,
0001
0000
1000
0010
0100
0000
0010
0000
0110
0000
0001
0100
0001
0100
0010
0000
,
1000
0000
0100
0010
0100
0010
0001
0000
1001
0000
0000
0000
1001
0000
0000
0110
,
0000
0000
0000
0000
0000
0100
0000
0010
2000
0000
0100
0000
0100
0000
3100
0000
,
0020
0000
0001
0000
0001
0000
0031
0000
0110
0000
0000
0001
1000
0000
0010
0000
,
0100
0001
2000
3010
0200
0310
1000
1000
,
0100
0000
0010
0000
0001
1000
0001
0000
0100
0000
0101
0000
1000
0000
1100
0000
,
0010
0110
0002
0013
0200
0310
0001
0001
,
0010
0000
0100
0000
1000
0001
1000
0000
0010
0000
0110
0000
1000
0100
0010
0000
,
0001
0100
0010
0100
0001
0000
0010
0100
0000
0100
1000
0000
0001
0000
1000
0010
,
0100
0001
1000
0001
1000
0000
0100
0010
0000
0010
0001
0000
1000
0000
0000
0000
,
1001
0000
0000
0000
;

//---------------dance-single - ----------------
#NOTES:
     dance-single:
     :
     Beginner:
     1:
     0.093,0.117,0.083,0.000,0.000:
0001
0000
1000
0000
,
0001
0000
0000
0000
,
1000
0000
0001
0000
,
1000
0000
0000
0000
,
0001
0000
1000
0000
,
0001
0000
0000
0000
,
1000
0000
0001
0000
,
1000
0000
0000
0000
,
1001
0000
0000
0000
,
0000
0000
0000
0000
,
0010
0000
0100
0000
,
0010
0000
0000
0000
,
1001
0000
0000
0000
,
0000
0000
0000
0000
,
0100
0000
0010
0000
,
0100
0000
0000
0000
,
1000
0000
0001
0000
,
1000
0000
0000
0000
,
1001
0000
0000
0000
,
0001
0000
0000
0000
,
1001
0000
0000
0000
,
1000
0000
0000
0000
,
0001
0000
1000
0000
,
0001
0000
0000
0000
,
1000
0000
1000
0000
,
1000
0000
0000
0001
,
0000
0000
0000
1000
,
0000
0000
0000
0001
,
0000
0000
0000
1000
,
0000
0000
0000
0010
,
0000
0000
0000
0100
,
0000
0000
0000
0001
,
0000
0000
0000
1000
,
0000
0000
0000
1001
,
0000
0000
0000
0000
,
0000
0000
0000
0001
,
0000
0000
0000
1000
,
0000
0000
0001
0000
,
0000
0000
1000
0000
,
0000
0000
0001
0000
,
0000
0000
1000
0000
,
0000
0000
0100
0000
,
0000
0000
0010
0000
,
0000
0000
0001
0000
,
1000
0000
0001
0000
,
0000
1001
0000
1000
,
0000
0001
0000
0000
,
0000
1001
0000
0001
,
0000
1000
0000
0000
,
0000
0110
0000
0000
,
0000
1001
0000
0000
,
1000
0000
0000
0000
;
