#TITLE:レトロスペクティビリー・メリーゴーランド;
#SUBTITLE:;
#ARTIST:はるなば;
#TITLETRANSLIT:RETROSPECTIVELY MERRY-GO-ROUND;
#SUBTITLETRANSLIT:;
#ARTISTTRANSLIT:HARU NABA;
#CREDIT:DigiMindAxel;
#BANNER:RETROSPECTIVELY MERRY-GO-ROUND.png;
#BACKGROUND:RETROSPECTIVELY MERRY-GO-ROUND-bg.png;
#LYRICSPATH:;
#CDTITLE:SOUND VOLTEX.png;
#MUSIC:RETROSPECTIVELY MERRY-GO-ROUND.mp3;
#OFFSET:-6.740;
#SAMPLESTART:48.973;
#SAMPLELENGTH:12.000;
#SELECTABLE:YES;
#BPMS:0.000=180.000;
#STOPS:255.500=0.167
;
#BGCHANGES:;

//---------------dance-single - ----------------
#NOTES:
     dance-single:
     :
     Easy:
     4:
     0.329,0.342,0.044,0.247,0.000:
0002
0000
0000
0103
,
0002
0000
0000
1003
,
0100
0010
0001
1000
,
0020
0000
0000
0130
,
0002
0000
0000
0013
,
0200
0000
0000
1300
,
0002
0000
2003
0000
,
3002
0000
0000
0000
,
2003
0000
0000
3100
,
2000
0000
0000
3001
,
1000
0100
0010
0001
,
2000
0000
0000
3001
,
0200
0000
0000
0000
,
0320
0000
0000
0000
,
2030
0000
3200
0000
,
0320
0000
0000
0000
,
0031
1000
0001
0000
,
1000
0100
1000
0000
,
0001
1000
0001
0000
,
0100
0001
0100
0000
,
0001
1000
0001
0000
,
0010
0001
0010
0000
,
0001
1000
0001
0000
,
1000
0010
1000
0000
,
0100
0010
0100
0000
,
1000
0001
1000
0000
,
0010
0100
0010
0000
,
1000
0100
1000
0000
,
0001
0010
0001
0000
,
0100
0010
0100
0000
,
0001
1000
0001
1000
,
0001
0001
0001
0000
,
1001
1000
0001
1000
,
0100
1000
0100
1000
,
0001
1000
0001
1000
,
0010
1000
0010
1000
,
0010
0100
0010
0100
,
0001
0010
0001
0010
,
0001
1000
0001
1000
,
0010
1000
0010
1000
,
0001
0010
0001
0010
,
0001
1000
0001
1000
,
0100
1000
0100
1000
,
0001
1000
0001
1000
,
0002
1000
1003
0000
,
0020
0100
0130
0000
,
0002
0100
0103
0000
,
0020
1000
1030
0000
,
0001
1000
0001
1000
,
0001
0100
0001
0100
,
0001
1000
0001
1000
,
0100
1000
0100
1000
,
0010
0100
0010
0100
,
0001
0010
0001
0010
,
0001
1000
0001
1000
,
0100
1000
0100
1000
,
0010
0100
0010
0100
,
0001
1000
0001
1000
,
0100
0010
0100
0010
,
0001
1000
0001
1000
,
1001
0000
0000
0000
,
0110
0000
0000
0000
,
1001
0000
0000
0000
,
0110
0000
0000
0000
,
0000
0001
0000
1000
0000
0001
0000
1000
,
0000
0100
0000
1000
0000
0100
0000
0010
,
0000
0001
0000
0010
0000
0001
0000
1000
,
0000
0010
0000
1000
0000
0010
0000
0100
,
0000
0001
0000
0100
0000
0001
0000
1000
,
0000
0001
0000
1000
0000
0001
0000
0020
,
0000
0000
0000
0130
0000
0000
0000
2000
,
0000
0000
0000
3100
0000
0000
0000
0020
,
0000
0000
0000
0031
0000
0000
0000
0200
,
0000
0000
0000
0310
0000
0000
0000
2000
,
0000
0000
0000
0000
0000
0000
0000
3002
,
0000
0000
0000
0000
0000
0000
0000
2003
,
0000
0000
0000
0000
0000
0000
0000
3002
,
0000
0000
0000
0000
0000
0003
0000
0000
;

//---------------dance-single - ----------------
#NOTES:
     dance-single:
     :
     Medium:
     7:
     0.480,0.513,0.132,0.185,0.000:
1000
0100
1000
0001
,
0100
0001
0100
0010
,
1000
0001
1000
0001
,
0010
0001
0010
0001
,
0100
0010
0100
0010
,
1000
0100
1000
0100
,
1000
0001
1000
0001
,
0010
0100
0010
0100
,
1000
0001
1000
0100
,
1000
0100
1000
0001
,
0100
0001
0100
0010
,
0100
0010
0100
0010
,
1000
0001
1000
0001
,
1000
0100
1000
0100
,
1000
0001
1000
0001
,
0100
0001
0100
0001
,
1000
0000
0001
0100
0001
0100
0000
0001
,
0000
0001
0000
1000
0100
0000
1000
0000
,
0001
1000
0001
0000
1000
0001
1000
0000
,
0100
0010
0100
1000
,
0001
1000
0000
0010
0000
1000
0000
0001
,
0000
1000
0000
0200
0000
0000
1300
0000
,
0002
0000
0000
0013
0200
0000
0000
1300
,
0001
0000
1000
0100
1000
0100
1000
0000
,
0001
0000
1000
0100
1000
0100
0000
1000
,
0000
0001
0000
0100
0001
0000
0000
0000
,
1000
0000
0001
1000
0000
0010
0000
0200
,
0000
0000
0310
0100
0000
0001
0000
0000
,
1000
0100
0000
2000
0000
3001
0000
0100
,
0000
0001
1000
0002
0000
2003
0000
0000
,
3001
0010
0100
1000
,
0010
0100
0010
0100
0010
0100
0010
0000
,
1001
0000
0001
0100
0000
0100
0001
0000
,
0010
0100
1000
0001
,
1001
0000
1000
0100
0000
0100
1000
0000
,
0010
0000
0100
0000
0001
0000
1000
0001
,
1000
0000
0010
0100
0000
0100
0010
0000
,
1000
0000
0001
1000
0000
1000
0001
0000
,
0010
0000
0100
0000
0010
0000
0001
1000
,
0001
0000
1000
0000
0010
0000
1000
0001
,
1000
0000
0100
1000
0000
1000
0100
0000
,
0010
0000
0001
0000
1000
0000
0001
1000
,
0001
0000
0100
0001
0000
0001
0100
0000
,
0010
0000
1000
0001
1000
0000
0001
0000
,
0200
0000
0000
0301
0000
1000
0100
0000
,
0020
0000
0000
0130
0000
1000
0001
0000
,
0020
0000
0000
0031
0000
1000
0010
0000
,
0100
0100
0001
0001
,
1002
0000
0000
0103
0000
0010
1000
0000
,
0002
0000
0000
0013
0000
0100
0010
0000
,
0002
0000
0000
0103
0000
0010
0100
0000
,
0020
0000
0000
1030
0000
0001
1000
0001
,
0200
0000
0000
0301
0000
1000
0100
0000
,
0020
0000
0000
0130
0000
1000
0001
1000
,
0200
0000
0000
0000
0000
0000
1300
0001
,
2000
0000
0000
0000
0000
0000
3001
0100
,
0001
0000
1000
0020
0000
0000
1030
0000
,
0001
0000
0010
0002
0000
0000
0013
0000
,
0100
0000
1000
0002
0000
0000
1003
0000
,
0001
0000
0010
0001
0010
0000
0010
0000
,
1001
0000
0000
1000
0000
0000
0100
0000
,
0110
0000
0000
0010
0000
0000
0001
0000
,
1001
0000
0000
0100
0000
0000
0100
0000
,
0110
0000
0010
0100
0000
0010
0000
0000
,
1000
0100
1000
0100
1000
0001
0000
0010
,
0001
0010
0001
0010
0001
0010
0000
0001
,
1000
0001
1000
0001
1000
0001
0000
0100
,
0001
0100
0001
0100
0001
0100
0000
0010
,
1000
0010
1000
0010
1000
0010
0000
1000
,
0001
1000
0001
1000
0001
1000
0000
1001
,
0000
0000
0001
0000
0000
0100
0000
0110
,
0000
0000
0010
0000
0000
1000
0000
1001
,
0000
0000
1000
0000
0000
0100
0000
0110
,
0000
0000
0100
0000
0000
0010
0000
1001
,
0000
0001
0000
0001
0000
0001
0000
1001
,
0000
1000
0000
1000
0000
1000
0000
0110
,
0000
0010
0000
0010
0000
0010
0000
0101
,
0000
0100
0000
0100
0000
0100
0000
0000
;

//---------------dance-single - ----------------
#NOTES:
     dance-single:
     :
     Hard:
     9:
     0.694,0.650,0.273,0.502,0.066: // measure 1
0002
1000
1003
1001
,  // measure 2
2010
0010
3010
1010
,  // measure 3
1001
0000
1000
0001
0000
0001
0000
0001
,  // measure 4
0200
0000
0010
0000
0310
0100
0000
0100
,  // measure 5
0002
0000
1000
0000
1003
0001
0010
0100
,  // measure 6
2000
0000
0001
0000
3001
1000
0000
1000
,  // measure 7
0200
0010
0310
0110
,  // measure 8
0102
0100
0103
0101
,  // measure 9
2001
0001
3001
1001
,  // measure 10
0021
0001
0031
0011
,  // measure 11
1001
0000
0001
1000
0000
1000
0000
1000
,  // measure 12
0200
0000
0010
0000
0310
0001
0100
0010
,  // measure 13
1000
0000
1000
0001
0000
0001
0100
0000
,  // measure 14
0001
0000
0001
1000
0000
1000
0100
0000
,  // measure 15
1000
0000
1000
0100
0000
0100
0010
0000
,  // measure 16
0002
1000
1000
1003
,  // measure 17
0001
0001
0100
0010
1000
0100
0000
0100
,  // measure 18
0010
0100
0000
0100
1000
0010
0000
1000
,  // measure 19
0001
0100
1000
0100
0001
1000
0000
0002
,  // measure 20
0000
0000
0000
0000
0103
0000
0020
0000
0000
0000
1000
0000
0000
0000
1030
0001
,  // measure 21
1000
0100
0010
0100
0000
0100
0000
0010
,  // measure 22
0001
0010
0000
0010
0000
0010
0001
0100
,  // measure 23
0020
0000
0000
0000
1030
0000
0001
0010
0002
0000
0000
0000
1003
0000
0000
0000
,  // measure 24
1002
0000
1003
0001
0100
1000
0100
0001
,  // measure 25
1000
1000
0100
0010
0001
0100
0000
0100
,  // measure 26
0001
0100
0000
0100
0010
1000
0100
0010
,  // measure 27
0001
0000
1000
0010
0100
0010
0000
0201
,  // measure 28
0000
0000
0301
0000
0010
0000
0100
0000
0000
0000
2100
0000
0000
0000
3001
0100
,  // measure 29
0001
1000
0100
0010
0001
0010
0000
0010
,  // measure 30
0100
1000
0001
0100
0000
0200
0000
0320
,  // measure 31
1000
0000
1030
0001
0010
0100
1000
0100
,  // measure 32
0010
0000
0001
0000
1000
0000
0000
0000
0001
1000
0001
1000
0001
1000
0001
1000
,  // measure 33
0001
0100
0001
2000
0000
3100
0010
0001
,  // measure 34
1000
0010
1000
0002
0000
0013
0100
1000
,  // measure 35
0001
0010
0001
0200
0000
0310
1000
0100
,  // measure 36
0010
0100
1000
0020
0000
1030
0100
0010
,  // measure 37
0002
0000
1000
2003
0000
0010
3010
0000
,  // measure 38
0210
0000
0001
0302
0000
1000
1003
0001
,  // measure 39
0200
0000
0010
0000
0310
1000
0100
0010
,  // measure 40
0002
0000
1000
0000
1003
0000
0001
1000
,  // measure 41
0010
1000
0010
0200
0000
0301
0010
0100
,  // measure 42
1000
0100
0010
0002
0000
1003
0001
0100
,  // measure 43
0001
0010
0100
2000
0000
3001
0010
0100
,  // measure 44
0010
0000
0001
0000
0000
0000
1000
0001
2000
0000
0000
0000
3001
0000
0000
0000
,  // measure 45
1020
0000
0000
1030
0001
0010
0100
1000
,  // measure 46
1002
0000
0000
0013
0001
1000
0010
0100
,  // measure 47
0102
0000
0000
1003
0001
0010
0100
1000
,  // measure 48
0010
0000
0000
0010
0000
0000
0010
0000
0100
0000
0000
0100
0000
0000
0100
0000
,  // measure 49
0002
0010
0000
0013
0100
1000
0000
0010
,  // measure 50
2000
0000
0001
3001
1000
0100
0001
0100
,  // measure 51
1000
0001
1000
0200
0000
0310
0100
1000
,  // measure 52
0002
0000
1000
1003
0001
0010
0001
1000
,  // measure 53
0020
0000
0000
0130
0001
0010
0100
1000
,  // measure 54
0002
0000
0000
0013
0001
1000
0010
0100
,  // measure 55
0002
0000
1000
0000
1003
0001
0010
0100
,  // measure 56
2000
0000
0001
0000
3001
0000
1000
0010
,  // measure 57
0001
0010
1000
0002
0000
0013
0100
0010
,  // measure 58
0001
1000
0010
2000
0000
3001
1000
0100
,  // measure 59
0010
0100
1000
0020
0000
0130
0001
1000
,  // measure 60
0100
0000
0010
0000
0000
0000
0001
0100
0002
0000
0000
0000
1003
0000
0000
0000
,  // measure 61
2001
0000
0000
0100
0000
0000
3100
0000
,  // measure 62
1002
0000
0000
0100
0000
0000
0103
0000
,  // measure 63
1002
0000
0000
0010
0000
0000
0013
0000
,  // measure 64
2001
0000
0100
0100
0000
3100
0000
0000
,  // measure 65
1000
0010
0001
0010
1000
0100
0010
0001
,  // measure 66
0100
0000
1000
0000
0100
0000
0001
0000
0010
0000
0100
1000
0100
1000
0100
0000
,  // measure 67
0010
0001
0100
1000
0100
0001
0010
0100
,  // measure 68
0010
0000
0001
0000
1000
0000
0010
0000
1000
0000
0001
0000
1000
0010
1000
0000
,  // measure 69
0100
0000
0010
0000
0001
0100
0001
0000
1000
0000
0010
0000
0001
0000
0010
0000
,  // measure 70
1000
0001
0100
0001
1000
0100
0010
0011
,  // measure 71
0000
0001
1000
0000
1000
0100
0000
1100
,  // measure 72
0100
1000
0001
0000
0001
0100
0000
0101
,  // measure 73
0001
0100
0010
0000
0010
1000
0000
1001
,  // measure 74
1000
0001
0010
0000
0010
0100
0000
0120
,  // measure 75
0000
1000
0000
1000
0000
1030
0000
0210
,  // measure 76
0000
0001
0000
0001
0000
0301
0000
2100
,  // measure 77
0000
0001
0000
0001
0000
3001
0000
0012
,  // measure 78
0000
1000
0000
1000
0000
1003
0000
0000
;

//---------------dance-single - ----------------
#NOTES:
     dance-single:
     :
     Beginner:
     2:
     0.149,0.203,0.194,0.000,0.000:
0001
0000
0000
0000
,
1000
0000
0000
0000
,
0001
0000
0000
0000
,
1000
0000
0000
0000
,
0100
0000
0000
0000
,
0010
0000
0000
0000
,
0100
0000
0000
0000
,
0010
0000
0000
0000
,
0001
0000
0000
0000
,
1000
0000
0000
0000
,
0001
0000
0000
0000
,
1000
0000
0000
0000
,
0010
0000
0000
0000
,
0100
0000
0000
0000
,
0010
0000
0000
0000
,
0100
0000
0000
0000
,
1001
0000
0000
0000
,
0001
0000
0000
0000
,
1001
0000
0000
0000
,
1000
0000
0000
0000
,
0110
0000
0000
0000
,
0010
0000
0000
0000
,
0110
0000
0000
0000
,
0100
0000
0000
0000
,
1001
0000
0000
0000
,
1000
0000
0000
0000
,
1001
0000
0000
0000
,
0001
0000
0000
0000
,
0110
0000
0000
0000
,
0010
0000
0000
0000
,
0110
0000
0000
0000
,
0100
0000
0000
0000
,
1001
0000
1000
0000
,
0001
0000
0000
0000
,
1000
0000
0001
0000
,
1000
0000
0000
0000
,
0100
0000
1000
0000
,
0100
0000
0000
0000
,
0010
0000
0001
0000
,
0010
0000
0000
0000
,
0001
0000
0100
0000
,
0001
0000
0000
0000
,
1000
0000
0010
0000
,
1000
0000
0000
0000
,
1001
0000
0000
0000
,
0110
0000
0000
0000
,
1001
0000
0000
0000
,
1001
0000
0000
0000
,
0001
0000
0100
0000
,
0001
0000
0100
0000
,
0001
0000
0100
0000
,
0001
0000
0000
0000
,
1000
0000
0010
0000
,
1000
0000
0010
0000
,
1000
0000
0000
0000
,
0001
0000
0000
0000
,
1000
0000
0001
0000
,
1000
0000
0001
0000
,
1000
0000
0000
0000
,
0010
0000
0000
0000
,
0110
0000
0000
0000
,
1001
0000
0000
0000
,
0110
0000
0000
0000
,
1001
0000
0000
0000
,
0000
0000
0000
1001
0000
0000
0000
1000
,
0000
0000
0000
0001
0000
0000
0000
1000
,
0000
0000
0000
0001
0000
0000
0000
1000
,
0000
0000
0000
0001
0000
0000
0000
0010
,
0000
0000
0000
0100
0000
0000
0000
0010
,
0000
0000
0000
0100
0000
0000
0000
1001
,
0000
0000
0000
0000
0000
0000
0000
1001
,
0000
0000
0000
0000
0000
0000
0000
0110
,
0000
0000
0000
0000
0000
0000
0000
0110
,
0000
0000
0000
0000
0000
0000
0000
0010
,
0000
0000
0000
0000
0000
0000
0000
0010
,
0000
0000
0000
0000
0000
0000
0000
0010
,
0000
0000
0000
0000
0000
0000
0000
0010
;
