#TITLE:Queen's Tragedy;
#SUBTITLE:;
#ARTIST:猫又Master+;
#TITLETRANSLIT:;
#SUBTITLETRANSLIT:;
#ARTISTTRANSLIT:Nekomata Master+;
#CREDIT:DigiMindAxel;
#BANNER:Queen's Tragedy.png;
#BACKGROUND:Queen's Tragedy-bg.png;
#LYRICSPATH:;
#CDTITLE:beatmania IIDX.png;
#MUSIC:Queen's Tragedy.mp3;
#OFFSET:-9.080;
#SAMPLESTART:15.314;
#SAMPLELENGTH:12.000;
#SELECTABLE:YES;
#BPMS:0.000=152.000;
#STOPS:143.500=0.395
;
#BGCHANGES:-24.000=Queen's Tragedy.avi=1.000=1=1=0,
99999=-nosongbg-=1.000=0=0=0 // don't automatically add -songbackground-
;

//---------------dance-single - ----------------
#NOTES:
     dance-single:
     :
     Easy:
     4:
     0.258,0.254,0.016,0.065,0.000:
0000
1000
0000
1000
,
0000
0001
0000
0001
,
0000
1000
0000
1000
,
0020
0000
0030
0000
,
1000
0001
1000
0000
,
0100
1000
0100
0000
,
1000
0001
1000
0000
,
0100
1000
0100
0000
,
0010
0001
0010
0000
,
0001
1000
0001
0000
,
0010
0001
0010
0000
,
0001
1000
0001
0000
,
0100
0010
0100
0010
,
0100
0010
0100
0000
,
0001
1000
0001
1000
,
0001
1000
0001
0000
,
0100
0001
0100
0001
,
0100
0001
0100
0000
,
0010
1000
0010
1000
,
0020
0000
0030
0000
,
1000
1000
1000
0000
,
0001
0001
0001
0000
,
1000
1000
1000
0000
,
0001
0001
0001
0000
,
0100
0010
0100
0000
,
0010
0100
0010
0000
,
1000
0001
1000
0000
,
0001
1000
0001
0000
,
0010
0001
0010
0001
,
0100
0010
0100
0010
,
1000
0100
1000
0100
,
1000
0001
1000
0000
,
0010
0100
0010
0100
,
0001
0100
0001
0100
,
0010
1000
0010
1000
,
0002
0000
0000
0003
,
0000
0000
0000
1001
,
0100
0010
0001
1000
,
0010
0100
0001
1000
,
0100
0010
0001
1000
,
0010
0100
0001
1000
,
1000
0001
0001
1000
,
1000
0001
0001
0010
,
0100
1000
0010
0100
,
0000
0000
0000
0001
,
1000
0001
0100
0001
,
1000
0001
0100
0010
,
1000
0001
0100
0010
,
1000
0001
1000
0100
,
0010
0001
1000
0001
,
1000
0100
0010
0001
,
1000
0001
1000
0010
,
0100
0001
1000
0200
,
0000
0000
0000
0320
,
0000
0000
0000
0230
,
0000
0000
0000
0320
,
0000
0000
0000
0130
,
0000
1000
0000
0001
,
0000
1000
0000
0100
,
0000
0010
0000
0001
,
0000
0000
0000
1001
,
0001
1000
0001
0100
,
0001
0100
0001
1000
,
0010
1000
0010
0100
,
0010
0100
0000
0001
,
1000
0001
1000
0001
,
0010
0001
0010
0100
,
1000
0100
1000
0010
,
0010
0010
0010
0200
,
0000
0000
0000
0300
;

//---------------dance-single - ----------------
#NOTES:
     dance-single:
     :
     Medium:
     6:
     0.434,0.508,0.332,0.081,0.012:
2000
0100
0000
3100
,
0020
0001
0000
0031
,
0200
0010
0000
0310
,
1000
0000
0000
0001
0000
1000
0000
0001
0000
0000
0000
0000
0000
0000
0000
0000
,
1000
0100
1000
0000
1000
0001
1000
0000
,
1000
0100
1000
0000
1000
0001
1000
0000
,
0001
0100
0001
0000
0001
1000
0001
0000
,
0001
0100
0001
0000
0001
1000
0001
0000
,
1000
0010
1000
0000
1000
0001
1000
0000
,
1000
0010
1000
0000
1000
0001
1000
0000
,
0001
0010
0001
0000
0001
1000
0001
0000
,
0001
0010
0001
0000
0001
1000
0001
0000
,
1001
0000
1000
0000
0010
1000
0100
0000
,
1001
0000
0001
0000
0100
0001
0010
0000
,
1001
0000
1000
0000
0100
1000
0001
0000
,
1001
0000
0001
0000
0010
0001
1000
0000
,
0110
0000
0010
0000
1000
0100
0010
0000
,
0110
0000
0100
0000
0001
0010
0100
0000
,
0110
0000
0001
0000
0010
0100
1000
0000
,
0200
0000
0000
0000
0300
0000
1000
0001
,
1000
0000
0001
0000
1000
0100
1000
0100
,
0010
0000
0100
0000
1000
0001
1000
0001
,
0100
0000
0001
0000
0100
0010
0100
0010
,
1000
0100
0010
0001
,
0110
0000
0010
0000
0100
0000
0001
0010
,
0001
0010
0100
0000
0010
0000
0001
0000
,
1000
0010
0100
0001
,
1000
0001
1000
0001
1000
0000
0000
0000
,
1001
1000
0110
0001
,
0110
1000
0110
0001
,
0110
0000
1000
0000
0010
0100
0001
0000
,
0010
0000
0100
0000
0010
0001
1000
0000
,
1001
0001
0110
1000
,
0110
0001
0110
1000
,
0100
1000
0001
0000
0100
0000
0001
0000
,
1000
0000
1000
0000
0001
0000
0001
1000
,
0000
0000
0000
1001
,
1001
1100
1100
0011
,
0011
0110
0110
1100
,
1100
0011
0011
0110
,
0110
0000
1001
0000
0000
0000
1000
0100
,
1000
0000
0001
0001
1000
0000
0001
0010
,
0001
0000
1000
1000
0001
0000
0100
0010
,
0100
0000
0001
0001
1000
0000
0020
0000
,
0000
0000
0000
0000
0030
0000
1000
0100
,
1000
0000
0010
0100
0010
0000
1000
0100
,
1000
0000
0010
0100
0001
0000
1000
0100
,
1000
0000
0010
0100
0010
0000
1000
0100
,
1000
0000
0010
0100
0001
0000
0010
0001
,
0010
0000
0100
0010
0100
0000
0010
0001
,
0010
0000
0100
1000
0010
0000
0100
0010
,
0100
0000
0010
0100
0010
0000
1000
0100
,
1000
0010
0100
0001
0010
0000
1002
0000
,
0000
0000
0000
0000
0000
2003
0000
0000
,
0000
0000
0000
0000
0000
3002
0000
0000
,
0000
0000
0000
0000
0000
2003
0000
0000
,
0000
0001
0000
3001
0000
0000
1001
0000
,
0010
0100
0010
0100
,
0001
1000
0001
1000
,
0100
0010
0100
0010
,
0001
1000
0001
1001
,
0100
0000
1000
0010
0100
0000
0001
0000
,
1001
0000
0100
1000
0010
0000
0100
0000
,
0101
0000
0010
1000
0100
0000
0010
0000
,
0110
0000
0010
0001
0100
0000
1001
0000
,
0001
0000
0010
0001
0100
0000
0010
0000
,
0110
0000
0010
1000
0100
0000
0010
0000
,
0011
0000
0100
1000
0001
0000
0100
0000
,
0001
0010
0100
1000
0001
0001
0200
0000
,
0000
0000
0000
0300
;

//---------------dance-single - ----------------
#NOTES:
     dance-single:
     :
     Hard:
     9:
     0.646,0.593,0.105,0.162,0.599: // measure 1
0001
0101
0010
0110
,  // measure 2
0001
0011
1000
0110
,  // measure 3
1000
1100
0010
0110
,  // measure 4
0001
1000
0000
0010
0000
0100
0000
0020
0000
0000
0000
0000
0030
0000
0000
0000
,  // measure 5
1000
0001
1000
0000
0100
0000
0010
0000
0100
0000
1000
0000
0001
0000
0000
0000
,  // measure 6
0001
0100
0001
0000
1000
0000
0100
0000
0001
0000
0100
0000
1000
0000
0000
0000
,  // measure 7
1000
0001
1000
0000
0001
0000
0010
0000
0100
0000
0010
0000
0001
0000
0000
0000
,  // measure 8
0001
0100
0001
0000
1000
0000
0100
0000
0001
0000
0100
0000
1000
0000
0000
0000
,  // measure 9
0010
0000
0100
0001
0000
0001
1000
0000
0100
0000
0010
0000
0100
0000
0000
0000
,  // measure 10
1000
0000
0010
0100
0000
0100
0001
0000
0100
0000
0010
0000
0100
0000
0000
0000
,  // measure 11
0001
0000
1000
0100
0000
0100
0010
0000
0100
0000
1000
0000
0010
0000
0000
0000
,  // measure 12
1000
0000
0010
0100
0000
0100
0010
0000
1000
0001
1000
0001
1000
0000
0000
0000
,  // measure 13
0100
0010
0100
0010
0000
0000
0001
0000
0010
0000
0100
0000
0010
0000
0000
0000
,  // measure 14
0001
1000
0001
1000
0000
0000
0010
0000
0100
0000
0010
0000
1000
0000
0000
0000
,  // measure 15
0010
0100
0010
0100
0000
0000
0001
0000
1000
0000
0100
0000
0010
0000
0000
0000
,  // measure 16
0100
1000
0100
1000
0000
0000
0010
0000
0100
0010
0100
0010
0000
0000
1000
0000
,  // measure 17
0001
0100
0010
0100
0000
0000
0010
0000
1000
0000
0100
0000
0010
0000
0100
0000
,  // measure 18
1000
0010
0100
0010
0000
0000
1000
0000
0001
0000
0100
0000
0010
0000
0100
0000
,  // measure 19
0001
0100
0001
1000
0000
0000
0100
0000
0010
0001
0010
0100
0000
0000
1000
0000
,  // measure 20
2000
0000
0000
0000
0000
0000
3001
0100
,  // measure 21
0010
0000
0000
0100
0010
0000
0000
0000
1000
0000
0100
0000
1000
0001
1000
0000
,  // measure 22
0010
0000
0000
0100
0010
0000
0000
0000
1000
0000
0001
0000
1000
0100
1000
0000
,  // measure 23
0001
0000
0000
1000
0001
0000
0000
0000
0010
0000
0001
0000
0100
0010
0100
0000
,  // measure 24
0001
1000
0000
1000
0001
0000
0000
0000
0200
0000
0010
0000
0310
0000
0000
0000
,  // measure 25
1001
0000
0000
0001
0100
0000
0000
0000
0010
0000
1000
0000
0001
0010
0001
0000
,  // measure 26
1000
0100
0001
0100
1000
0100
0001
0100
,  // measure 27
1000
0000
0000
0010
0100
0000
0000
0000
0001
0000
0010
0000
0100
0000
0010
0000
,  // measure 28
0001
1000
0000
1000
0000
0000
0000
0000
0001
1000
0001
0000
1000
0010
1000
0010
,  // measure 29
1000
0000
0000
1000
0001
0000
0000
0001
0100
0000
0001
0000
0010
0000
0100
0000
,  // measure 30
1000
0000
0000
1000
0001
0000
0000
0001
0100
0000
0010
0000
0100
0000
0001
0000
,  // measure 31
1000
0000
0000
1000
0010
0000
0000
0010
0100
0000
0001
0000
0010
0000
0100
0000
,  // measure 32
0010
0000
0000
0010
0001
0000
0000
0001
2000
0000
0010
0000
3010
0000
0000
0000
,  // measure 33
0110
0000
0000
0010
0100
0000
0000
0100
0001
0000
0000
0001
1000
0000
0000
1000
,  // measure 34
0001
0010
1000
0010
0001
0010
1000
0010
,  // measure 35
0001
0000
0000
0001
1000
0000
0000
1000
0100
0000
0000
0100
0010
0000
0001
0000
,  // measure 36
0100
0000
0000
0100
0010
0000
0000
0010
0100
0000
0000
0100
0010
0000
0020
0000
,  // measure 37
0000
0000
0000
0000
0000
0000
0000
0000
0030
0000
0000
0000
1001
0000
0000
1000
,  // measure 38
0100
0000
0000
0100
0001
0000
0000
0001
0100
0000
0000
0100
1000
0000
0000
1000
,  // measure 39
0001
0000
0000
0001
1000
0000
0000
1000
0001
0000
0000
0001
0010
0000
0000
0010
,  // measure 40
1000
0000
0000
1000
0010
0000
0000
0010
0001
0000
0000
0001
1000
0000
0000
1000
,  // measure 41
0001
0000
0000
0001
0200
0000
0010
0000
0310
0000
0000
0000
1000
0010
0000
0010
,  // measure 42
1000
0000
0001
0100
0001
0100
0001
0000
0100
0000
0000
0000
0010
0100
0000
0100
,  // measure 43
0010
0000
1000
0001
1000
0000
0001
0000
0001
0000
0000
0000
1000
0001
0000
0001
,  // measure 44
1000
0000
0010
0000
0100
0000
0010
0100
0010
0000
0000
2000
0002
0000
0000
0000
,  // measure 45
0000
0000
0000
0000
0000
0000
0000
0000
3003
0000
0000
0000
0001
0000
0100
0010
,  // measure 46
0000
0010
0100
0000
0001
0000
0010
0000
0100
0000
1000
0000
0001
0000
1000
0010
,  // measure 47
0000
0010
0100
0000
0001
0000
1000
0000
0100
0000
0010
0000
0100
0000
1000
0001
,  // measure 48
0000
0001
1000
0000
0010
0000
0100
0000
0001
0000
0100
0000
0010
0000
0100
0001
,  // measure 49
0000
0001
0010
0000
0001
0000
0010
0001
0000
0001
0100
0000
0010
1000
0010
0000
,  // measure 50
1000
0000
0100
0000
0010
0001
0010
0000
0100
0000
1000
0000
0001
1000
0001
0000
,  // measure 51
0010
0000
0100
0000
0010
0001
0010
0000
0100
0000
0010
0000
0001
1000
0001
0000
,  // measure 52
1000
0000
0010
0000
0100
0010
0100
0000
0001
0000
1000
0000
0100
1000
0100
0000
,  // measure 53
0010
0100
0010
0000
0001
0010
0001
0000
1000
0001
1000
0000
1002
0000
0000
0000
,  // measure 54
0000
0000
0000
0000
0000
0000
1003
0000
0010
0100
0002
0000
0000
0000
0000
0000
,  // measure 55
0000
0000
0000
0000
0000
0000
0013
0000
0100
1000
0020
0000
0000
0000
0000
0000
,  // measure 56
0000
0000
0000
0000
0000
0000
0130
0000
0001
0010
0200
0000
0000
0000
0000
0000
,  // measure 57
0000
1000
0000
0310
0000
0000
0210
0000
,  // measure 58
0000
0000
0000
0000
0000
0000
0301
0000
0010
0100
2000
0000
0000
0000
3020
0000
,  // measure 59
0000
0230
0000
0302
0000
2003
0000
0000
,  // measure 60
0000
0000
0000
0000
0000
0000
3010
0000
0100
0000
0001
1000
0001
1000
0001
0000
,  // measure 61
0100
0000
0010
0100
0010
0000
1000
0000
1000
0000
0000
0000
1001
0000
0000
1000
,  // measure 62
0001
0000
0000
0001
0010
0000
0100
0000
1000
0010
1000
0000
0001
0000
0000
0001
,  // measure 63
1000
0000
0000
1000
0100
0000
0010
0000
0001
0100
0001
0000
1000
0000
0000
1000
,  // measure 64
0010
0000
0000
0010
0100
0000
0001
0000
1000
0100
1000
0000
0001
0000
0000
0001
,  // measure 65
1000
0000
0000
1000
0020
0000
0100
0000
0130
0000
0000
0000
0110
0000
0000
0100
,  // measure 66
0001
0000
0000
0001
1000
0000
0100
0000
1000
0100
0010
0000
0001
0000
0000
0001
,  // measure 67
0100
0000
0000
0100
1000
0000
0000
1000
0100
0000
0000
0100
0001
0000
1000
0000
,  // measure 68
0100
0000
0000
0100
0010
0000
0001
0000
0100
0010
1000
0000
0010
0000
0000
0010
,  // measure 69
0100
0000
0010
1000
0001
0010
0001
0010
0100
1000
0100
1000
0020
0000
0000
0000
,  // measure 70
0000
0000
0000
0030
;

//---------------dance-single - ----------------
#NOTES:
     dance-single:
     :
     Beginner:
     1:
     0.073,0.111,0.049,0.000,0.000:
1000
0000
0000
0000
,
1000
0000
0000
0000
,
0001
0000
0000
0000
,
0001
0000
0000
0000
,
1001
0000
0000
0000
,
0000
0000
0000
0000
,
1000
0000
0000
0000
,
0001
0000
0000
0000
,
1000
0000
0000
0000
,
0000
0000
0000
0000
,
0010
0000
0000
0000
,
0100
0000
0000
0000
,
0010
0000
0000
0000
,
1000
0000
0000
0000
,
0001
0000
0000
0000
,
1000
0000
0000
0000
,
1001
0000
0000
0000
,
0001
0000
0000
0000
,
1000
0000
0000
0000
,
0001
0000
0000
0000
,
0010
0000
0000
0000
,
0000
0000
0000
0000
,
0100
0000
0000
0000
,
0000
0000
0000
0000
,
1000
0000
0000
0000
,
0000
0000
0000
0000
,
0001
0000
0000
0000
,
0000
0000
0000
0000
,
1000
0000
0000
0000
,
0100
0000
0000
0000
,
0010
0000
0000
0000
,
0001
0000
0000
0000
,
1001
0000
0000
0000
,
0010
0000
0000
0000
,
0100
0000
0000
0000
,
1000
0000
0000
0000
,
0000
0000
0000
0001
,
0000
0000
0000
1000
,
0000
0000
0000
0001
,
0000
0000
0000
1000
,
0000
0000
0000
0100
,
0000
0000
0000
0000
,
0000
0000
0000
0010
,
0000
0000
0000
0000
,
0000
0000
0000
0001
,
0000
0000
0000
1000
,
0000
0000
0000
0001
,
0000
0000
0000
1000
,
0000
0000
0000
0010
,
0000
0000
0000
0100
,
0000
0000
0000
0010
,
0000
0000
0000
0100
,
0000
0000
0000
1001
,
0000
0000
0000
0000
,
0000
0000
0000
0000
,
0000
0000
0000
0000
,
0000
0000
0000
0001
,
0000
0000
0000
0000
,
0000
0000
0000
1000
,
0000
0000
0000
0001
,
0000
0000
0000
1001
,
0000
0000
0000
0100
,
0000
0000
0000
0010
,
0000
0000
0000
0001
,
0000
0000
0000
1001
,
0000
0000
0000
0010
,
0000
0000
0000
0100
,
0000
0000
0000
1000
,
0000
0000
0000
0001
;
