#TITLE:キルト;
#SUBTITLE:;
#ARTIST:Des-Sana+wpt9;
#TITLETRANSLIT:QUILT;
#SUBTITLETRANSLIT:;
#ARTISTTRANSLIT:;
#CREDIT:DigiMindAxel;
#BANNER:QUILT.png;
#BACKGROUND:QUILT-bg.png;
#LYRICSPATH:QUILT.lrc;
#CDTITLE:jubeat.png;
#MUSIC:QUILT.mp3;
#OFFSET:-12.250;
#SAMPLESTART:77.588;
#SAMPLELENGTH:12.000;
#SELECTABLE:YES;
#BPMS:0.000=178.000;
#STOPS:;
#BGCHANGES:;

//---------------dance-single - ----------------
#NOTES:
     dance-single:
     :
     Challenge:
     8:
     0.704,0.664,0.223,0.207,0.190: // measure 1
1000
0100
1000
0001
0000
0200
0001
0302
,  // measure 2
0000
1000
2003
0000
0100
3100
0010
0000
,  // measure 3
0001
0100
0001
1000
0000
0200
1000
2300
,  // measure 4
0000
0001
3002
0000
0100
0103
0010
0000
,  // measure 5
1000
0010
1000
0001
0000
0200
0001
0302
,  // measure 6
0000
1000
2003
0000
0100
3100
0010
0000
,  // measure 7
1001
0001
0000
0101
0100
0000
1001
1000
,  // measure 8
0000
0000
1010
0000
0010
0000
0000
0000
0100
0000
0010
0100
0010
0100
0010
0100
,  // measure 9
0010
1000
0010
1000
0001
0010
0001
1000
,  // measure 10
0000
1000
0001
0010
0001
0100
0010
0000
,  // measure 11
1000
0100
1000
0100
0010
0001
0010
0100
,  // measure 12
0000
0100
0010
0001
0100
0010
0100
0000
,  // measure 13
1001
0000
0010
0001
0010
0001
1000
0010
,  // measure 14
0000
0010
1000
0100
0010
0100
1000
0000
,  // measure 15
1001
0010
0100
1000
0000
1000
0010
0100
,  // measure 16
0010
0000
1000
0000
0100
0000
0010
0000
0001
0000
1000
0000
0010
0100
0010
0000
,  // measure 17
1000
0100
1000
1000
0001
0010
0100
0010
,  // measure 18
0001
0100
0100
0010
0100
0010
1000
0000
,  // measure 19
1001
0000
0001
0001
0100
0001
1000
0100
,  // measure 20
0010
0100
1000
0010
0220
0000
0000
0330
,  // measure 21
1001
0000
0001
0001
0100
0001
1000
0010
,  // measure 22
0100
0010
0010
1000
0001
0010
0100
1000
,  // measure 23
1001
0000
0001
0001
0100
0010
1000
0100
,  // measure 24
0010
0100
0100
1000
0010
0100
0010
0000
,  // measure 25
1000
0001
1000
0000
0001
0000
0201
0000
0000
0000
0000
0000
0310
0000
1000
0000
,  // measure 26
0100
0010
0001
1000
0000
1000
0100
1000
,  // measure 27
0001
1000
0100
2000
0000
0000
3001
1000
,  // measure 28
0010
0100
0001
0100
0000
0100
0001
1000
,  // measure 29
0100
1000
0001
0200
0000
0001
0301
1000
,  // measure 30
0100
0010
0100
1000
0000
0001
0001
1000
,  // measure 31
1000
0100
0010
0002
0000
1000
1003
0010
,  // measure 32
0100
0010
1000
0100
0000
1000
0100
1000
,  // measure 33
0001
0000
0010
0000
0100
0000
1000
0000
0001
0000
1000
0000
0001
0000
0000
0002
0000
0000
0000
0000
0000
0100
0000
0000
,  // measure 34
0203
0000
0010
0320
0000
1000
1030
0000
,  // measure 35
0001
1000
0001
0000
1000
0000
0000
0000
0100
0000
0200
0000
0000
0000
0010
0000
,  // measure 36
0320
0000
0001
0032
0000
1000
1003
0000
,  // measure 37
0010
0000
0100
0010
0100
0010
0100
0010
0100
0000
0001
0000
0100
0000
0001
0000
,  // measure 38
1000
0010
1000
0010
0100
0010
0100
0001
,  // measure 39
0010
0100
1000
0000
0010
0100
0010
0100
,  // measure 40
0001
1000
0001
1000
0001
0010
1000
0010
,  // measure 41
0001
1000
0001
0100
0110
0000
0010
0001
,  // measure 42
0010
0001
0100
0010
1000
0100
0001
0100
,  // measure 43
1000
0010
0100
0000
0001
0010
0001
0010
,  // measure 44
0100
1000
0100
1000
0001
0010
1000
0010
,  // measure 45
0001
0010
0100
0000
2010
0000
0000
0000
,  // measure 46
0100
0000
3001
1000
,  // measure 47
0001
0010
0100
1000
0001
0100
0001
0000
0000
0000
0000
0000
,  // measure 48
0110
0000
0000
0000
1000
1000
0010
0100
,  // measure 49
0000
0101
0000
0000
0001
0010
0100
0010
,  // measure 50
0001
1000
0010
1000
0100
0010
0100
1000
,  // measure 51
0010
0100
0010
0100
0010
0000
0000
0000
1000
0000
0010
0000
0100
0000
0010
0000
,  // measure 52
1000
0001
0010
0001
0100
0010
0100
0001
,  // measure 53
1000
0001
1000
0001
1000
0000
0000
0000
0100
0000
0010
0000
0001
0000
0010
0000
,  // measure 54
0100
1000
0001
1000
0010
0100
0001
0100
,  // measure 55
0010
1000
0010
1000
0010
0000
0000
0000
1000
0000
1000
0000
0001
0000
0100
0000
,  // measure 56
0100
0001
1000
0100
0001
0100
1000
0001
,  // measure 57
0100
0010
0100
0000
0010
0000
0000
0000
1001
0000
0000
0000
0100
0000
1100
0000
,  // measure 58
0000
0101
0000
1001
0000
0000
1000
0001
,  // measure 59
0100
0010
0100
0000
0010
0000
0000
0000
1001
0000
0000
0000
0100
0000
0101
0000
,  // measure 60
0000
1100
0000
1001
0000
0000
0001
1000
,  // measure 61
0100
0010
0100
0000
0010
0000
0000
0000
0002
0000
0100
0000
0000
0000
0103
0000
,  // measure 62
0010
0000
0001
1000
0200
0010
0000
0310
,  // measure 63
0100
0000
1000
0100
0020
1000
0000
1030
,  // measure 64
0001
0000
0000
0000
0010
0000
0100
0000
1000
0001
1000
0001
1000
0000
0001
0000
,  // measure 65
0010
0100
0010
0100
0010
0000
0000
0000
0000
0000
0001
0000
0000
0000
0001
0000
,  // measure 66
0001
0100
0000
0010
0000
1000
1000
0000
,  // measure 67
0010
0000
0100
0010
0100
0010
0100
0010
0100
0000
0001
0000
0010
0000
0100
0000
,  // measure 68
1000
0000
0001
0000
0100
0001
0100
0000
0010
0000
0000
1000
0000
0000
0001
0000
,  // measure 69
1000
0001
1000
0000
0010
1000
0010
0000
0100
0000
0000
0001
0000
0000
0010
0100
,  // measure 70
0010
0000
0001
0000
1000
0000
0100
0010
0100
0010
0100
0000
1000
0000
0001
0000
,  // measure 71
0010
0100
1000
0000
0010
1000
0100
0001
,  // measure 72
0100
1000
0001
1000
0010
0001
0010
1000
,  // measure 73
0001
0100
0010
0000
1000
0100
0001
0100
,  // measure 74
1000
0010
0100
0001
0010
0010
0100
0100
,  // measure 75
1000
0000
1000
0000
0001
0100
0001
0000
1001
0000
1000
0000
0000
0000
1100
0000
,  // measure 76
0100
0000
1001
0001
0000
0011
0010
0000
,  // measure 77
0100
1000
0100
1000
0010
0100
0010
0100
0000
0000
0000
0000
0000
0000
0000
0000
;

//---------------dance-single - ----------------
#NOTES:
     dance-single:
     :
     Hard:
     7:
     0.542,0.505,0.215,0.207,0.008: // measure 1
0001
0100
0001
1000
0000
0100
1000
0100
,  // measure 2
0000
0010
0100
0000
0010
0001
1000
0000
,  // measure 3
0001
0010
0001
1000
0000
0010
1000
0010
,  // measure 4
0000
1000
0001
0000
1000
0000
1001
0000
,  // measure 5
1000
0010
1000
0001
0000
0100
0010
0100
,  // measure 6
0000
0001
1000
0000
0010
0100
0001
0000
,  // measure 7
1000
1000
0000
0001
0001
0000
0100
0100
,  // measure 8
0000
0010
0010
0000
1000
0001
1000
0000
,  // measure 9
0001
0000
0100
0001
0100
0001
1000
0100
,  // measure 10
0000
0010
0000
0100
0000
1000
0100
0000
,  // measure 11
1000
0000
0010
1000
0010
1000
0001
0010
,  // measure 12
0000
0100
0000
0010
0000
0001
0010
0000
,  // measure 13
1001
0000
1000
0100
0010
0100
0000
1000
,  // measure 14
0000
1000
0000
0010
0100
0000
0001
0000
,  // measure 15
1001
0000
0001
0010
0100
0010
0001
0100
,  // measure 16
0000
0001
0000
1000
0100
0000
1001
0000
,  // measure 17
1000
0010
1000
0010
0100
0000
0001
0100
,  // measure 18
0000
0010
1000
0100
0010
0100
1000
0000
,  // measure 19
0001
0010
0001
0010
0100
0000
1000
0010
,  // measure 20
0000
0100
0001
0010
0100
0000
0000
0000
,  // measure 21
1000
0100
1000
0100
0010
0000
0100
1000
,  // measure 22
0000
0010
0100
0001
0010
0001
0100
0000
,  // measure 23
0001
0100
0001
0100
0010
0000
1000
0100
,  // measure 24
0000
0010
0100
1000
0010
0000
0010
0000
,  // measure 25
0110
0000
0000
1001
0000
0000
0100
0001
,  // measure 26
0100
0001
1000
0100
1000
0000
0001
0000
,  // measure 27
1001
0000
0100
1000
0100
1000
0001
0100
,  // measure 28
0001
0000
1000
0100
0010
0000
0100
0000
,  // measure 29
1000
0010
0100
0002
0000
0000
1003
0000
,  // measure 30
0001
1000
0000
0100
0000
1000
0001
0010
,  // measure 31
0100
1000
0001
0100
0000
0000
1001
0000
,  // measure 32
0010
1000
0000
0001
0000
0000
1001
0000
,  // measure 33
0020
0000
0230
0000
1300
1000
0000
0010
,  // measure 34
0010
0000
0100
0100
0000
0001
0001
0000
,  // measure 35
1000
0000
1000
0000
0001
0100
0000
0100
,  // measure 36
0010
0000
0010
1000
0000
1000
0001
0000
,  // measure 37
0100
0000
0100
0000
1001
0000
0010
1000
,  // measure 38
0100
1000
0010
0000
1000
0000
0001
0010
,  // measure 39
0100
0010
0001
0000
1001
0000
1000
0100
,  // measure 40
0010
0100
1000
0000
1010
0000
1010
0000
,  // measure 41
0101
0000
0101
0000
0100
0001
0010
0001
,  // measure 42
0100
0000
0001
0000
0010
0100
1000
0100
,  // measure 43
0010
0000
0100
0000
1000
0010
0100
0000
,  // measure 44
0001
0010
0100
0000
0010
0001
0000
1000
,  // measure 45
0000
1000
0100
0000
2001
0000
0000
0000
,  // measure 46
0100
0000
3002
0000
,  // measure 47
0100
0000
1003
0000
,  // measure 48
1001
0000
0000
0000
1000
1000
0010
0100
,  // measure 49
0000
1001
0000
0000
0100
0001
2000
0000
,  // measure 50
0100
0010
0100
3010
,  // measure 51
1000
0010
0100
0000
0010
1000
0002
0000
,  // measure 52
0010
0100
0010
0103
,  // measure 53
0001
1000
0100
0000
1002
0000
1000
1003
,  // measure 54
0000
0001
0010
0100
2000
0000
3200
0000
,  // measure 55
0302
0000
0103
0000
1000
0001
0000
0001
,  // measure 56
1000
0000
0010
0100
0001
0010
1000
0010
,  // measure 57
0001
0000
0000
0000
1001
0000
0010
1000
,  // measure 58
0000
0001
0000
0020
0000
0000
0001
0000
,  // measure 59
0031
1000
0010
0000
1001
0000
0100
0001
,  // measure 60
0000
1000
0000
0200
0000
0000
1000
0000
,  // measure 61
1300
0001
0100
0000
0002
0000
0000
0023
,  // measure 62
0000
0000
0130
0000
1002
0000
0000
0023
,  // measure 63
0000
0000
0130
0000
2001
0000
0000
3002
,  // measure 64
0000
0000
1003
0100
0010
0000
0001
0100
,  // measure 65
0010
1000
0001
1000
0000
0020
0000
0100
,  // measure 66
0100
0000
0000
0000
0000
1000
1030
0000
,  // measure 67
0001
0100
0010
0100
0001
0010
0100
2000
,  // measure 68
0000
0000
0000
0000
3001
0000
0010
0000
0001
0000
0000
0001
0000
0000
0001
0000
,  // measure 69
1000
0000
0100
0000
0010
0000
0001
0000
1000
0000
0000
1000
0000
0000
1000
0000
,  // measure 70
0000
0001
0100
0001
1000
0100
0010
0001
,  // measure 71
1000
0100
0010
0000
0001
0100
0010
1000
,  // measure 72
1000
0010
0100
0001
0001
0010
0100
1000
,  // measure 73
0010
0000
0100
0010
1000
0100
0010
0100
,  // measure 74
1000
0001
0100
0010
0000
0101
0000
1010
,  // measure 75
0000
1001
0000
0002
0100
0203
0000
0010
,  // measure 76
0320
0000
1000
2030
0000
0001
3001
0000
,  // measure 77
1000
0100
0010
0001
0000
0000
0000
0000
;

//---------------dance-single - ----------------
#NOTES:
     dance-single:
     :
     Medium:
     6:
     0.425,0.410,0.223,0.174,0.000:
0001
0000
0100
0000
0010
0000
1000
0001
,
1000
0000
0001
1000
0001
0000
1000
0000
,
0010
0000
0100
0000
0001
0000
1000
0001
,
0000
1000
1000
0001
,
0001
0000
0100
0000
0010
0000
1000
0001
,
1000
0000
0001
1000
0001
0000
1000
0000
,
1100
0000
0000
1001
0000
0000
0011
0000
,
0000
1001
0000
0000
0010
0100
0010
0000
,
2000
0000
0000
0100
0000
0000
3001
1000
,
0000
0100
0000
0010
0000
0001
1000
0000
,
0002
0000
0000
0100
0000
0000
1003
0001
,
0000
0010
0000
0100
0000
1000
0001
0000
,
2000
0000
0000
0100
0000
0000
3001
1000
,
0000
0010
0000
0100
0000
0001
1000
0000
,
0002
0000
0000
0100
0000
0000
1003
0001
,
0000
0100
0000
0010
0000
1000
0001
0000
,
1000
0100
1000
0000
0001
0100
0001
0000
,
1000
0100
0010
0001
,
1000
0010
1000
0000
0001
0010
0001
0000
,
0100
0010
2002
3003
,
0100
0010
0100
0000
0001
1000
0001
0000
,
0010
0100
1000
0001
,
0100
0010
0100
0000
0001
1000
0001
0000
,
0010
0100
1000
0001
,
0000
0000
0000
1001
0000
0000
0100
0000
,
1000
0000
0000
1010
0000
0000
0010
0000
,
0001
0000
0000
0101
0000
0000
0100
0000
,
1000
0000
0000
1010
0000
0000
0010
0000
,
0001
0000
0000
0101
0000
0000
1000
0000
,
0100
1000
0000
0101
0000
0000
0001
0000
,
0010
0001
0000
1010
0000
0000
1000
0000
,
0010
1000
0000
0011
0000
0000
0100
0000
,
0001
0100
0010
0000
2000
0000
0000
3200
,
0000
0000
0320
0000
0000
0032
0000
0000
,
1003
0000
0001
0000
1001
0000
0000
0101
,
0000
0000
1001
0000
0000
1010
0000
0000
,
0001
0001
1001
1000
,
0100
1000
0100
0010
,
0001
1000
1001
0001
,
0010
0001
0100
0110
,
1000
1001
0001
0010
,
0001
0010
0100
1000
,
0010
0100
0010
1000
,
0001
0000
0010
0000
0001
1000
0000
0001
,
0000
1000
0000
0000
1001
0000
0000
0000
,
0010
0000
0100
0000
,
2000
0000
3001
0000
,
1001
0000
0000
0000
0001
1000
0001
1000
,
0000
0001
0000
0000
1000
0001
1000
0000
,
0100
0010
0001
1000
,
0010
0100
0010
0000
1000
0001
1000
0000
,
0100
0010
0001
0100
,
0010
0100
0010
0000
1000
0000
0001
1000
,
0000
0001
1000
0000
0100
0000
0010
0000
,
0001
0000
1000
0000
0001
1000
0000
0001
,
1000
0000
0010
0100
0010
0000
0010
0000
,
0010
0000
0000
0000
1001
0000
0001
0100
,
0000
0010
0000
2000
0000
0000
0000
0000
,
3001
0000
1000
0000
1001
0000
1000
0010
,
0000
0100
0000
0002
0000
0000
0000
0000
,
1003
0000
0001
0000
0200
0000
0000
0302
,
0000
0000
1003
0000
0020
0000
0000
2030
,
0000
0000
3001
0000
0200
0000
0000
0302
,
0000
1003
0100
0010
,
0001
0000
1000
0002
0000
0100
0000
0000
,
0100
0000
0000
0000
0003
1000
0001
0000
,
0100
0000
0100
0000
0101
0000
1000
0100
,
1000
0000
0001
0100
0001
0000
1000
0000
,
0100
0001
0100
1000
,
1010
0000
0001
0000
0100
0010
0100
0000
,
0001
1000
0001
0000
1000
0100
1000
0000
,
0001
0100
1000
0100
,
0001
0000
1000
0000
0010
0100
0010
0000
,
1000
0001
1000
0000
0001
1000
0000
0010
,
0000
0100
0000
0001
1000
0100
0000
1000
,
0100
0000
0010
0001
0000
0010
0001
0000
,
2000
3001
0000
0000
;

//---------------dance-single - ----------------
#NOTES:
     dance-single:
     :
     Easy:
     3:
     0.185,0.252,0.033,0.099,0.000:
1000
0000
0001
0000
,
1000
0000
0010
0000
,
0100
0000
0001
0000
,
1000
0000
0001
0000
,
0100
0000
0010
0000
,
1000
0000
0001
0000
,
2000
0000
0000
3002
,
0000
0000
0000
0000
,
1003
0000
0000
0000
,
0010
0000
0000
0000
,
0100
0000
0000
0000
,
0001
0000
0000
0000
,
1000
0000
0000
0000
,
0001
0000
0000
0000
,
0010
0000
0000
0000
,
0100
0000
0000
0000
,
1000
0000
0001
0000
,
1000
0000
0001
0000
,
0100
0000
0010
0000
,
0100
0000
0020
0000
,
1030
0000
0010
0000
,
1000
0000
0001
0000
,
0100
0000
0001
0000
,
1000
0000
0001
0000
,
0000
0000
0000
1001
0000
0000
0000
0000
,
1000
0000
0001
0000
,
1000
0000
0010
0000
,
0100
0000
0010
0000
,
0100
0000
0001
0000
,
0100
0000
0001
0000
,
1000
0000
0100
0000
,
0010
0000
0001
0000
,
1000
1000
0002
0000
,
0000
0000
0000
0000
,
0000
0000
2003
0000
,
0000
0000
0000
0000
,
3001
0001
1000
0000
,
0010
0000
0100
0000
,
0010
0000
1000
0000
,
0001
0000
0100
0000
,
0010
0000
0100
0000
,
0001
0000
1000
0000
,
1000
0000
0001
0000
,
0001
0000
0100
0000
,
0010
0000
2000
0000
,
0000
0000
0000
0000
,
0000
0000
3002
0000
,
0000
0000
1003
0000
,
0000
0000
1001
0000
,
0001
0000
1000
0000
,
0001
0000
0100
0000
,
0010
0000
0100
0000
,
0010
0000
1000
0000
,
1000
0000
0001
0000
,
0001
0000
0100
0000
,
0010
0000
0100
0100
,
0010
0000
1000
0000
,
0000
0000
0000
1001
0000
0000
0000
0000
,
0001
1000
0001
0000
,
0000
0000
0000
1001
0000
0000
0000
0000
,
1000
0001
0200
0000
,
0000
0000
0320
0000
,
0000
0000
0230
0000
,
0000
0000
0301
0010
,
0100
2000
0000
0000
,
0000
0000
3000
0000
,
0002
0000
1003
0010
,
1000
0000
0001
1000
,
0001
0000
0010
0001
,
0010
0000
0001
1000
,
0001
0000
1000
0010
,
1000
0000
0001
1000
,
0001
0000
0010
0001
,
0010
0000
0001
1000
,
0001
0000
0000
0000
0100
0000
0000
0100
,
0000
0000
0100
0000
0000
0100
0000
0000
,
0010
0100
0000
0000
;

//---------------dance-single - ----------------
#NOTES:
     dance-single:
     :
     Beginner:
     1:
     0.072,0.126,0.050,0.000,0.000:
1000
0000
0000
0000
,
1000
0000
0000
0000
,
0001
0000
0000
0000
,
0001
0000
0000
0000
,
1000
0000
0000
0000
,
1000
0000
0000
0000
,
0001
0000
0000
0000
,
0001
0000
0000
0000
,
1001
0000
0000
0000
,
0000
0000
0000
0000
,
0100
0000
0000
0000
,
0000
0000
0000
0000
,
0010
0000
0000
0000
,
0000
0000
0000
0000
,
0100
0000
0000
0000
,
0000
0000
0000
0000
,
0001
0000
0000
0000
,
0000
0000
0000
0000
,
1000
0000
0000
0000
,
0000
0000
0000
0000
,
0001
0000
0000
0000
,
0000
0000
0000
0000
,
0001
0000
0000
0000
,
0000
0000
0000
0000
,
0000
0000
0000
1001
0000
0000
0000
0000
,
0000
0000
0001
0000
,
0000
0000
1000
0000
,
0000
0000
0001
0000
,
0000
0000
1000
0000
,
0000
0000
0100
0000
,
0000
0000
0010
0000
,
0000
0000
0001
0000
,
0000
0000
1000
0000
,
0000
0000
0000
0000
,
0000
0000
1000
0000
,
0000
0000
0000
0000
,
0000
0000
1001
0000
,
0000
0000
0001
0000
,
0000
0000
0000
0000
,
0000
0000
1000
0000
,
0000
0000
0001
0000
,
0000
0000
0000
0000
,
0000
0000
0100
0000
,
0000
0000
0000
0000
,
0000
0000
0110
0000
,
0000
0000
0000
0000
,
0000
0000
0100
0000
,
0000
0000
0000
0000
,
0000
0000
0001
0000
,
0000
0000
0000
0000
,
0000
0000
1000
0000
,
0000
0000
0000
0000
,
0000
0000
0001
0000
,
0000
0000
0000
0000
,
0000
0000
0001
0000
,
0000
0000
1001
0000
,
0000
0000
1000
0000
,
0000
0000
0000
0000
,
0000
0000
0001
0000
,
0000
0000
0000
0000
,
0000
0000
1000
0000
,
0000
0000
1000
0000
,
0000
0000
1000
0000
,
0000
0000
0001
0000
,
0000
0000
0001
0000
,
0000
0000
0000
0000
,
0000
0000
1001
0000
,
0000
0000
0001
0000
,
0000
0000
1000
0000
,
0000
0000
0001
0000
,
0000
0000
1000
0000
,
0000
0000
1000
0000
,
0000
0000
0001
0000
,
0000
0000
0001
0000
,
0000
0000
0100
0000
,
0000
0000
0000
0000
,
0100
0000
0000
0000
;
