#TITLE:Pray;
#SUBTITLE:;
#ARTIST:Tommy heavenly6;
#TITLETRANSLIT:;
#SUBTITLETRANSLIT:;
#ARTISTTRANSLIT:;
#CREDIT:DigiMindAxel;
#BANNER:Pray.png;
#BACKGROUND:Pray-bg.png;
#LYRICSPATH:Pray.lrc;
#CDTITLE:DigiMindAxel original simfile.png;
#MUSIC:Pray.mp3;
#OFFSET:-6.400;
#SAMPLESTART:54.853;
#SAMPLELENGTH:12.000;
#SELECTABLE:YES;
#BPMS:0.000=178.000;
#STOPS:;
#BGCHANGES:-20.000=Pray.avi=1.000=1=1=0,
99999=-nosongbg-=1.000=0=0=0 // don't automatically add -songbackground-
;

//---------------dance-single - ----------------
#NOTES:
     dance-single:
     :
     Easy:
     3:
     0.264,0.297,0.121,0.066,0.000:
1000
0001
1000
0001
,
1000
0100
0010
0001
,
1000
0010
1000
0010
,
0200
0000
0302
0000
,
1003
0000
0001
0000
,
1000
0000
0001
0000
,
0010
0000
0001
0000
,
0010
0000
0001
0000
,
0100
0000
0010
0000
,
0100
0000
0010
0000
,
0100
0000
0001
0000
,
2000
0000
3002
0000
,
1003
0000
0001
0000
,
1000
0100
1000
0000
,
0010
0000
0100
0000
,
0001
0100
0001
0000
,
0010
0000
0100
0000
,
1000
0010
1000
0000
,
0001
0000
0100
0000
,
0001
0010
0001
0000
,
1001
0000
1000
0000
,
1001
0000
0001
0000
,
0110
0000
1000
0000
,
0010
0100
0010
0000
,
1001
0000
1000
0000
,
0110
0000
0001
0000
,
0110
0000
1000
0000
,
0001
1000
0001
0000
,
0100
0001
0100
0000
,
0010
1000
0010
0000
,
0100
0010
0100
0000
,
0010
0100
0010
0000
,
1000
0100
1000
0000
,
0001
0010
0001
0000
,
1001
0000
1000
0100
,
0010
0001
1000
0000
,
1001
0000
0001
1000
,
0001
0010
0100
1000
,
0001
0000
1000
0000
,
0001
0000
0100
0000
,
0010
0000
1000
0000
,
0000
0000
0000
0000
,
1001
0000
1000
0000
,
0001
0000
1000
0000
,
0010
0100
0010
0100
,
0001
0010
0100
1000
,
0001
0000
0100
0000
,
0010
0000
1000
0000
,
0100
0010
0100
0010
,
0100
0000
1000
0000
,
0001
0100
0001
0100
,
0001
0000
1000
0000
,
0010
1000
0010
1000
,
0010
0000
0010
0000
,
0110
0000
0100
0010
,
0100
0000
0001
0000
,
1000
0001
1000
0001
,
0100
0000
0100
0000
,
2002
0000
0000
0000
,
0000
0000
0000
0000
,
3003
0000
0000
0000
;

//---------------dance-single - ----------------
#NOTES:
     dance-single:
     :
     Hard:
     8:
     0.646,0.726,0.528,0.220,0.083: // measure 1
2000
0000
3001
0010
1000
0010
0001
0100
,  // measure 2
0010
1100
0110
0011
,  // measure 3
0002
0000
1003
0100
0001
0100
1000
0010
,  // measure 4
0100
0000
0000
0000
1001
0000
0000
0000
0010
0000
0000
0100
0010
0000
0000
0000
,  // measure 5
1000
0000
1000
0100
0010
0000
0001
0010
,  // measure 6
1000
0010
0001
1000
0000
1000
0100
1000
,  // measure 7
0001
0000
0001
0010
0100
0000
1000
0100
,  // measure 8
0001
0100
1000
0001
0000
0001
0010
0001
,  // measure 9
1000
0000
1000
0010
0100
0000
0001
0010
,  // measure 10
1000
0010
0001
1000
0000
1000
0100
0010
,  // measure 11
0001
0000
0001
0100
0010
0000
1000
0100
,  // measure 12
0010
0101
0100
1010
,  // measure 13
0010
0000
1000
0100
0010
0001
1000
0000
,  // measure 14
1100
0101
1100
1001
,  // measure 15
1000
0000
0001
0100
0010
1000
0001
0000
,  // measure 16
0101
1100
0101
1001
,  // measure 17
1000
0000
0001
0100
0001
1000
0100
1000
,  // measure 18
0001
0100
0000
0100
0001
1000
0100
0010
,  // measure 19
0001
0000
1000
0010
1000
0001
0010
0001
,  // measure 20
1000
0000
0100
0000
0010
0000
0000
0000
0001
1000
0001
1000
0001
1000
0001
1000
,  // measure 21
0002
0000
1003
0100
0010
0000
0100
0000
,  // measure 22
2000
0000
3001
0010
0100
0000
0001
0000
,  // measure 23
0200
0000
1300
0010
0100
0000
0001
0000
,  // measure 24
1000
0100
0001
0000
0001
0100
1000
0000
,  // measure 25
0020
0000
0130
0001
0010
0000
0200
0000
,  // measure 26
0310
0001
1000
0000
0100
0000
2000
0000
,  // measure 27
3001
0100
0010
0000
1000
0000
0001
0100
,  // measure 28
1000
0000
1000
0100
0001
0000
1001
0000
,  // measure 29
0110
1100
1100
0110
,  // measure 30
0110
0011
0011
1001
,  // measure 31
1001
0110
0110
1001
,  // measure 32
0001
0010
0100
2000
0000
0001
3001
0000
,  // measure 33
0101
0101
0110
0110
,  // measure 34
1010
1010
0110
1001
,  // measure 35
0110
0000
1000
0000
0001
0010
0100
1000
,  // measure 36
0001
0000
0000
0000
1001
0000
0000
0000
1000
0001
1000
0001
1000
0001
1000
0000
,  // measure 37
0001
0001
0001
0000
0010
0100
1000
0001
,  // measure 38
0010
1000
0010
0001
1000
0000
1001
0000
,  // measure 39
0100
0001
0010
0000
1000
0000
0010
0000
,  // measure 40
0002
1000
0203
0010
,  // measure 41
1300
0010
0100
0000
0001
0000
1002
0000
,  // measure 42
0000
0103
0100
0100
,  // measure 43
0110
0000
0100
0001
0010
0000
0100
1000
,  // measure 44
0010
0100
0001
0100
0010
0000
0010
0000
,  // measure 45
1000
1000
1000
0010
0100
0000
1001
0000
,  // measure 46
0100
0010
0001
1000
0100
0001
0100
1000
,  // measure 47
0001
0000
1001
0000
0010
1000
0100
0000
,  // measure 48
0010
0001
1000
0000
2001
0000
0000
0000
,  // measure 49
3010
0000
0010
0000
0100
0010
0100
0001
,  // measure 50
0020
0100
0031
1001
,  // measure 51
0100
0001
0010
0000
0100
1000
0010
0000
,  // measure 52
1000
0100
0001
0100
1000
0000
1001
0000
,  // measure 53
0001
0010
1000
0010
0001
0000
1001
0000
,  // measure 54
1000
0000
0001
0000
1000
0000
0001
0000
0100
0010
0100
0010
0100
0010
0100
0010
,  // measure 55
0200
0000
0301
0001
1000
0100
0001
0100
,  // measure 56
1000
0010
0200
0000
0302
0000
1003
0000
,  // measure 57
0120
0000
1030
1000
0001
0010
1000
0010
,  // measure 58
0001
0000
0100
0010
0100
0000
0001
0000
0010
0100
0010
0000
0100
1000
0100
0000
,  // measure 59
2002
0000
0000
0000
,  // measure 60
0000
0000
0000
0000
,  // measure 61
3003
0000
0000
0000
;

//---------------dance-single - ----------------
#NOTES:
     dance-single:
     :
     Medium:
     6:
     0.503,0.561,0.462,0.187,0.000:
1001
0000
1000
0001
0100
0000
0001
0000
,
0100
0000
1001
0000
0010
0100
0010
0000
,
1001
0000
0001
1000
0010
0000
1000
0000
,
1010
0000
0101
0000
,
1001
0000
0001
1000
0001
0000
0010
0000
,
0100
1000
0001
0001
,
1000
0100
0010
0001
,
1000
1000
0010
0010
,
0100
0001
0010
0100
,
1000
0010
0010
0100
,
0100
0001
1000
0001
,
0220
0330
2002
3003
,
1001
0000
1000
0001
1000
0000
0100
0000
,
0010
0001
1000
0001
,
0100
0010
1000
0001
,
1000
1000
0001
0001
,
0100
0000
0001
1000
0001
0000
0000
0010
,
0100
1000
0010
0100
,
0001
1000
0100
0010
,
0220
0330
2002
3003
,
1001
0000
1000
0100
1000
0000
0001
0000
,
1001
0000
0001
0100
0001
0000
1000
0000
,
1001
0000
0010
0100
0010
0000
1000
0100
,
0010
0000
0001
0010
0100
0000
1000
0000
,
1001
0000
0001
0010
0001
0000
1000
0000
,
1001
0000
1000
0010
1000
0000
0001
0000
,
1001
0000
0010
0100
0010
0000
0100
0000
,
0110
1000
1001
1001
,
0001
0100
0010
0000
0100
0010
0100
0000
,
0001
0100
0010
0000
0100
0010
0100
0000
,
0001
0100
0010
0000
0100
0010
0100
0000
,
1001
2000
0000
3001
,
1000
0010
0100
0000
0010
0100
0010
0000
,
1000
0010
0100
0000
0010
0100
0010
0000
,
1001
0000
0001
1000
,
0100
0100
0110
0000
,
0010
0100
0010
0000
1000
0100
1000
0000
,
0100
0010
0001
1000
0001
0000
1001
0000
,
0100
0000
0110
0000
0000
0000
1000
0001
,
2000
0001
0010
3001
,
0110
1000
0001
1001
,
0000
0000
0100
0000
0010
0100
0010
0000
,
1001
1000
0001
0100
,
0010
1000
0100
0000
0010
0000
0100
0000
,
1000
0001
1000
0001
0100
0000
0101
0000
,
0100
0000
0100
0000
1001
0000
0010
1000
,
0001
0010
0100
1000
,
1001
0000
0000
0000
1000
0001
1000
0000
,
0001
0100
0010
0000
0100
0010
0100
0000
,
0002
1000
0100
1003
,
1001
0100
0010
0001
,
1001
0100
0110
0100
,
0010
1000
0100
0000
1000
0100
1000
0000
,
1001
1001
1001
0000
,
1001
0000
0001
0100
0010
0100
0001
0000
,
0010
0100
1000
0001
,
1001
0000
1000
0010
0100
0010
1000
0000
,
0220
0330
2002
3003
,
2002
0000
0000
0000
,
0000
0000
0000
0000
,
3003
0000
0000
0000
;

//---------------dance-single - ----------------
#NOTES:
     dance-single:
     :
     Beginner:
     2:
     0.129,0.192,0.055,0.000,0.000:
1000
0000
0001
0000
,
1000
0000
0000
0000
,
0001
0000
1000
0000
,
0001
0000
0000
0000
,
0100
0000
0000
0000
,
0010
0000
0000
0000
,
0100
0000
0000
0000
,
0100
0000
0000
0000
,
0010
0000
0000
0000
,
0100
0000
0000
0000
,
0010
0000
0000
0000
,
0010
0000
0000
0000
,
1000
0000
0000
0000
,
1000
0000
0000
0000
,
0001
0000
0000
0000
,
0001
0000
0000
0000
,
0010
0000
0000
0000
,
0100
0000
0000
0000
,
1000
0000
0000
0000
,
0001
0000
0000
0000
,
1001
0000
0000
0000
,
1000
0000
0000
0000
,
0001
0000
0000
0000
,
0000
0000
0000
0000
,
1000
0000
0000
0000
,
0001
0000
0000
0000
,
1000
0000
0000
0000
,
0000
0000
0000
0000
,
0010
0000
0010
0000
,
0010
0000
0010
0000
,
0010
0000
0010
0000
,
0010
0000
0000
0000
,
0100
0000
0100
0000
,
0100
0000
0100
0000
,
0100
0000
0000
0000
,
1001
0000
0000
0000
,
1001
0000
0000
0000
,
0001
0000
1000
0000
,
0001
0000
0000
0000
,
0010
0000
0000
0000
,
0100
0000
0000
1000
,
0000
0000
0000
0000
,
0001
0000
1000
0000
,
0001
0000
0000
0000
,
1000
0000
1000
0000
,
1000
0000
0100
0000
,
0010
0000
0001
0000
,
1000
0000
0001
0000
,
0100
0000
0100
0000
,
0100
0000
0000
0000
,
0010
0000
0010
0000
,
0010
0000
1000
0000
,
0001
0000
1000
0000
,
0100
0000
0000
0000
,
1001
0000
0001
0000
,
1000
0000
0000
0000
,
0001
0000
1000
0000
,
0001
0000
0100
0000
,
1001
0000
0000
0000
;
