#TITLE:Pluto;
#SUBTITLE:-Charon's work mix-;
#ARTIST:乙P;
#TITLETRANSLIT:;
#SUBTITLETRANSLIT:;
#ARTISTTRANSLIT:otsuP;
#CREDIT:DigiMindAxel;
#BANNER:Pluto -Charon's work mix-.png;
#BACKGROUND:Pluto -Charon's work mix--bg.png;
#LYRICSPATH:;
#CDTITLE:BEMANI game remix.png;
#MUSIC:Pluto -Charon's work mix-.mp3;
#OFFSET:-7.310;
#SAMPLESTART:100.860;
#SAMPLELENGTH:12.000;
#SELECTABLE:YES;
#DISPLAYBPM:*;
#BPMS:0.000=75.000,25.000=150.000,73.000=75.000,81.000=37.500,85.000=75.000,101.000=150.000,165.000=37.500,166.000=75.000,168.000=150.000,232.000=75.000;
#STOPS:;
#BGCHANGES:;

//---------------dance-single - ----------------
#NOTES:
     dance-single:
     :
     Easy:
     4:
     0.240,0.311,0.252,0.092,0.000: // measure 1
0000
0000
0000
0000
,  // measure 2
0000
0000
0000
0000
,  // measure 3
0000
1001
0010
0000
,  // measure 4
0010
0000
0010
0000
,  // measure 5
0100
0000
0100
0000
,  // measure 6
0001
0000
1000
0000
,  // measure 7
0001
1001
0000
0010
,  // measure 8
0000
0001
0000
0010
,  // measure 9
0000
1001
0000
0100
,  // measure 10
0000
1000
0000
0010
,  // measure 11
0000
1001
0000
0100
,  // measure 12
0000
0001
0000
0010
,  // measure 13
0000
1001
0000
0100
,  // measure 14
0000
1000
0000
0010
,  // measure 15
0000
0110
0000
1000
,  // measure 16
0000
0100
0000
0010
,  // measure 17
0000
1001
0000
0010
,  // measure 18
0000
0100
0000
1000
,  // measure 19
0000
1002
0000
0000
,  // measure 20
0203
0320
0000
0230
,  // measure 21
0000
0300
1001
0000
0000
0000
0000
0000
,  // measure 22
0000
0020
0000
0032
,  // measure 23
0000
0023
0000
0230
,  // measure 24
0000
2300
0000
3002
,  // measure 25
0000
0203
0000
0320
,  // measure 26
0000
0030
1001
0000
0100
0000
1000
0000
,  // measure 27
0100
1000
0100
1000
,  // measure 28
0100
0010
0001
0010
,  // measure 29
0001
0010
0001
0010
,  // measure 30
0100
1000
0010
1000
,  // measure 31
0010
1000
0010
0100
,  // measure 32
0001
0100
0001
0100
,  // measure 33
0001
0100
0010
0100
,  // measure 34
0100
0010
1000
0100
,  // measure 35
0010
0001
0010
0100
,  // measure 36
1000
0001
1000
0001
,  // measure 37
0100
0010
1000
0100
,  // measure 38
0010
1001
1000
0001
,  // measure 39
1000
1001
0001
1000
,  // measure 40
0001
1001
1001
1001
,  // measure 41
0110
0110
0110
1001
,  // measure 42
0110
1001
0000
0000
,  // measure 43
1001
0010
1000
0100
,  // measure 44
0010
0001
0100
0010
,  // measure 45
0100
0001
0010
0100
,  // measure 46
1000
0010
1000
0010
,  // measure 47
0110
0001
0010
0100
,  // measure 48
1000
0100
0010
0001
,  // measure 49
0110
1000
0100
0010
,  // measure 50
0001
0100
0010
1000
,  // measure 51
0110
1000
0100
1000
,  // measure 52
0010
0100
0001
0010
,  // measure 53
0001
0010
0100
1000
,  // measure 54
0100
0010
0001
0010
,  // measure 55
1001
0100
1000
0010
,  // measure 56
0110
0100
0001
0010
,  // measure 57
1001
0100
1001
0010
,  // measure 58
1001
1001
0110
0000
,  // measure 59
1001
0000
0000
0000
;

//---------------dance-single - ----------------
#NOTES:
     dance-single:
     :
     Hard:
     9:
     0.519,0.564,0.405,0.099,0.333:
0000
0000
0000
0000
,
0000
0000
0000
0000
,
0000
0000
0000
0001
1001
0000
0001
0000
1000
0000
0100
0000
0010
0000
0001
0000
,
0010
0100
1000
0010
0001
0010
1000
0100
,
0010
0001
0200
1300
0100
0001
0020
0130
,
2000
3100
0020
0031
0100
0010
0100
0100
,
0100
0010
0110
0000
1001
0000
0000
0000
0001
0000
0000
0000
1000
0000
0000
0000
,
0010
1000
0000
0100
0000
1000
0100
0010
,
0001
0000
0100
0010
0100
0000
0110
0000
,
0100
0001
0000
0010
0000
0001
0010
0100
,
1000
0000
0010
0100
0010
0000
0110
0000
,
0010
1000
0000
0100
0000
1000
0100
0010
,
0001
0000
0100
0100
0001
0000
0101
0000
,
0010
1000
0000
1000
0100
0010
0001
0100
,
0001
1000
0100
0010
0100
0000
1010
0000
,
0100
0001
0000
0001
0010
0100
1000
0010
,
1000
0100
0010
0001
0010
0000
0101
0000
,
0100
1000
0000
0010
1000
0100
0010
0001
,
1000
0000
0001
0000
1000
0100
1000
0000
1100
0000
1000
0001
0000
0100
0000
0010
,
1000
0010
0100
0000
0001
0010
0001
0000
0011
0000
0001
1000
0000
0010
0000
0100
,
0001
0100
0001
1000
1001
0000
0000
0000
0000
0000
0000
0000
0000
0000
0000
0000
,
0000
0000
0000
0000
0000
0000
0000
0000
1000
0000
0000
1000
0000
0000
1000
0000
0001
0000
0000
0001
0000
0000
0001
0000
0100
0000
0000
0100
0000
0000
0100
0000
,
0010
0000
0000
0010
0000
0000
0010
0000
1000
0000
0000
1000
0000
0000
1000
0000
0100
0000
0000
0100
0000
0000
0100
0000
0010
0000
0000
0010
0000
0000
0010
0000
,
0001
0000
0000
0001
0000
0000
0001
0000
1000
0000
0000
0100
0000
0000
0010
0000
0001
0000
0000
0010
0000
0000
0100
0000
1000
0000
0000
0010
0000
0000
0100
0000
,
0001
0000
0000
0100
0000
0000
0010
0000
1000
0000
0000
1000
0000
0000
1000
0000
0001
0000
0000
0001
0000
0000
0001
0000
0100
0000
0000
0100
0000
0000
0100
0000
,
0010
0000
0000
0010
0000
0000
0010
0000
1001
0000
0000
0000
0000
0000
0010
0000
0001
0000
0000
0000
0100
0000
0000
0000
0001
0000
0000
0000
0000
0000
0010
0000
,
0001
0000
0100
0000
0001
0000
0000
0010
0001
0000
0100
0000
0001
0000
0000
0010
,
0000
0000
0100
0000
1000
0000
0000
0100
1000
0000
0010
0000
1000
0000
0000
0100
,
1000
0000
0010
0000
1000
0000
0000
0100
1000
0000
0010
0000
1000
0000
0000
0100
,
0000
0000
0010
0000
1001
0000
0000
0010
1000
0000
0010
0000
0100
0000
0000
0010
,
0100
0000
0001
0000
0100
0000
0000
0010
1000
0000
0100
0000
0010
0000
0000
0001
,
0100
0000
0001
0000
0020
0000
0000
0032
0000
0000
0103
0000
0020
0000
0000
2030
,
0000
0000
3010
0000
0200
0000
0000
0302
0000
0000
0103
0000
0020
0000
0000
1030
,
0000
0000
0001
0000
1001
0000
0000
0000
0001
0010
0001
0000
1001
0000
0000
0000
,
1000
0100
1000
0000
1001
0000
0000
0000
0001
0100
0001
0000
1001
0000
0000
0000
,
1000
0010
1000
0000
1001
0000
0000
0000
0101
0000
0000
0000
1010
0000
0000
0000
,
0011
1100
0101
1010
,
0110
0000
1001
0100
0010
0001
0010
0100
,
1000
0100
0010
0001
0100
1000
0100
0001
,
0010
1000
0010
0001
1000
0010
0100
0001
,
0100
0010
1000
0010
0001
0010
1000
0100
,
0001
0100
1001
0000
0000
0000
0000
0000
,
1001
0000
0000
0001
1000
0000
0100
0000
0010
0000
0001
0000
0110
0000
0000
0000
,
1001
0000
0000
1000
0001
0000
0010
0000
0100
0000
1000
0000
0001
0000
0001
0000
,
0001
0000
0000
0001
1000
0000
0100
0000
0010
0000
0001
0000
0110
0000
0000
0000
,
1001
0000
0000
1000
0001
0000
0010
0000
0100
0000
0000
1000
0010
0000
0000
0000
,
0110
0000
0000
0001
0100
0000
0010
0000
0100
0000
0001
0000
0110
0000
0000
0000
,
1001
0000
0000
0010
1000
0000
0010
0000
0100
0000
0010
0000
1000
0000
1000
0000
,
1000
0000
0000
1000
0001
0000
0010
0000
0100
0000
1000
0000
1001
0000
0000
0000
,
0110
0000
0000
1000
0010
0000
0100
0000
0010
0000
0000
1000
0100
0000
0000
0000
,
1001
0000
0000
0010
0001
0000
0010
0000
0100
0000
1000
0000
1010
0000
0000
0000
,
1001
0000
0000
0100
1000
0000
0100
0000
0010
0000
0001
0000
1000
0000
1000
0000
,
1001
0000
0000
0001
1000
0000
0100
0000
0010
0000
0001
0000
0101
0000
0000
0000
,
1001
0000
0000
0010
1000
0000
0100
0000
0010
0000
0000
0001
0100
0000
0000
0000
,
1001
0000
0000
1000
0001
0000
0010
0000
0100
0000
0000
0100
1000
0000
0001
0000
,
1001
0000
0000
0001
1000
0000
0100
0000
0010
0000
0000
0010
0001
0000
1000
0000
,
1001
0000
0000
0001
0100
0000
0010
0000
0110
0000
0000
1000
0010
0000
0100
0000
,
0110
0000
0000
0000
1001
0000
0000
0000
0110
0000
0000
1010
0000
0000
0101
0000
,
2002
0000
0000
0000
,
3003
0000
0000
0000
;

//---------------dance-single - ----------------
#NOTES:
     dance-single:
     :
     Challenge:
     10:
     0.698,0.948,0.474,0.138,0.776:
0001
1000
1001
0000
1000
0000
0010
0000
,
0100
0000
0010
1000
1010
0000
0000
0000
0100
0000
0000
0000
0110
0000
0000
0000
,
0001
0000
0100
0001
0101
0010
0100
1000
0001
0010
0100
1000
0100
0001
0100
1000
,
0001
0010
0100
0000
1000
0010
0100
0001
1000
0010
0100
0001
0010
1000
0010
0001
,
1000
0010
0100
0001
0101
0010
0100
1000
0010
0000
0100
0000
0110
0000
0000
0000
,
1001
0000
0100
0000
0010
0000
0001
0000
0100
0000
0000
0000
0010
0000
0000
0000
0110
0000
0000
0000
1100
0000
0000
0000
0011
0000
0000
0000
0001
0000
1000
0001
,
1000
0010
0110
0000
1001
0000
0100
0000
0010
0000
0000
0000
0101
0000
0000
0000
,
0101
1001
0000
1001
0000
1100
0001
0010
,
0100
0000
1001
0010
0100
0000
1100
0000
,
1100
1001
0000
1001
0000
0011
1000
0100
,
0010
0000
0001
1000
0001
0000
0010
0000
0100
0000
0000
0000
1100
0000
0000
0000
,
1100
0000
1001
0000
0000
0000
1001
0000
0000
0000
0101
0000
0010
0000
1000
0001
,
1000
0000
0001
0000
0100
0001
0010
0001
0100
0000
0000
0000
0101
0000
0000
0000
,
0101
1001
0000
1001
0000
0011
0000
1100
,
0000
0000
0001
1000
0001
0000
1000
0000
1100
0000
0000
0000
1100
0000
0000
0000
,
1100
0000
1001
0000
0000
0000
1001
0000
0000
0000
0101
0000
0000
0000
0100
0010
,
0100
0000
0000
0000
1000
0001
0100
0001
1000
0000
0001
0000
0001
0000
1000
0000
,
0010
0110
0000
0110
0000
1001
0010
0100
,
1000
0001
0000
0001
1000
0010
0010
0000
0110
0000
0001
1000
0000
0100
0000
0001
,
0100
0000
1000
0000
0010
0000
0100
0010
1000
0001
1000
0001
1000
0001
1000
0001
1000
0100
1000
0100
1000
0100
1000
0100
0010
0001
0010
0001
0010
0001
0010
0001
,
1000
0010
1000
0010
1000
0000
0000
0000
2002
0000
0000
0000
0000
0000
0000
0000
0000
0000
0000
0000
0000
0000
0000
0000
0000
0000
0000
0000
3003
0000
0000
0000
,
0000
0000
0000
0000
0000
0000
0000
0000
0002
0000
0000
0010
0000
0000
0010
0000
0023
0000
0000
0100
0000
0000
0100
0000
0230
0000
0000
1000
0000
0000
1000
0000
,
2300
0000
0000
0001
0000
0000
0001
0000
3002
0000
0000
0100
0000
0000
0100
0000
0203
0000
0000
0010
0000
0000
0010
0000
0320
0000
0000
1000
0000
0000
1000
0000
,
2030
0000
0000
0001
0000
0000
0001
0000
3001
0000
0000
0100
0000
0000
0010
0000
1000
0001
0000
0001
0000
0000
0010
0000
0001
1000
0000
1000
0000
0000
0100
0000
,
1000
0001
0000
0001
0000
0000
0100
0000
0001
1000
0000
1000
0000
0000
0010
0000
1000
0001
0000
0001
0000
0000
0100
0000
0001
1000
0000
1000
0000
0000
0010
0000
,
1000
0001
0000
0001
0000
0000
1000
0000
1001
0000
0000
0000
0000
0000
0001
0000
1000
0000
0000
0000
0100
0000
0000
0000
0010
0000
0000
0000
0001
0000
1000
0000
,
0001
0000
0010
0000
0100
0000
0000
1000
0001
0000
0100
0000
0010
0000
1000
0001
,
1000
0000
0100
0000
0010
0000
0000
0001
0100
0000
0010
0000
0100
0000
0001
1000
,
0001
0000
0010
0000
0100
0000
0000
1000
0010
0000
0100
0000
0010
0000
1000
0001
,
1000
0000
0010
0100
0010
0000
0000
1000
0001
0000
0010
0000
0100
0000
1000
0010
,
0100
0000
0001
0000
0100
0000
0000
0010
1000
0000
0010
0000
0100
0000
0001
1000
,
0010
0000
0100
0000
0001
0000
0000
0010
0100
0000
1000
0000
0010
0000
0100
0001
,
0010
0000
0100
0000
0010
0000
0000
0001
1000
0000
0100
0000
0010
0000
0001
0100
,
0010
0000
1000
0001
1000
0000
0000
0100
1000
0100
1000
0100
0010
0000
0000
0001
,
0100
0001
0100
0001
1000
0000
0000
0100
0010
0100
0010
0001
0010
0000
0000
0100
,
1000
0100
1000
0100
0010
0000
0001
0100
0001
0100
0001
1000
0100
0000
0010
0001
,
0010
0001
1000
0010
1000
0000
0100
0010
0100
0010
0001
1000
0001
0000
0000
0000
,
0101
0000
0000
0000
1001
0000
0100
1000
0100
0000
1000
0100
1000
0000
0001
0010
,
0001
0000
0010
0001
0010
0000
0001
1000
0001
0000
1000
0001
1000
0000
0010
1000
,
0010
0000
0100
0001
0100
0010
0100
0010
0100
0010
0100
0010
1000
0001
1000
0001
,
1000
0001
1000
0001
0100
0010
0100
0010
0100
0010
0100
0010
1000
0100
0010
0001
,
0010
0100
1000
0000
2002
0000
0000
0000
3003
0000
0000
0000
0000
0000
0000
0000
,
1001
0000
0000
1000
0001
0000
0010
0000
0001
1000
0000
1000
0020
0000
0000
0000
,
0130
0010
0000
0010
1000
0000
0100
0000
0010
0000
0100
0000
1000
0000
0001
0000
,
0001
0000
0000
0100
0001
0000
0010
0000
0100
0000
0010
0000
0011
0000
0000
0000
,
1001
0000
0000
0001
1000
0000
0100
0000
0010
0100
0000
1000
0010
0000
0000
0000
,
1001
0000
0000
1000
0020
0000
0100
0000
0130
0001
0000
0001
1000
0000
0100
0000
,
0010
0001
0000
0001
0100
0000
0010
0000
1000
0001
0000
0001
0010
0000
0001
0000
,
1000
0000
0000
0010
0200
0000
0001
0000
0301
1000
0000
1000
0100
0000
0010
0000
,
0100
0000
0000
1000
0010
0000
0100
0000
0010
1000
0000
0100
0010
0000
0000
0000
,
1001
0000
0000
0001
1000
0000
0100
0000
0010
0001
0000
0001
1000
0000
0010
0000
,
0100
0000
0000
0001
1000
0000
0010
0000
0100
0001
0000
0001
2000
0000
0100
0000
,
3100
0000
0000
1000
0010
0000
0100
0000
0010
0000
1000
0000
0100
0000
0001
0000
,
0100
0000
0000
1000
0001
0000
0010
0000
0100
0010
0000
0001
0100
0000
0000
0000
,
1001
0000
0000
0001
1000
0000
0100
0000
0010
0100
0000
0100
1000
0000
0001
0000
,
1001
0000
0001
0000
1000
0000
0010
0000
0100
0001
0000
0001
0010
0000
0001
0000
,
1001
0000
0100
0000
0010
0000
0100
0000
1000
0001
0000
0001
0100
0000
0100
0000
,
0110
0000
0010
0000
1010
0000
1000
0000
1001
0000
0010
1000
0100
0000
1010
0000
,
2002
0000
0000
0000
,
3003
0000
0000
0000
;

//---------------dance-single - ----------------
#NOTES:
     dance-single:
     :
     Beginner:
     2:
     0.113,0.133,0.076,0.000,0.000:
0000
0000
0000
0000
,
0000
0000
0000
0000
,
0000
1001
0000
0000
,
0100
0000
1000
0000
,
0001
0000
1000
0000
,
0010
0000
1000
0000
,
0000
1001
0000
0010
,
0000
0000
0000
0001
,
0000
1000
0000
0000
,
0000
0000
0000
0100
,
0000
1000
0000
0000
,
0000
0000
0000
0100
,
0000
0010
0000
0000
,
0000
0001
0000
0000
,
0000
1001
0000
0010
,
0000
0001
0000
1000
,
0000
0100
0000
1000
,
0000
0001
0000
0100
,
0000
1001
0000
0000
,
0010
0000
0000
0100
,
0000
1001
0000
0000
,
0000
1000
0000
0000
,
0000
0001
0000
0000
,
0000
1000
0000
0000
,
0000
0010
0000
0000
,
0000
1001
0000
0000
,
0010
0000
0001
0000
,
0010
0000
0001
0000
,
1000
0000
0001
0000
,
1000
0000
0100
0000
,
1000
0000
0100
0000
,
1000
0000
0010
0000
,
0100
0000
0010
0000
,
0100
0000
0001
0000
,
1000
0000
0001
0000
,
1000
0000
0010
0000
,
0100
0000
0010
0000
,
1000
0000
0000
0000
,
0000
0001
0000
0000
,
0000
1000
0000
0000
,
0000
0001
0000
0000
,
0000
1001
0000
0000
,
1000
0000
0001
0000
,
1000
0000
0010
0000
,
0100
0000
0010
0000
,
1000
0000
0010
0000
,
0100
0000
0001
0000
,
0100
0000
0001
0000
,
0010
0000
0100
0000
,
1000
0000
0010
0000
,
1001
0000
0100
0000
,
1000
0000
0010
0000
,
0100
0000
0001
0000
,
0010
0000
0001
0000
,
1001
0000
0010
0000
,
0001
0000
1000
0000
,
0100
0000
1000
0000
,
0001
0000
1000
0000
,
1001
0000
0000
0000
;

//---------------dance-single - ----------------
#NOTES:
     dance-single:
     :
     Medium:
     7:
     0.403,0.451,0.436,0.099,0.138:
0000
0000
0000
0000
,
0000
0000
0000
0000
,
0000
1001
0100
0011
,
0010
1100
0010
0101
,
0010
1010
0100
0101
,
0010
0000
0011
0000
1100
1000
0100
0010
,
0001
1001
1001
0000
0010
0000
0001
0000
,
0100
0001
0000
0010
0000
0001
0000
0010
,
0100
1000
0010
0100
,
0010
1000
0000
0010
0000
0100
0000
0010
,
1000
0100
1000
0000
0010
0000
1001
0000
,
0100
0001
0000
0010
0000
0001
0100
0001
,
0100
0001
1000
0000
0010
0000
0100
0000
,
0010
1000
0000
0100
0000
1000
0001
1000
,
0001
0100
0010
0000
0100
0000
0001
0000
,
0010
0001
0000
1000
0000
0010
1000
0010
,
1000
0001
0010
0000
0001
0000
0110
0000
,
1000
0010
0000
0100
0000
0001
0010
0001
,
0010
0000
1001
0010
0001
0010
0100
1000
,
0110
0110
1001
0010
1000
0100
0010
0001
,
0100
0100
1001
0000
0000
0000
0000
0000
,
0000
0020
0000
0032
,
0023
0230
0000
2300
,
3020
0230
0000
0302
,
0023
0230
0000
2300
,
3001
0000
0000
0000
1001
0000
0000
0010
0000
0000
0001
0000
0100
0000
0000
0010
,
0000
0000
0100
0000
0001
0000
0000
0010
0000
0000
0001
0000
0100
0000
0000
0010
,
0000
0000
1000
0000
0100
0000
0000
0010
0000
0000
0100
0000
1000
0000
0000
0100
,
0000
0000
0010
0000
0100
0000
0000
1000
0000
0000
0010
0000
1000
0000
0000
0100
,
0000
0000
0010
0000
1001
0000
0000
0010
0000
0000
1000
0000
0010
0000
0000
0100
,
0000
0000
0001
0000
0100
0000
0000
0001
0000
0000
1000
0000
0100
0000
0000
1000
,
0000
0000
0001
0000
0010
0000
0000
0100
0000
0000
0010
0000
0001
0000
0000
1000
,
0000
0000
0100
0000
0010
0000
0000
0100
0000
0000
1000
0000
0001
0000
0000
1000
,
0000
0001
1001
0000
0010
0010
0011
0000
,
0100
0100
1100
0000
0010
0010
0101
0000
,
0100
0100
1010
0000
0101
0000
1010
0000
,
0011
1100
0101
1010
,
0110
0000
1001
0010
0001
0010
0001
0010
,
0001
0010
0001
1000
0100
1000
0100
1000
,
0100
1000
0010
1000
0010
1000
0010
1000
,
0010
0100
0001
0100
0001
0100
0001
0100
,
0010
0100
1001
0000
0000
0000
0000
0000
,
1001
0000
0000
0100
0000
0000
1000
0000
0010
0000
0000
0000
0110
0000
0000
0000
,
1001
0000
0000
0010
0000
0000
0001
0000
0100
0000
0000
0000
0001
0000
1000
0000
,
0001
0000
0000
0010
0000
0000
0100
0000
0010
0000
0000
0000
0110
0000
0000
0000
,
1001
0000
0000
1000
0000
0000
0001
0000
0100
0000
0000
0010
0100
0000
0000
0000
,
1001
0000
0000
0010
0000
0000
1000
0000
0100
0000
0000
0000
0110
0000
0000
0000
,
1001
0000
0000
0010
0000
0000
0001
0000
0010
0000
0000
0000
0001
0000
1000
0000
,
0001
0000
0000
0010
0000
0000
0100
0000
0010
0000
0000
0000
1001
0000
0000
0000
,
0110
0000
0000
1000
0000
0000
0010
0000
1000
0000
0000
0010
0100
0000
0000
0000
,
1001
0000
0000
0010
0000
0000
0001
0000
0100
0000
0000
0000
1010
0000
0000
0000
,
1001
0000
0000
0100
0000
0000
1000
0000
0010
0000
0000
0000
1000
0000
0001
0000
,
1000
0000
0000
0100
0000
0000
0010
0000
0100
0000
0000
0000
1001
0000
0000
0000
,
0110
0000
0000
0001
0000
0000
0100
0000
0001
0000
0000
0100
0010
0000
0000
0000
,
1001
0000
0000
0100
0000
0000
0001
0000
0100
0000
0000
0010
0000
0000
1000
0000
,
1001
0000
0000
0010
0000
0000
1000
0000
0010
0000
0000
0100
0000
0000
0001
0000
,
1001
0110
1001
0110
,
1001
0000
0000
0000
1001
0000
0000
0000
0010
0000
0000
1000
0000
0000
0100
0000
,
2002
0000
0000
0000
,
3003
0000
0000
0000
;
