#TITLE:POINT ZERO;
#SUBTITLE:;
#ARTIST:猫叉Master+;
#TITLETRANSLIT:;
#SUBTITLETRANSLIT:;
#ARTISTTRANSLIT:Nekomata Master+;
#CREDIT:DigiMindAxel;
#BANNER:POINT ZERO.png;
#BACKGROUND:POINT ZERO-bg.png;
#LYRICSPATH:;
#CDTITLE:beatmania IIDX.png;
#MUSIC:POINT ZERO.mp3;
#OFFSET:-8.020;
#SAMPLESTART:7.975;
#SAMPLELENGTH:12.000;
#SELECTABLE:YES;
#BPMS:0.000=188.000;
#STOPS:202.000=0.319
;
#BGCHANGES:;

//---------------dance-single - ----------------
#NOTES:
     dance-single:
     :
     Easy:
     3:
     0.261,0.314,0.376,0.026,0.000:
1001
0000
0000
0000
,
0110
0000
0000
0000
,
1001
0000
0000
0000
,
0010
0100
0010
0100
,
0010
0000
0000
0000
,
0110
0000
0000
0000
0000
0000
0000
1001
,
0000
0000
0000
1000
0000
0000
0000
0001
,
0000
0000
0000
1000
0000
0000
0000
0000
,
0001
1000
0001
0000
,
0010
0001
0010
0000
,
0100
1000
0100
0000
,
1000
0001
1000
0000
,
0010
0100
0010
0000
,
0100
0010
0100
0000
,
0001
1000
0001
0000
,
1000
0001
1000
0000
,
1001
0000
0001
0000
,
0110
0000
1000
0000
,
0110
0000
0001
0000
,
1001
0000
1000
0000
,
0110
0000
0001
0000
,
0110
0000
0000
0000
0000
0000
0000
1001
,
0000
0000
0000
0001
0000
0000
0000
1000
,
0000
0000
0000
0001
0000
0000
0000
0000
,
1000
0000
0100
0000
,
1000
0000
0010
0000
,
0100
0000
0001
0000
,
0010
0000
0001
0000
,
1000
0000
0010
0000
,
0100
0000
0001
0000
,
0010
0000
0100
0000
,
1000
0000
0001
0000
,
1000
0000
0100
0000
,
1000
0000
0100
0000
,
0010
0000
0001
0000
,
0010
0000
0001
0000
,
0010
0000
0100
0000
,
0010
0000
0100
0000
,
1000
0000
0001
0000
,
1000
0000
0001
0000
,
0100
0000
0000
0100
0000
0000
0100
0000
,
0000
0100
0000
0000
0100
0000
0000
0100
,
0000
0000
0100
0000
0000
0100
0000
0000
,
0100
0000
0000
0100
0000
0000
0100
0000
,
0000
0100
0000
0000
0100
0000
0000
0100
,
0000
0000
0100
0000
0000
0100
0000
0000
,
0100
0000
0000
0100
0000
0000
0100
0000
,
0000
0100
0000
0000
0200
0000
0000
0000
,
0000
0000
0000
0000
,
0000
0000
0000
0000
,
0000
0000
0300
0110
,
0000
0000
0000
0000
0000
1001
0000
0000
,
0000
0000
0000
0000
,
1001
0000
0000
0000
0000
1001
0000
0000
,
0000
1001
0000
0000
0000
0110
0000
0000
,
0000
0000
0000
0000
0000
0110
0000
0000
,
0000
0000
0000
0000
,
0110
0000
0000
0000
0000
0110
0000
0000
,
0000
1001
0000
0000
0000
0000
1001
0000
,
1000
0000
1000
0000
0000
1001
0000
0000
,
0001
1000
0001
1000
,
1001
0000
0000
0000
0000
0110
0000
0000
,
0000
0110
0000
0000
0000
1001
0000
0000
,
1000
0000
0001
0000
0000
0110
0000
0000
,
0000
0010
0100
0010
,
0110
0000
0000
0000
0000
1001
0000
0000
,
0000
1001
0000
0000
0000
0000
0110
0000
,
0100
0000
0100
0000
0000
1001
0000
0000
,
0001
1000
0001
1000
,
1001
0000
0000
0000
0000
1001
0000
0000
,
0000
0110
0000
0000
0000
0110
0000
0000
,
0010
0000
0100
0000
0000
1001
0000
0000
,
1000
0001
1000
0001
,
1001
0000
0000
0000
0000
1001
0000
0000
,
0000
0110
0000
0000
0000
0100
0000
0000
,
1000
0000
0000
0010
0000
0000
0100
0000
,
0000
2002
0000
0000
0000
0000
0000
0000
,
0000
0000
0000
0000
,
0000
0000
0000
0000
,
0000
0000
0000
3003
;

//---------------dance-single - ----------------
#NOTES:
     dance-single:
     :
     Medium:
     5:
     0.381,0.419,0.569,0.280,0.000:
1001
0000
0000
0000
,
0110
0000
0000
0000
,
1001
0000
0000
0000
,
1000
0001
0000
1000
0000
0001
0000
1001
,
0000
0000
0000
0000
,
0110
0000
0000
0000
0000
0000
0000
1100
,
0000
0000
0000
1100
0000
0000
0000
0011
,
0000
0000
0000
0011
0000
0000
0000
0000
,
1001
0010
0100
1000
,
0001
0000
1000
0100
,
1000
0010
0100
0001
,
0010
0000
0100
0000
,
1000
0100
0010
0001
,
0100
0000
0010
0000
0100
0000
0000
0101
,
0000
0000
0000
0101
0000
0000
0000
1010
,
0000
0000
0000
1010
0000
0000
0000
0000
,
1001
0100
0010
0001
,
1000
0010
0100
0000
,
0001
0010
0100
1000
,
0010
0100
0010
1000
,
0100
0010
0001
1000
,
0010
0000
0100
0000
0010
0000
0000
0110
,
0000
0000
0000
0110
0000
0000
0000
1001
,
0000
0000
0000
1001
0000
0000
0000
0000
,
1000
0000
0000
0100
0000
0000
1000
0000
,
0000
0010
0000
0000
0200
0000
0300
0000
,
0001
0000
0000
0100
0000
0000
0010
0000
,
0000
0100
0000
0000
0002
0000
0003
0000
,
1000
0001
0000
1000
0001
0000
0100
0010
,
0000
0100
0010
0000
1000
0000
0001
0000
,
1000
0000
0000
0100
0000
0000
1000
0000
,
0000
0010
0000
0000
0100
0000
0001
0000
,
2000
0000
0000
3002
0000
0000
0203
0000
,
0000
0310
0000
0000
2000
0000
3000
0000
,
0002
0000
0000
0203
0000
0000
0320
0000
,
0000
0130
0000
0000
0002
0000
0003
0000
,
0100
0010
0000
0100
0010
0000
1000
0001
,
0000
1000
0001
0000
0020
0000
0030
0000
,
0100
0000
0000
1000
0000
0000
0100
0000
,
0000
0010
0000
0000
0001
0000
1000
0000
,
0010
0000
0000
0110
0000
0000
0010
0000
,
0000
0110
0000
0000
0010
0000
0000
0110
,
0000
0000
0010
0000
0000
0110
0000
0000
,
0100
0000
0000
0110
0000
0000
0100
0000
,
0000
0110
0000
0000
0100
0000
0000
0110
,
0000
0000
0100
0000
0000
0110
0000
0000
,
1000
0000
0000
0110
0000
0000
0001
0000
,
0000
0110
0000
0000
2002
0000
0000
0000
,
0000
0000
0000
0000
,
0000
0000
0000
0000
,
0000
0000
3003
0202
,
0000
0000
0000
0303
0000
1200
0000
0000
,
1000
1000
1000
1300
,
2002
0000
0000
3003
0000
1100
0000
0000
,
0000
0011
0000
0000
0000
2001
0000
0000
,
0010
0000
3010
0000
0000
1002
0000
0000
,
0100
0100
0103
0000
,
0110
0000
0000
0000
0000
1100
0000
0000
,
0000
0011
0000
0000
0000
0000
1001
0000
,
1000
0010
0100
0000
0000
0101
0000
0000
,
0001
0000
0010
0100
1000
0000
0000
0000
,
1001
0000
0000
0000
0000
0101
0000
0000
,
0000
1010
0000
0000
0000
1001
0000
0000
,
1000
0010
0100
0000
0000
0220
0000
0000
,
0330
0000
0001
0010
0100
0000
0010
0000
,
0220
0000
0000
0330
0000
2200
0000
3300
,
0000
0022
0000
0033
0000
0000
0110
0000
,
0010
0100
0001
0000
0000
1001
0000
0000
,
1000
0000
0100
0010
0001
0000
1000
0000
,
2002
0000
0000
3003
0000
1001
0000
0000
,
0000
0101
0000
0000
0000
1010
0000
0000
,
0010
0100
0001
0000
0000
1001
0000
0000
,
0001
0000
0010
0100
1000
0000
0000
0000
,
1001
0000
0000
0000
0000
1100
0000
0000
,
0000
0011
0000
0000
0000
0110
0000
0000
,
1010
0000
0000
0101
0000
0000
0110
0000
,
0000
2002
0000
0000
0000
0000
0000
0000
,
0000
0000
0000
0000
,
0000
0000
0000
0000
,
0000
0000
0000
3003
;

//---------------dance-single - ----------------
#NOTES:
     dance-single:
     :
     Hard:
     8:
     0.644,0.837,0.612,0.884,0.074: // measure 1
0101
0000
0200
0000
0000
0010
0310
0000
,  // measure 2
1100
0000
0100
0010
0000
0010
0100
0000
,  // measure 3
1001
0000
2000
0000
0000
0010
3010
0000
,  // measure 4
1000
0001
0000
0100
0000
1000
0000
0100
,  // measure 5
0010
1000
0002
0000
0000
0100
0103
0000
,  // measure 6
0110
0000
0010
0100
0000
0100
0001
1001
,  // measure 7
0000
1000
0000
0110
0000
0001
0000
0110
,  // measure 8
0000
1000
0000
0110
0000
0001
1000
0000
,  // measure 9
1001
0000
0100
1000
0010
0100
0001
0000
,  // measure 10
0010
0100
1000
0010
0001
0010
1000
0000
,  // measure 11
0100
0010
0001
0100
0010
1000
0100
0000
,  // measure 12
0010
0100
1000
0010
0001
0010
1000
0000
,  // measure 13
0100
0010
0001
0010
0100
1000
0010
0000
,  // measure 14
0100
0001
1000
0100
0001
0100
1000
1100
,  // measure 15
0000
0010
0000
1100
0000
0010
0000
0101
,  // measure 16
0000
0010
0000
0101
0000
0010
0100
0000
,  // measure 17
1001
0000
0001
0010
0100
1000
0001
0000
,  // measure 18
0010
0001
1000
0100
0001
0100
1000
0000
,  // measure 19
0010
0100
0001
0010
0100
1000
0001
0000
,  // measure 20
0100
0001
1000
0010
0001
0010
1000
0000
,  // measure 21
0010
1000
0100
0010
0100
1000
0001
0000
,  // measure 22
0100
0001
0010
1000
0010
0001
0100
0101
,  // measure 23
0000
0010
0000
0101
0000
0010
0000
1100
,  // measure 24
0000
0010
0000
1100
0000
0010
0100
0000
,  // measure 25
0001
1000
0000
1000
0100
0000
0100
0010
,  // measure 26
0000
0010
0001
0000
2000
0000
3001
0000
,  // measure 27
1000
0010
0000
0010
0100
0000
0100
0001
,  // measure 28
0000
0001
1000
0100
0010
0001
1000
0000
,  // measure 29
0001
0100
0000
0100
0010
0000
0010
0100
,  // measure 30
0000
0100
1000
0000
0200
0000
0310
0000
,  // measure 31
0001
1000
0000
1000
0010
0000
0010
0100
,  // measure 32
0000
0100
0001
0000
0010
0000
0100
0000
,  // measure 33
1020
0000
0100
0230
0000
0001
0302
0000
,  // measure 34
1000
2003
0000
0000
3020
0000
0130
0000
,  // measure 35
0002
0000
0010
0023
0000
0100
0230
0000
,  // measure 36
1000
1300
0001
0100
0010
1000
0001
0000
,  // measure 37
1000
0200
0000
0310
0200
0000
1300
0200
,  // measure 38
0000
0310
0002
0000
2003
0000
3010
0000
,  // measure 39
0100
0002
0000
0013
0200
0000
0310
0002
,  // measure 40
0000
0013
0200
0000
1300
0000
0001
0000
,  // measure 41
0202
0303
0000
0220
0330
0000
2200
3300
,  // measure 42
0000
0022
0033
0000
0220
0330
0000
2020
,  // measure 43
3030
0000
0220
0330
0000
2002
3003
0000
,  // measure 44
0220
0330
0000
2002
3003
0000
2020
3030
,  // measure 45
0000
0202
0303
0000
2020
3030
0000
0202
,  // measure 46
0303
0000
2200
3300
0000
0022
0033
0000
,  // measure 47
2200
3300
0000
0022
0033
0000
2200
3300
,  // measure 48
0000
0220
0330
0000
2002
0000
0000
0000
,  // measure 49
0000
0000
0000
0000
,  // measure 50
0000
0000
0000
0000
,  // measure 51
0000
0000
3003
0110
,  // measure 52
0000
0000
0000
0100
0000
0000
0100
0000
0000
0000
0101
0000
0000
0000
0000
0000
,  // measure 53
0020
0000
0000
0000
0000
1030
0000
0000
0100
0000
0000
0010
0000
0000
0001
0000
,  // measure 54
1000
0000
0000
0000
0100
0000
0000
0100
0000
0000
2200
0000
0000
0000
3300
0000
,  // measure 55
0000
0022
0000
0033
0000
1001
0000
0000
,  // measure 56
0100
0000
0000
0100
0000
0000
0100
0000
0000
0000
1001
0000
0000
0000
0000
0000
,  // measure 57
0010
0000
0000
0010
0000
0000
0010
0000
0000
0100
0000
0000
0010
0000
0000
1000
,  // measure 58
0000
0000
0100
0000
0000
0010
0000
0000
0001
0000
2200
0000
0000
0000
3300
0000
,  // measure 59
0000
0022
0000
0033
0000
0000
1001
0000
,  // measure 60
0001
0000
0100
0000
0010
0000
0000
0010
0000
0000
1010
0000
0000
0000
1000
0000
,  // measure 61
0100
0010
0001
0010
0100
0000
0000
0000
,  // measure 62
1001
0000
0010
0100
0000
2020
0000
3030
,  // measure 63
0000
0202
0000
0303
0000
1001
0000
0000
,  // measure 64
0001
0000
0100
0000
0010
0000
0000
0010
0000
0000
0220
0000
0000
0000
0330
0000
,  // measure 65
0000
0000
0100
0010
1000
0000
1000
0000
,  // measure 66
2002
0000
0000
3003
0000
0022
0000
0033
,  // measure 67
0000
2200
0000
3300
0000
0000
0102
0000
,  // measure 68
0013
0000
0100
0000
1000
0000
0000
0010
0100
0000
0002
0000
0000
0000
0100
0000
,  // measure 69
0103
0000
0000
0000
0001
0000
0000
0010
0000
0000
0100
0000
0000
0010
0000
0000
,  // measure 70
0202
0000
0000
0303
0000
2200
0000
3300
,  // measure 71
0000
0022
0000
0033
0000
1001
0000
0010
,  // measure 72
0100
0000
1000
0000
0001
0000
0000
0100
0010
0000
2000
0000
0000
0000
3000
0000
,  // measure 73
0010
0000
0100
0000
0001
0000
1000
0000
0000
0100
0000
0000
0010
0000
0000
0001
,  // measure 74
0200
0000
0000
0300
0000
0220
0000
0330
,  // measure 75
0000
2020
0000
3030
0000
1100
0000
0100
,  // measure 76
0110
0000
0010
0011
0000
0010
0110
0000
,  // measure 77
1000
2002
0000
0000
0000
0000
0000
0000
,  // measure 78
0000
0000
0000
0000
,  // measure 79
0000
0000
0000
0000
,  // measure 80
0000
0000
0000
3003
;

//---------------dance-single - ----------------
#NOTES:
     dance-single:
     :
     Challenge:
     9:
     0.702,0.698,0.542,0.332,0.249:
1001
0000
2000
0000
0000
3010
0110
0000
,
1001
0000
0001
0200
0000
0310
0110
0000
,
1001
0000
0002
0000
0000
0103
0110
0000
,
1000
0001
0000
0101
0000
1010
0000
1000
,
0100
0010
0002
0000
0000
1003
1100
0000
,
0110
0000
0010
0100
0000
0100
0001
0101
,
0000
1100
0000
0101
0000
1100
0000
0110
,
0000
1001
0000
0110
0000
0100
0100
0000
,
1001
0010
0100
1000
0100
0010
1000
0010
,
0001
0000
1000
0000
0001
0000
0100
0010
0200
0000
0000
0000
0301
0000
0000
0000
,
1000
0100
0010
0001
0100
0010
1000
0010
,
0001
1000
0010
0110
0000
1001
0000
0001
,
1000
0010
0100
0001
1000
0100
0010
1000
,
0010
0000
0001
0000
1000
0000
0010
0100
0020
0000
0000
0000
1030
0000
1001
0000
,
0000
0110
0000
1001
0000
0110
0000
1100
,
0000
0101
0000
1100
0000
0100
0100
0000
,
1001
0100
0010
0001
0100
1000
0100
0001
,
0010
0000
0100
0000
0010
0000
0001
1000
0002
0000
1000
0000
1003
0000
0000
0000
,
0010
0100
0001
0010
1000
0010
0001
1000
,
0100
0010
0001
0011
0000
1100
0000
1000
,
0001
0100
1000
0100
0001
0010
0100
1000
,
0010
0000
0100
0000
0010
0000
1000
0001
2000
0000
0010
0000
3010
0000
0110
0000
,
0000
1001
0000
0110
0000
1001
0000
0011
,
0000
0000
1010
0000
0000
0000
0100
0000
0010
0000
1000
0001
1000
0000
0000
0000
,
0001
0020
0000
0130
0020
0000
0031
0020
,
0000
0130
0020
0000
0031
1000
0100
0000
,
1000
0020
0000
0130
0020
0000
1030
0200
,
0000
0000
0310
0000
0001
0000
1000
0001
1000
0000
0100
0000
0010
0000
0001
0000
,
1000
0200
0000
0310
0200
0000
1300
0200
,
0000
0310
0200
0000
1300
0001
0100
0000
,
0001
0200
0000
0310
0200
0000
0301
0020
,
0000
0031
1000
0000
1100
0000
0011
0000
,
1001
0100
0010
0002
0000
0013
0100
1000
,
0001
0200
0000
0000
0310
1000
0001
0000
,
1000
0010
0100
0002
0000
0013
0100
1000
,
0001
0000
0100
0000
0001
0000
1000
0001
1000
0000
0100
0000
0010
0000
0001
0000
,
1000
1000
0100
0010
0010
0100
1000
1000
,
0001
0100
0100
0000
0010
1000
0001
0000
,
1000
0010
1000
0000
0000
0000
0001
0100
0001
0000
0000
0000
1000
0001
1000
0000
,
0000
0000
0010
0100
0010
0000
0000
0000
0101
0000
0000
0000
1010
0000
0000
0000
,
0100
0010
0100
0000
0000
0000
1000
0100
1000
0000
0000
0000
0100
0010
0100
0000
,
0000
0000
1000
0001
1000
0000
0000
0000
1001
0000
0000
0000
1000
0000
0010
0000
,
0000
0010
0100
0000
0100
0001
0000
0001
,
1000
0000
1000
0100
0000
0100
0010
0000
,
0010
0001
0000
0001
1000
0000
1000
0100
,
0000
0100
0001
0000
0001
0100
0000
0100
,
1000
0000
1000
0100
0000
0100
0001
0000
,
0001
1000
0000
1000
2002
0000
0000
0000
,
0000
0000
0000
0000
,
0000
0000
0000
0000
,
0000
0000
3003
1001
,
0100
0000
0000
0100
0000
0000
0100
0000
0000
0000
0110
0000
0000
0000
0000
0000
,
0010
0100
0010
0000
0000
0000
1000
0000
0000
0100
0000
0000
0010
0000
0000
0001
,
0000
0000
1000
0000
0000
0010
0000
0000
0100
0000
0110
0000
0000
0000
0000
0000
,
0000
0000
0110
0000
0000
0100
0000
0000
0010
0000
0100
0000
0000
0000
0001
0000
,
1000
0000
0000
0010
0000
0000
0010
0000
0000
0000
0110
0000
0000
0000
1000
0000
,
0001
0000
0000
0100
0000
0000
0100
0000
0000
0001
0000
0000
0010
0000
0000
0100
,
0000
0000
1000
0000
0000
0001
0000
0000
0100
0000
0202
0000
0000
0000
0303
0000
,
0000
2020
0000
3030
0000
0000
1001
0000
,
1000
0000
0001
0000
1000
0100
0000
1000
0100
0000
1001
0000
0000
0000
0001
0000
,
0001
0000
1000
0000
0001
0100
0000
0001
0100
0000
0000
0000
0000
0000
0000
0000
,
1001
0000
0000
0000
1000
0000
0010
0000
0100
0000
0001
0100
0000
0001
0100
0000
,
0010
0000
0000
0000
1000
0100
0000
1000
0100
0000
1001
0000
0000
0000
0000
0000
,
0001
0000
1000
0000
0001
0010
0000
0001
0010
0000
0001
0000
0100
0010
0100
0010
,
0100
0000
0000
0000
0001
0100
0000
0001
0100
0000
0010
0000
0000
0000
0000
0000
,
1000
0001
1000
0000
0001
0000
0100
0000
0001
0000
1000
0100
1000
0000
0001
0000
,
0010
0000
0100
0000
1000
0001
1000
0000
0000
0000
0001
0000
2000
0000
0000
0000
,
3001
0000
1000
0000
0010
0100
0000
0100
0010
0000
2000
0000
0000
0000
3001
0000
,
1000
0000
0000
0000
0010
0100
0000
0100
0010
0000
1000
0000
0001
0000
0000
0000
,
0201
0000
0310
0100
0000
1020
0000
0130
,
0010
0000
2000
0000
0000
0000
3001
0100
0001
0000
1001
0000
0000
0000
0000
0000
,
0001
0000
0100
0000
0010
1000
0000
1000
0010
0000
1000
0000
0010
0100
0010
0100
,
0010
0000
0000
1000
0000
0000
0100
0000
0000
0010
0000
0000
0001
0000
1000
0000
,
0010
0100
0010
0000
1000
0000
0001
0000
1000
0000
0001
0010
0001
0000
0010
0000
,
0100
0000
1000
0001
1000
0000
0001
0000
0100
0000
0110
0000
0000
0000
0010
0000
,
1010
0000
1000
1001
0000
0001
0101
0000
,
0100
0220
0000
0000
0000
0000
0000
0000
,
0000
0000
0000
0000
,
0000
0000
0000
0000
,
0000
0000
0000
0330
;

//---------------dance-single - ----------------
#NOTES:
     dance-single:
     :
     Beginner:
     2:
     0.111,0.166,0.087,0.000,0.000:
1001
0000
0000
0000
,
1000
0000
0000
0000
,
0001
0000
0000
0000
,
1000
0000
0000
0000
,
0010
0000
0000
0000
,
0010
0000
0000
0000
,
0100
0000
0000
0000
,
0000
0000
0000
0000
,
1001
0000
0000
0000
,
0001
0000
0000
0000
,
1000
0000
0000
0000
,
0001
0000
0000
0000
,
0100
0000
0000
0000
,
0010
0000
0000
0000
,
0100
0000
0000
0000
,
0000
0000
0000
0000
,
1001
0000
0000
0000
,
0001
0000
0000
0000
,
1000
0000
0000
0000
,
0001
0000
0000
0000
,
1000
0000
0000
0000
,
0100
0000
0000
0000
,
0010
0000
0000
0000
,
0000
0000
0000
0000
,
1001
0000
0000
0000
,
0000
0000
1000
0000
,
0001
0000
0000
0000
,
0000
0000
1000
0000
,
0001
0000
0000
0000
,
0000
0000
1000
0000
,
0001
0000
0000
0000
,
0000
0000
0000
0000
,
0010
0000
0000
0000
,
0000
0000
0100
0000
,
0010
0000
0000
0000
,
0000
0000
0100
0000
,
0010
0000
0000
0000
,
0000
0000
0000
0000
,
0100
0000
0000
0000
,
0000
0000
0000
0000
,
1001
0000
0000
0000
,
0000
0000
1000
0000
,
0000
0001
0000
0000
,
1000
0000
0000
0001
,
0000
0000
1000
0000
,
0000
0001
0000
0000
,
1000
0000
0000
0001
,
0000
0000
1001
0000
,
0000
0000
0000
0000
,
0000
0000
0000
0000
,
0000
0000
0000
1001
,
0000
0000
0000
0000
0000
1000
0000
0000
,
0000
0000
0000
0000
,
0001
0000
0000
0000
0000
1000
0000
0000
,
0000
0001
0000
0000
0000
0100
0000
0000
,
0000
0000
0000
0000
0000
0100
0000
0000
,
0000
0000
0000
0000
,
0100
0000
0000
0000
0000
0010
0000
0000
,
0000
0100
0000
0000
0000
0000
1001
0000
,
0000
0000
0000
0000
0000
1000
0000
0000
,
0000
0000
0000
0000
,
0001
0000
0000
0000
0000
1000
0000
0000
,
0000
0001
0000
0000
0000
0010
0000
0000
,
0000
0000
0000
0000
0000
0100
0000
0000
,
0000
0000
0000
0000
,
0010
0000
0000
0000
0000
0100
0000
0000
,
0000
0010
0000
0000
0000
0000
0100
0000
,
0000
0000
0000
0000
0000
1000
0000
0000
,
0000
0000
0000
0000
,
0001
0000
0000
0000
0000
1000
0000
0000
,
0000
0001
0000
0000
0000
1001
0000
0000
,
0000
0000
0000
0000
0000
0001
0000
0000
,
0000
0000
0000
0000
,
0100
0000
0000
0000
0000
0010
0000
0000
,
0000
0100
0000
0000
0000
0001
0000
0000
,
0001
0000
0000
1000
0000
0000
1000
0000
,
0000
1001
0000
0000
0000
0000
0000
0000
;
