#TITLE:おジャ魔女カーニバル!!;
#SUBTITLE:;
#ARTIST:MAHO堂;
#TITLETRANSLIT:OJAMAJO CARNIVAL!!;
#SUBTITLETRANSLIT:;
#ARTISTTRANSLIT:MAHO-DOU;
#CREDIT:DigiMindAxel;
#BANNER:OJAMAJO CARNIVAL!!.png;
#BACKGROUND:OJAMAJO CARNIVAL!!-bg.png;
#LYRICSPATH:OJAMAJO CARNIVAL!!.lrc;
#CDTITLE:DigiMindAxel original simfile.png;
#MUSIC:OJAMAJO CARNIVAL!!.mp3;
#OFFSET:-8.370;
#SAMPLESTART:60.520;
#SAMPLELENGTH:12.000;
#SELECTABLE:YES;
#BPMS:0.000=147.100;
#STOPS:;
#BGCHANGES:-24.000=OJAMAJO CARNIVAL!!.avi=1.000=1=1=0,
99999=-nosongbg-=1.000=0=0=0 // don't automatically add -songbackground-
;

//---------------dance-single - ----------------
#NOTES:
     dance-single:
     :
     Hard:
     7:
     0.494,0.460,0.188,0.155,0.028:
0001
0010
0100
1000
0001
0001
1000
1000
,
0010
0100
0001
0010
0100
1000
0001
0000
,
1000
0010
0100
0001
1000
1000
0001
0001
,
0100
0220
0000
0330
,
0001
0010
1000
0010
0001
0001
0000
0000
,
1000
0100
1000
0001
1000
0100
1000
0001
,
2000
0000
0000
0000
0000
0001
3001
0000
,
0200
0000
0010
0310
0000
0110
0000
0000
,
1000
0100
0001
0100
1000
1000
0000
0000
,
0001
0010
0001
1000
0001
0010
0001
1000
,
0002
0000
0000
0000
0000
0000
1000
1003
,
0020
0000
0100
0130
0000
0010
0100
0100
,
0001
0000
0000
0000
1000
0000
0000
0010
0100
0000
0001
0000
0010
0000
0000
0000
,
0100
0010
0100
0000
1000
0001
0010
0100
,
1000
0000
0000
0000
0001
0000
0000
0100
0010
0000
1000
0000
0100
0000
0000
0000
,
0010
0001
0100
0000
0010
0100
0010
0000
,
1000
0010
0001
0010
1000
0000
0001
1000
,
0000
1000
0001
0010
1000
0010
0001
1000
,
0001
0000
0010
0000
0100
0100
0100
0010
,
0000
0001
0100
0010
1000
0100
0010
0001
,
2000
0010
0000
3010
,
0100
0001
1000
0010
,
0200
0001
0000
0301
,
1000
0000
1000
0000
0001
0010
0100
1000
,
0002
0100
0000
0103
,
0010
1000
0001
0010
,
0200
0010
0000
0310
,
1000
0100
0010
0001
,
1000
0010
1000
0010
0100
0001
0000
0000
,
0010
0100
1000
0010
0100
0001
0100
0001
,
2000
0100
0100
3100
,
1000
0000
0000
0100
0000
0000
0010
0000
0000
1001
0000
0000
0000
0000
0000
0000
,
1001
0000
0001
0100
1000
0000
0100
0001
,
1000
1000
0100
0010
0001
0000
0100
0001
,
2000
0000
3100
0010
0100
1000
0010
0100
,
0110
1001
0110
0000
,
1000
1000
0001
0001
1000
0100
0010
0000
,
0001
0010
1000
0010
0001
0000
1000
0010
,
0200
0000
0301
0010
0100
0010
0001
1000
,
1010
0101
1001
0000
,
0001
0001
1000
1000
0001
0010
0100
0001
,
0100
1000
0001
0100
0010
0000
1000
0100
,
0020
0000
0031
1000
0010
0001
0010
1000
,
1001
0110
1001
0000
,
1000
0010
0100
1000
0100
0001
1000
0010
,
0100
0000
0000
0001
1000
0000
0000
0000
1001
0000
0000
0000
1000
0000
1000
0000
,
0001
0001
0010
0100
1000
0010
0100
0001
,
1000
0100
0001
0100
1100
0000
1000
0100
,
0001
0100
1100
0000
1000
0100
0001
0100
,
1010
0000
0000
0000
;

//---------------dance-single - ----------------
#NOTES:
     dance-single:
     :
     Easy:
     4:
     0.281,0.298,0.221,0.066,0.000:
0001
0100
0001
0100
,
0001
0010
0100
1000
,
0010
1000
0010
1000
,
0010
0110
0000
0000
,
1000
1000
1001
0000
,
0010
0100
0001
0010
,
0200
0000
0000
1300
,
0020
0000
0030
0000
,
1000
0100
1000
0000
,
0010
0010
0100
0001
,
2000
0000
0000
3001
,
0100
0010
0000
0100
,
0001
1000
0100
0010
,
0001
0000
0000
0010
,
0100
0010
0001
0010
,
0100
0000
0000
1000
,
0001
0010
0100
1000
,
0010
0100
0010
1000
,
0001
0100
0220
0000
,
0000
0330
1000
0010
,
0100
0110
0000
0100
,
0000
0010
1000
0001
,
0100
0110
0000
0010
,
0000
0100
0001
0010
,
0100
1000
0000
0001
,
0000
1000
0010
0100
,
0001
1000
0000
0001
,
0000
0010
0000
0100
,
0010
0001
0010
0001
,
1000
0100
0010
0001
,
2000
0000
0000
0000
,
3001
0000
0000
0000
,
1001
1000
1001
0000
,
0010
0001
1000
0000
,
0010
0100
0010
0000
,
1001
1001
1001
0000
,
1001
0001
1001
0000
,
0010
1000
0001
0000
,
0100
0010
0100
0001
,
1000
1000
1001
0000
,
0010
0100
0001
0010
,
0001
0100
0010
0000
,
1000
0001
1000
0000
,
1001
1001
1001
0000
,
0100
0010
1000
0010
,
0100
0001
1000
0000
,
0001
1000
0001
1000
,
0110
0010
0010
0110
,
0100
0100
1001
0001
,
1001
0000
0000
0000
;

//---------------dance-single - ----------------
#NOTES:
     dance-single:
     :
     Challenge:
     9:
     0.644,0.676,0.287,0.055,0.287: // measure 1
1000
0001
1000
0001
1000
0001
0000
0100
0000
0000
0001
0000
1000
0000
1000
0000
,  // measure 2
0001
0000
0001
0000
0010
0100
0000
0020
0000
0000
0130
0000
1000
0000
0100
0000
,  // measure 3
0010
0001
0010
0001
0010
0001
0000
1000
0000
0000
0001
0000
1000
0000
1000
0000
,  // measure 4
0010
0100
0010
0100
0020
0000
0000
0000
0000
0000
0000
0000
0030
0000
0000
0000
,  // measure 5
1000
0000
0001
0100
0001
0000
1000
0100
1000
0000
1001
0000
0000
0000
0000
0000
,  // measure 6
0001
0010
1000
0010
0001
0100
0010
1000
,  // measure 7
0002
0000
0010
0000
0100
0000
0013
0001
,  // measure 8
1000
1000
0100
0010
0001
1001
0000
0000
,  // measure 9
0001
0000
1000
0010
1000
0000
0001
0010
0001
0000
1001
0000
0000
0000
0000
0000
,  // measure 10
1000
0010
0001
0010
1000
0100
0010
0001
,  // measure 11
2000
0000
0100
0000
0010
0000
3100
1000
,  // measure 12
0001
0000
0010
0000
0100
0000
0010
0000
0000
0000
0001
0000
0001
0000
1000
0001
,  // measure 13
1000
0000
0000
1000
0010
0000
0000
0010
0100
0000
0001
0000
0010
0000
0100
0000
,  // measure 14
0010
0001
1000
0000
0001
1000
1000
1000
,  // measure 15
0002
0000
0103
0010
0010
1000
0010
0100
,  // measure 16
0010
1000
0001
0000
1000
0001
0100
1000
,  // measure 17
0100
0001
1000
0010
0001
0010
1000
0001
,  // measure 18
0000
0001
1000
0010
0001
0010
1000
0100
,  // measure 19
0010
0000
0001
0100
0010
0100
0010
0000
1000
0001
1000
0000
0010
0000
0010
0000
,  // measure 20
0000
0000
0010
0000
0100
0000
0001
0000
1000
0010
1000
0010
0100
0000
0001
1000
,  // measure 21
0001
0000
0011
0000
0010
0100
0110
0000
,  // measure 22
0100
0000
1100
0000
0010
0100
1000
0010
,  // measure 23
0100
0000
1100
0000
0100
0010
0110
0000
,  // measure 24
0010
0000
0001
0000
0100
0000
0010
1000
0010
0000
0100
0000
0100
0000
0010
0000
,  // measure 25
0110
0000
0011
0000
0100
0010
0110
0000
,  // measure 26
1000
0000
1100
0000
0010
0100
0001
0010
,  // measure 27
0100
0110
1000
1010
,  // measure 28
0010
0000
0100
0000
0010
1000
0000
0000
0001
0000
1000
0001
1000
0001
1000
0000
,  // measure 29
0001
0100
0001
0000
1000
0000
1000
0000
1000
0000
0001
0000
0010
0000
0000
0000
,  // measure 30
0100
0010
0100
0000
1000
0000
1000
0000
0001
0000
0001
0000
0010
0000
0100
0000
,  // measure 31
1000
1001
0110
1001
,  // measure 32
1000
0010
0000
1000
0010
0000
0100
0001
0000
0100
0001
0100
0010
0100
0010
0100
,  // measure 33
0001
1000
0001
0010
0001
1000
0100
0010
,  // measure 34
0001
0100
1000
0100
0001
0000
0100
0010
,  // measure 35
1000
0100
1000
0001
1000
0100
1000
0001
,  // measure 36
1001
0000
0000
0000
0110
0000
0000
0000
1001
0000
0000
0000
0001
1000
0001
1000
,  // measure 37
0001
1000
0100
1000
0001
1000
0010
0100
,  // measure 38
0001
0010
1000
0010
0001
0000
0010
0100
,  // measure 39
1000
0000
0001
0000
0100
0000
0001
0000
1000
0001
1000
0001
1000
0000
0010
0100
,  // measure 40
0010
0100
0010
0000
1000
0100
1000
0000
0001
0010
0001
0000
0100
0010
0100
0010
,  // measure 41
0100
0001
0010
1000
0010
0001
1000
0010
,  // measure 42
0100
1000
0100
0001
1000
0000
0010
0100
,  // measure 43
0001
0010
0100
1000
0010
0001
0010
1000
,  // measure 44
1001
0000
0000
0000
0110
0000
0000
0000
1001
0000
0000
0000
1000
0001
1000
0000
,  // measure 45
0010
1000
0100
0001
0100
1000
0001
0100
,  // measure 46
0010
0001
0010
1000
0001
0000
1000
1000
,  // measure 47
0001
0000
0001
0000
1000
0000
0100
0000
0010
0001
0010
0001
0100
0000
0010
0100
,  // measure 48
0001
0001
0100
0100
0110
0000
1000
1000
,  // measure 49
0100
0100
0110
0000
0001
0001
1000
1000
,  // measure 50
0110
0000
0000
0000
;

//---------------dance-single - ----------------
#NOTES:
     dance-single:
     :
     Medium:
     6:
     0.394,0.379,0.166,0.121,0.011:
0010
0000
0100
0000
0001
0000
1000
0001
,
1000
0001
0010
0100
1000
0000
0000
0000
,
0001
0100
1000
0100
,
0010
2002
0000
3003
,
1000
0000
1000
0000
0010
0010
0000
0000
,
0100
0010
0100
0000
0001
1000
0100
0000
,
0020
0000
0000
0000
0000
0000
0031
0001
,
1000
0000
0100
1000
0000
0110
0000
0000
,
0001
0000
0001
0000
0100
0100
0000
0000
,
0010
0100
0010
0000
1000
0001
0100
0000
,
0020
0000
0000
0000
0000
0000
1030
1000
,
0001
0000
0100
0010
0000
0100
0100
0010
,
0100
0001
0101
0110
,
1010
0000
0000
0000
0000
0010
0100
0010
,
1000
1100
0110
0011
,
1001
0000
0000
0000
0000
0010
0100
0001
,
0010
0100
1000
0000
0100
0000
0010
0200
,
0000
0310
0001
0000
0100
0000
0010
0000
,
0100
0000
0001
1000
0001
0000
0100
0010
,
0000
0010
0100
0000
0001
0000
0010
0000
,
0200
1000
0000
1000
,
0000
1300
0010
0100
,
0002
1000
0000
1000
,
0000
1003
0010
0100
,
0002
0010
0000
0010
,
0000
0013
0001
1000
,
0020
0100
0000
0100
,
0000
0130
0001
1000
,
0100
0010
0001
0010
0100
0000
1000
0000
,
0010
0100
0010
1000
0100
0000
0010
0000
,
0002
1000
0100
1003
,
0010
0000
0000
0010
0000
0000
0010
0000
0000
0100
0000
0000
0000
0000
0000
0000
,
0010
0100
0010
0000
1000
0100
1000
0000
,
0001
0010
0100
1000
0001
0000
0100
0000
,
0010
0000
0100
0001
1000
0000
0100
0000
,
1001
1001
1001
0000
,
0010
0100
0010
0000
1000
0100
1000
0000
,
0100
0010
0001
0010
0100
0000
1000
0001
,
2000
0000
0000
0000
3100
0000
1000
0100
,
0010
0100
1000
0001
0100
0000
0000
0000
,
0010
0100
0001
0000
1000
0001
1000
0000
,
0010
0100
0001
0100
0010
0000
1000
0000
,
0100
0010
1000
0010
,
1001
1001
1001
0000
,
0001
1000
0001
0000
0100
0010
0100
0000
,
0001
0010
0100
1000
0010
0000
1000
0000
,
0010
0100
1000
0100
,
0001
0001
1000
1000
0001
0000
0010
0010
,
0100
0100
0010
0000
0001
0001
1000
1000
,
0001
0000
0000
0000
;

//---------------dance-single - ----------------
#NOTES:
     dance-single:
     :
     Beginner:
     2:
     0.117,0.135,0.088,0.000,0.000:
1000
0000
0000
0000
,
0001
0000
0000
0000
,
1000
0000
0000
0000
,
0000
1001
0000
0000
,
0010
0000
0100
0000
,
0010
0000
0010
0000
,
0010
0000
0000
0000
,
0100
0000
0000
0000
,
0001
0000
1000
0000
,
0001
0000
0001
0000
,
0001
0000
0000
0000
,
1000
0000
0000
0000
,
1001
0000
0001
0000
,
1000
0000
0000
0000
,
0001
0000
1000
0000
,
0001
0000
0000
0000
,
0010
0000
0100
0000
,
0010
0000
0100
0000
,
1000
0000
0001
0000
,
0000
0000
0000
0000
,
1001
0000
0000
0000
,
0000
0000
0000
0000
,
0001
0000
0000
0000
,
0000
0000
0000
0000
,
1000
0000
0000
0000
,
0000
0000
0000
0000
,
0001
0000
0000
0000
,
0000
0000
0000
0000
,
0100
0000
0010
0000
,
0100
0000
0010
0000
,
0100
0000
0000
0000
,
0001
0000
0000
0000
,
1001
0000
1000
0000
,
0001
0000
0000
0000
,
0100
0000
0010
0000
,
0110
0000
0000
0000
,
0001
0000
1000
0000
,
0001
0000
0000
0000
,
0100
0000
0010
0000
,
0110
0000
0000
0000
,
1000
0000
0001
0000
,
1000
0000
0000
0000
,
0100
0000
1000
0000
,
1001
0000
0000
0000
,
0001
0000
1000
0000
,
0001
0000
0000
0000
,
0010
0000
0001
0000
,
1000
0000
1000
0000
,
0001
0000
0001
0000
,
0110
0000
0000
0000
;
