#TITLE:NIGHT OF FIRE;
#SUBTITLE:(FOR CHRISTMAS MIX);
#ARTIST:NIKO;
#TITLETRANSLIT:;
#SUBTITLETRANSLIT:;
#ARTISTTRANSLIT:;
#CREDIT:DigiMindAxel;
#BANNER:NIGHT OF FIRE (FOR CHRISTMAS MIX).png;
#BACKGROUND:NIGHT OF FIRE (FOR CHRISTMAS MIX)-bg.png;
#LYRICSPATH:NIGHT OF FIRE (FOR CHRISTMAS MIX).lrc;
#CDTITLE:SUPER EUROBEAT.png;
#MUSIC:NIGHT OF FIRE (FOR CHRISTMAS MIX).mp3;
#OFFSET:-7.300;
#SAMPLESTART:38.194;
#SAMPLELENGTH:12.000;
#SELECTABLE:YES;
#BPMS:0.000=155.050;
#STOPS:;
#BGCHANGES:;

//---------------dance-single - ----------------
#NOTES:
     dance-single:
     :
     Easy:
     4:
     0.310,0.279,0.226,0.138,0.000:
0001
1000
0001
1000
,
0010
1000
0010
1000
,
0001
0100
0001
0100
,
0002
0000
0000
0003
,
1001
0010
1000
0010
,
1001
0000
0110
0000
,
1000
0001
1000
0001
,
0100
0010
1000
0010
,
1001
0100
1000
0100
,
1001
0000
0110
0000
,
0001
0010
0001
0010
,
0002
0000
0000
0000
,
1003
0100
1000
0000
,
0001
0010
0001
0000
,
1001
0000
0110
0000
,
1001
0000
0000
0000
,
0001
0010
0001
0000
,
1000
0100
1000
0000
,
1001
0000
0100
0000
,
0220
0000
0000
0330
,
1001
0001
2000
0000
,
3001
1000
0100
1000
,
0001
0010
0100
1000
,
0001
0010
0001
1000
,
1001
1000
0002
0000
,
1003
0100
1000
0001
,
0010
0100
1000
0001
,
0100
0010
0100
0100
,
1001
0001
2000
0000
,
3001
0100
0001
1000
,
0010
0100
0001
1000
,
0001
1000
0001
1000
,
1001
1000
0002
0000
,
1003
0100
1000
0001
,
0010
0100
1000
0020
,
0000
0000
0030
0000
,
1001
1000
0001
1000
,
0010
0100
0001
1000
,
0100
1000
0001
0010
,
0001
1000
0100
0010
,
0001
1000
0001
0100
,
0010
1000
0001
1000
,
0100
0010
0001
1000
,
2002
0000
0000
3003
,
0100
0100
0110
0000
;

//---------------dance-single - ----------------
#NOTES:
     dance-single:
     :
     Hard:
     8:
     0.551,0.503,0.251,0.113,0.113:
1000
0010
0100
0001
0010
1000
0010
0000
,
0001
0000
0000
0001
0000
0000
0010
0000
0000
0010
0000
0000
0100
0000
1000
0000
,
0001
0010
0100
1000
0010
0001
0010
0000
,
1001
0000
0000
1000
0000
0000
0001
0000
0000
1000
0000
0000
0001
0000
0001
0000
,
1000
0100
0010
0001
1000
1000
1000
0000
,
0010
0100
0001
0000
0001
0100
0010
0000
,
1000
0100
0010
0001
0100
1000
0100
0000
,
0001
0000
0000
0001
0000
0000
0100
0000
0000
0100
0000
0000
0010
0000
1000
0000
,
0001
0010
0100
1000
0001
0001
0001
0000
,
1000
0010
0100
0000
0100
0010
1000
0000
,
0100
0010
0001
0010
0100
1000
0001
0000
,
0100
0000
0000
0110
0000
0000
0110
0000
0000
0110
0000
0000
0010
0000
0100
0000
,
0020
0000
1030
0001
0000
0010
0000
0100
,
0000
1000
0001
0100
0010
0100
0001
0000
,
1000
1000
0001
0100
0001
0001
1000
0100
,
1000
1000
0100
0010
0000
0001
0010
1000
,
0010
0000
0001
1000
0000
0100
0000
0010
,
0000
0001
1000
0010
0100
0010
1000
0000
,
1100
0000
0000
0000
0011
0000
0000
1001
,
0000
1000
0100
0001
0100
1000
0000
0000
,
0101
0000
0101
0000
0020
2000
0030
0000
,
3000
0001
0010
1000
0010
0001
1000
0000
,
0010
1000
0100
0001
0100
1000
0001
0100
,
0000
0100
0001
1000
0100
0010
0001
0000
,
1100
0000
1100
0000
0020
0002
0030
0000
,
0003
1000
0100
0001
0100
1000
0001
0000
,
0100
0001
0010
1000
0010
0001
1000
0100
,
1000
1000
0001
0001
1000
0010
0100
0000
,
0110
0000
0110
0000
2000
0002
3000
0000
,
0003
1000
0010
0001
0010
0100
0001
0000
,
1000
0001
0100
1000
0100
0010
1000
0001
,
0000
0001
1000
0001
0010
0100
0010
0000
,
1001
0000
1001
0000
0020
0200
0030
0000
,
0300
0001
0010
1000
0010
0100
1000
0000
,
0001
0100
1000
0100
0010
1000
0001
0001
,
0000
0000
1000
0000
0010
0000
0100
0000
0110
0000
0000
0000
0001
1000
0001
1000
,
0001
0010
0100
1000
0010
0001
0010
1000
,
0001
0000
0000
0100
0000
0000
0010
0000
0000
1000
0000
0000
0001
0000
0000
0000
,
1000
0100
0010
0001
0100
1000
0100
0001
,
1000
0000
0000
0100
0000
0000
0010
0000
0000
0001
0000
0000
1000
0000
0000
0000
,
0100
0010
0100
1000
0010
0001
0010
1000
,
0001
0000
0000
1000
0000
0000
0010
0000
0000
0100
0000
0000
0001
0000
0000
0000
,
0010
0100
0010
0001
0100
1000
0100
0001
,
1000
0000
0000
1001
0000
0000
1001
0000
0000
1001
0000
0000
1000
0000
0010
0000
,
0100
0000
0100
0000
0100
0110
0000
0000
;

//---------------dance-single - ----------------
#NOTES:
     dance-single:
     :
     Challenge:
     9:
     0.668,0.671,0.526,0.063,0.545: // measure 1
0001
0000
0100
0000
0001
0000
1000
0000
0001
0100
0001
1000
0000
1000
0100
0000
,  // measure 2
1000
0000
0000
0010
0000
0000
0100
0000
0000
0001
0000
0000
0100
0000
0001
0000
,  // measure 3
1000
0000
0100
0000
1000
0000
0001
0000
1000
0100
1000
0001
0000
0001
1000
0000
,  // measure 4
1001
0000
0000
0110
0000
0000
0110
0000
0000
1001
0000
0000
1001
0000
1000
0000
,  // measure 5
0001
0010
1000
0010
0001
0100
0010
0000
,  // measure 6
1000
0100
0001
0100
1000
0010
0100
0000
,  // measure 7
0001
0000
1000
0000
0010
0100
0000
0000
0001
1000
0001
1000
0000
0010
1000
0000
,  // measure 8
0001
0000
0000
0100
0000
0000
0010
0000
0000
1000
0000
0000
0001
0000
1000
0000
,  // measure 9
0001
0100
1000
0100
0010
1000
0001
0000
,  // measure 10
1000
0010
0001
0010
0100
0001
1000
0100
,  // measure 11
1000
0000
0001
0000
0010
0100
0000
0000
1000
0001
1000
0001
0000
1000
0010
0000
,  // measure 12
0110
0000
0000
0110
0000
0000
1100
0000
0000
0011
0000
0000
1001
0000
0001
0000
,  // measure 13
1000
0100
0010
0100
1000
0001
0100
0001
,  // measure 14
1000
0100
0010
0001
1000
0000
0001
0000
,  // measure 15
1010
0100
0010
0000
0101
0010
0100
0000
,  // measure 16
1010
0100
0010
0001
0000
0001
1000
0010
,  // measure 17
0100
0000
0001
0010
0100
0010
0001
1000
,  // measure 18
0001
0010
0100
1000
0010
0100
0010
0000
,  // measure 19
0110
0000
0000
0000
1001
0000
0000
1001
,  // measure 20
0000
0001
0100
1000
0100
0001
0000
0000
,  // measure 21
1001
1001
0110
0020
,  // measure 22
1030
0000
0000
1000
0001
0000
0000
0001
0100
0000
0000
0100
0010
0000
0000
0010
,  // measure 23
1000
0000
0000
1000
0100
0000
0000
0100
0010
0000
0000
0010
0001
0000
0000
0001
,  // measure 24
1000
0000
0000
1000
0001
0000
0000
0001
0100
0000
0000
0100
0010
0000
0000
0000
,  // measure 25
1001
1001
0110
0200
,  // measure 26
0301
0000
0000
0001
1000
0000
0000
1000
0100
0000
0000
0100
0010
0000
0000
0010
,  // measure 27
0001
0000
0000
0001
1000
0000
0000
1000
0010
0000
0000
0010
0100
0000
0000
0100
,  // measure 28
0001
0000
0010
0000
0100
0000
1000
0000
0001
0000
1000
0000
0100
0010
0100
0010
,  // measure 29
0100
1001
1001
0020
,  // measure 30
0130
0000
0000
0100
0001
0000
0000
0001
1000
0000
0000
1000
0100
0000
0000
0100
,  // measure 31
0010
0000
0000
0010
0001
0000
0000
0001
1000
0000
0000
1000
0001
0000
0000
0001
,  // measure 32
0100
0000
0000
0100
0010
0000
0000
0010
1000
0000
0000
1000
0001
0000
0000
0000
,  // measure 33
1001
1001
0110
0200
,  // measure 34
0310
0000
0000
0010
1000
0000
0000
1000
0001
0000
0000
0001
1000
0000
0000
1000
,  // measure 35
0100
0000
0000
0100
0010
0000
0000
0010
0001
0000
0000
0001
1000
0000
0020
0000
,  // measure 36
0000
0000
1030
0000
0100
0000
0010
0000
0001
0000
0000
0000
1000
0001
1000
0001
,  // measure 37
1000
0000
0010
0000
1000
0001
1000
0000
0001
0010
0001
1000
0000
1000
0100
0000
,  // measure 38
1000
0000
0000
0110
0000
0000
0001
0000
0000
1001
0000
0000
1000
0000
0001
0000
,  // measure 39
0010
0000
0001
0000
1000
0001
1000
0000
0010
0100
0010
1000
0000
1000
0001
0000
,  // measure 40
0100
0000
0000
0110
0000
0000
0001
0000
0000
1001
0000
0000
0010
0000
0100
0000
,  // measure 41
1000
0000
0001
0000
0100
0001
0100
0000
0001
1000
0100
1000
0000
1000
0001
0000
,  // measure 42
1000
0000
0000
0110
0000
0000
0001
0000
0000
1001
0000
0000
1000
0000
0010
0000
,  // measure 43
1000
0000
0100
0000
0010
0001
0010
0000
0001
1000
0010
1000
0000
1000
0001
0000
,  // measure 44
1001
0000
0000
1001
0000
0000
1100
0000
0000
0011
0000
0000
1001
0000
0100
0000
,  // measure 45
0110
0000
0110
0000
0110
0101
0000
0000
;

//---------------dance-single - ----------------
#NOTES:
     dance-single:
     :
     Medium:
     6:
     0.439,0.447,0.138,0.200,0.000:
1001
0010
0100
1000
,
0001
0001
0001
0001
,
1000
0100
0010
0001
,
1001
0000
0000
0110
0000
0000
0010
0100
,
0020
0130
0001
1000
,
0020
0130
0002
1003
,
0001
1000
0001
0000
1000
0001
1000
0000
,
0001
0010
0100
1000
0100
0010
0001
0000
,
0200
0310
1000
0001
,
0200
0310
2000
3001
,
1000
0010
1000
0000
0001
0100
0001
0000
,
2002
0000
0000
3003
,
1001
0000
0010
0100
0000
0001
0000
1000
,
0000
0001
1000
0001
0100
0000
0100
0000
,
0020
2000
3030
0000
0002
0200
0303
0000
,
0001
0010
0100
1000
0000
0010
0100
0010
,
1000
0000
0010
0100
0000
0001
0000
1000
,
0000
0001
0100
0010
0100
0000
0100
0000
,
0110
0000
0000
0000
0110
0000
0000
1001
,
0000
0001
1000
0001
1000
0001
0000
0000
,
1000
0000
0100
0000
0001
0200
0000
0000
,
1300
0100
1000
0000
0100
0010
0100
0000
,
1000
0000
0001
0010
0001
0000
0010
0100
,
0010
0000
0001
0000
1000
0001
1000
0000
,
0001
0000
0100
0000
1000
0200
0000
0000
,
0301
0100
0010
1000
,
0010
0100
0010
0000
1000
0100
1000
0000
,
0001
0000
1000
0100
0010
0100
1000
0000
,
0001
0000
0100
0000
1000
0200
0000
0000
,
0301
1000
0001
0000
0100
0010
0100
0000
,
0001
0010
0001
0000
0010
0100
0010
0000
,
0001
0000
0100
0010
0100
0000
0110
0000
,
1000
0000
0100
0000
0001
0200
0000
0000
,
1300
0100
1000
0000
0001
0010
0001
0000
,
1000
0010
1000
0010
0100
0000
0010
0100
,
0000
0001
0010
0100
1000
0000
0000
0000
,
0010
0100
0001
0000
0100
0010
0100
0000
,
0001
0100
1000
0100
,
0001
0100
0010
0000
0100
0010
0100
0000
,
0001
0010
1000
0010
,
0001
1000
0100
0000
0010
0100
0010
0000
,
0001
0100
1000
0100
,
0001
1000
0010
0000
0100
0010
0100
0000
,
1001
0000
0000
0110
0000
0000
0010
0100
,
0010
0000
0010
0000
0010
0100
0000
0000
;

//---------------dance-single - ----------------
#NOTES:
     dance-single:
     :
     Beginner:
     2:
     0.159,0.167,0.125,0.000,0.000:
1000
0000
0001
0000
,
1000
0000
0000
0000
,
0010
0000
0100
0000
,
0010
0000
0000
0000
,
1001
0000
0000
0000
,
0110
0000
1000
0000
,
0001
0000
1000
0000
,
0001
0000
0000
0000
,
1001
0000
0000
0000
,
0110
0000
0010
0000
,
0100
0000
0001
0000
,
1000
0000
0000
0000
,
1001
0000
0001
0000
,
1000
0000
0001
0000
,
0100
0000
0100
0000
,
0100
0000
0000
0000
,
0010
0000
0100
0000
,
0010
0000
1000
0000
,
1001
0000
0001
0000
,
0000
0000
0000
0000
,
1000
0000
0001
0000
,
1000
0000
0100
0000
,
1000
0000
0001
0000
,
1000
0000
0100
0000
,
1000
0000
0010
0000
,
0100
0000
0001
0000
,
0010
0000
0001
0000
,
0100
0000
0001
0000
,
1001
0000
1000
0000
,
0001
0000
0010
0000
,
0100
0000
0010
0000
,
0001
0000
1000
0000
,
0010
0000
0100
0000
,
0010
0000
1000
0000
,
0001
0000
1000
0000
,
0010
0000
0000
0000
,
1001
0000
1000
0000
,
0001
0000
0100
0000
,
0001
0000
1000
0000
,
0001
0000
0010
0000
,
0100
0000
0010
0000
,
0100
0000
1000
0000
,
0001
0000
1000
0000
,
0010
0000
0000
0000
,
0110
0000
0110
0000
;
