#TITLE:夏・KOI・ムッシュ!!;
#SUBTITLE:;
#ARTIST:ビーチサンダルズ;
#TITLETRANSLIT:NATSU-KOI-MONSIEUR!!;
#SUBTITLETRANSLIT:;
#ARTISTTRANSLIT:BEACH SANDALS;
#CREDIT:DigiMindAxel;
#BANNER:NATSU-KOI-MONSIEUR!!.png;
#BACKGROUND:NATSU-KOI-MONSIEUR!!-bg.png;
#LYRICSPATH:NATSU-KOI-MONSIEUR!!.lrc;
#CDTITLE:GuitarFreaksXG & DrumManiaXG.png;
#MUSIC:NATSU-KOI-MONSIEUR!!.mp3;
#OFFSET:-7.220;
#SAMPLESTART:65.017;
#SAMPLELENGTH:12.000;
#SELECTABLE:YES;
#BPMS:0.000=140.000;
#STOPS:130.000=0.429
;
#BGCHANGES:;

//---------------dance-single - ----------------
#NOTES:
     dance-single:
     :
     Easy:
     2:
     0.224,0.232,0.108,0.144,0.000:
1000
0001
1000
0000
,
0100
1000
0100
0000
,
1001
0000
0000
1000
0000
0000
0000
0001
,
0000
0000
0000
0000
,
0100
0010
0100
0000
,
2002
0000
3003
0000
,
0010
0100
0010
0000
,
1000
0000
1001
0000
,
0001
1000
0001
0000
,
0010
0001
0010
0000
,
0001
1000
0001
0000
,
0100
0010
0100
0000
,
0001
1000
0001
0000
,
1000
0100
1000
0000
,
0100
0010
0100
0000
,
0020
0000
0000
0030
,
0001
1000
0001
0000
,
0100
0001
0100
0000
,
0010
0100
0010
0000
,
1000
0010
1000
0000
,
0100
0010
0100
0000
,
0010
0100
0010
0000
,
1001
0000
1000
0000
,
0001
0000
0000
0000
,
0100
0100
0100
0000
,
0010
0010
0010
0000
,
0200
0000
0000
0000
,
0320
0000
0000
0030
,
0100
0100
0100
0000
,
1000
1000
1000
0000
,
0100
0100
0100
0000
,
0000
2002
0000
0000
,
0000
0000
3003
2002
,
0000
0000
3003
0001
,
1000
0001
0010
0001
,
1000
0001
0000
0010
,
0000
0100
0000
1000
,
0001
1000
0000
0100
,
1000
0020
0000
0130
,
0001
0020
0000
0130
,
1000
0100
0000
0010
,
0001
0010
0000
0001
,
1000
0001
0100
0001
,
1000
0001
0000
0010
,
0100
1000
0010
0100
,
0010
1000
0000
0010
,
0100
0001
0000
0010
,
0100
1000
0000
1001
,
0000
0110
0000
1001
,
0000
0000
0000
0001
,
0100
0001
0100
0001
,
1000
0000
0000
0100
,
0010
0100
1000
0020
,
0000
0000
0030
2002
,
0000
0000
3003
0220
,
0000
0000
0330
0010
,
0100
0001
1000
0100
,
0000
1001
0000
0000
;

//---------------dance-single - ----------------
#NOTES:
     dance-single:
     :
     Medium:
     5:
     0.334,0.309,0.198,0.117,0.000:
1000
0100
0010
0100
,
2000
0000
0000
3001
0000
0100
0000
0010
,
0100
0000
0010
0100
0000
0001
0000
2000
,
0000
0000
0000
0000
0000
0000
3000
0100
,
0010
0000
0100
0010
0000
0001
1000
0001
,
0100
0000
0000
0110
0000
0000
0000
0000
,
0010
0100
0001
0010
,
0100
0000
1001
0000
,
0100
0100
1000
1000
,
0100
0010
0001
0100
,
0010
0010
0100
0100
,
0001
0010
0100
1000
,
0010
0010
0100
0100
,
0001
1000
0100
0010
,
0001
1000
0010
0100
,
0010
0000
0110
0000
,
0100
0010
1000
0100
,
0010
0100
0010
0000
0001
0010
0001
0000
,
0010
0100
1000
0010
,
0100
0010
0100
0000
0001
1000
0001
0000
,
0100
0010
1000
0010
,
0100
0001
0100
0000
0010
0000
1000
0000
,
0010
0100
0010
0000
1000
0001
1000
0000
,
0100
0010
0100
0000
0110
0000
0000
0000
,
1000
1000
1000
0000
0001
0000
1000
0000
,
0001
0001
0001
0000
1000
0000
0001
0000
,
0100
0010
1000
0100
,
0010
0001
1000
0010
,
0100
0100
0100
0000
0010
0000
0100
0000
,
0010
0010
0010
0000
0100
0000
0010
0000
,
1000
0100
0010
0001
,
1000
2002
0000
0000
,
0000
0000
3003
2002
,
3003
0000
1001
0000
0000
0000
0100
1000
,
0100
0000
1000
0000
0010
0000
0100
0010
,
0100
0000
0001
0000
0010
0000
0001
1000
,
0001
0000
0010
0000
0100
0000
0010
0001
,
0010
0001
0100
0020
,
0000
0000
1030
1000
0001
0000
0200
0000
,
0000
0000
0301
0001
1000
0000
0010
0000
,
0100
0000
0001
0100
0001
0000
1000
0100
,
0010
0000
1001
0000
0000
0000
1000
0100
,
1000
0000
0010
0000
0100
0000
0001
0100
,
0001
0000
0010
0000
0100
0000
1000
0010
,
1000
0000
0010
0100
0010
0000
1000
0000
,
0100
0010
0001
0100
,
0100
0000
0001
0001
1000
0000
0010
0000
,
0010
0000
1000
1000
0001
0000
1001
0000
,
0000
0110
0000
2002
,
0000
0000
3003
0100
,
0101
0000
1100
0000
1000
0001
2000
0000
,
0000
0000
3001
1001
,
0000
0110
0000
0000
0000
0202
0000
0000
,
0000
0000
0303
1010
,
0000
0110
0000
0000
0000
0000
1001
0000
,
0000
1001
0000
0000
0000
0000
0100
0001
,
0010
0000
0100
1000
0010
0000
0000
0110
,
0000
0110
0000
0000
;

//---------------dance-single - ----------------
#NOTES:
     dance-single:
     :
     Challenge:
     8:
     0.609,0.595,0.234,0.180,0.391: // measure 1
1000
0100
1000
0001
0100
0100
0010
0010
,  // measure 2
1000
0000
0000
0001
0000
0000
2000
0000
0000
0000
3001
0000
0010
0000
0100
0000
,  // measure 3
1100
0000
0100
0101
0000
0110
0000
2001
,  // measure 4
0000
0000
0100
0000
3100
0000
0000
0000
1000
0000
0001
0000
0100
0010
0100
0010
,  // measure 5
0100
0001
0000
1000
0000
0010
0200
0000
0000
0000
0301
1000
0001
1000
0100
0000
,  // measure 6
1100
0000
0000
0110
0000
0000
0102
0000
0000
0000
0103
0000
0010
0000
1000
0001
,  // measure 7
1000
0000
0000
0010
0100
0000
0001
0000
0010
0000
0000
0100
0010
0000
0001
0000
,  // measure 8
0100
0000
0010
0100
0000
0100
0010
0000
1001
0000
0000
0000
0000
0000
0000
0000
,  // measure 9
1000
0000
0000
0100
0000
0000
0010
0000
0100
0000
0000
1000
0000
0000
0010
0000
,  // measure 10
0100
0000
0001
0000
0010
0000
0100
0000
1000
0000
0000
0001
0000
0000
1000
0000
,  // measure 11
0010
0000
0000
0100
0000
0000
0001
0000
0010
0000
0000
0000
0100
0000
0010
0000
,  // measure 12
0001
1000
0002
0000
1003
0010
0010
0100
,  // measure 13
0001
0010
1000
0010
0001
0000
1000
0000
,  // measure 14
0001
0100
1000
0100
0001
0000
0010
0100
,  // measure 15
1000
0010
0100
0000
0010
0100
0001
0100
,  // measure 16
0010
0000
1000
0000
0001
1000
0001
1000
0002
0000
0000
0000
0003
0000
0000
0000
,  // measure 17
1001
0000
0000
0010
0000
0000
0100
0000
0010
0000
0000
0001
0000
0000
0100
0000
,  // measure 18
0010
0000
1000
0000
0100
0000
0000
0000
0020
0000
0000
0230
0000
0000
1300
0000
,  // measure 19
0001
0000
0000
0100
0000
0000
0010
0000
0100
0000
0000
0000
0001
0000
0010
0000
,  // measure 20
0100
1000
0020
0000
0100
0100
0130
0000
,  // measure 21
0001
0100
1000
0100
0001
0000
1000
0000
,  // measure 22
0001
0010
1000
0010
0001
0100
0010
0000
,  // measure 23
1001
0000
0100
1000
1100
0000
0010
0001
,  // measure 24
0011
0000
0100
0000
1000
0001
1000
0001
2000
0000
0000
0000
3000
0000
0000
0000
,  // measure 25
0001
0000
0100
0000
0001
0000
1000
0100
0000
0100
0010
0000
0001
0000
1000
0000
,  // measure 26
0001
0000
0010
0000
0001
0000
0010
0100
0000
0100
1000
0000
0010
0000
0100
0000
,  // measure 27
0002
0000
0010
0000
0013
0000
0100
0010
0000
0010
0100
0000
1000
0001
1000
0000
,  // measure 28
0200
0000
1000
0000
1300
0000
0010
0100
0000
0100
0010
0000
0001
0000
0000
0000
,  // measure 29
0001
0000
0100
0000
0001
0000
1000
0010
0000
0010
0100
0000
0001
0000
1000
0000
,  // measure 30
0001
0000
0010
0000
0001
0000
0100
0010
0000
0010
1000
0000
0100
0000
0010
0000
,  // measure 31
0100
1000
0010
0001
0010
1000
0001
0000
,  // measure 32
0001
2002
0000
0000
,  // measure 33
0000
0000
0000
0000
0000
0000
0000
0000
3003
0000
0000
0000
1000
0010
1000
0001
,  // measure 34
0000
0010
0000
0100
0010
0000
0000
0000
0000
0000
0000
0000
0001
0000
0100
0000
,  // measure 35
0001
0000
1000
0100
0000
0100
1000
0000
0010
0000
0010
0000
1000
0000
0010
0000
,  // measure 36
0100
0000
0001
1000
0000
1000
0001
0000
0100
0000
0000
0000
0010
0000
0100
0000
,  // measure 37
0001
0000
0010
0100
0000
0100
0010
0000
0001
0000
0100
0000
1000
0000
0100
0000
,  // measure 38
0001
0000
1000
0010
0000
0010
1000
0000
0001
0000
0000
0000
1000
0000
0100
0000
,  // measure 39
0001
0100
1000
0010
1010
0000
0001
0100
,  // measure 40
1000
0000
0100
0000
0001
0000
0010
0000
0011
0000
0000
0000
0100
0000
0000
0100
,  // measure 41
1000
0000
0010
0000
0100
0000
0000
0001
0010
0000
0100
0000
1000
0000
0001
0000
,  // measure 42
0100
0010
0100
0000
0001
1000
0001
1000
0001
0000
0000
0000
1000
0000
0100
0000
,  // measure 43
0010
0000
0001
0100
0000
0100
0001
0000
1000
0000
1000
0000
0010
0000
0100
0000
,  // measure 44
0001
0000
0010
0100
0000
0100
0010
0000
0001
0000
0000
0000
0010
0000
0100
0000
,  // measure 45
1000
0000
0001
0010
0000
0010
0001
0000
0100
0000
0010
0000
1000
0000
0100
0000
,  // measure 46
0010
0000
0001
1000
0000
1000
0001
0000
0010
0000
0000
0000
0001
0000
0010
0000
,  // measure 47
1000
0010
0001
1000
0100
0000
1000
0010
,  // measure 48
0001
0000
0010
0000
1000
0000
0001
0000
0100
0000
0000
0000
1001
0000
0000
0001
,  // measure 49
0000
0000
0100
0000
0110
0000
0000
0010
0000
0000
1000
0000
1001
0000
0010
0100
,  // measure 50
0010
0100
0010
0100
0010
0000
1000
0001
1000
0001
1000
0001
0100
0000
0100
0000
,  // measure 51
0010
0000
0010
0000
1000
0000
1000
0000
0001
0000
0010
0000
0100
1000
0010
0100
,  // measure 52
0020
0000
0000
0000
0130
0000
1000
0000
0001
0000
0001
0000
1001
0000
0000
1000
,  // measure 53
0000
0110
0100
0001
0010
0110
2000
0000
,  // measure 54
0001
0000
0000
0000
3001
0000
1000
0000
0100
1000
0100
1000
0100
0000
0010
0100
,  // measure 55
0010
0000
0101
0000
0000
0000
0100
0010
0100
0010
0100
0000
1001
0000
0000
0110
,  // measure 56
0000
2002
0000
0000
3003
0000
1000
0001
,  // measure 57
0010
0100
1000
0100
1000
0000
0001
0000
0100
0001
0100
0001
1000
0000
1001
0000
,  // measure 58
0100
1000
0000
0020
0200
0000
0000
0000
0330
0000
0000
0000
0000
0000
0000
0000
;

//---------------dance-single - ----------------
#NOTES:
     dance-single:
     :
     Hard:
     7:
     0.480,0.465,0.243,0.261,0.090:
0001
1000
0001
0100
0001
1000
0100
0010
,
0001
0010
0100
1000
0001
0100
0000
0000
,
0110
0000
0000
1100
0000
0001
0000
0012
,
0000
0000
1003
0000
0001
1000
0010
0000
,
1000
0001
0000
0010
0000
0100
0020
0000
0000
0000
0031
0000
1000
0000
0010
0000
,
0110
0000
0000
0110
0000
0000
0220
0000
0000
0000
0000
0000
0330
0000
0000
0000
,
0001
0000
0000
0100
0000
0000
1000
0000
0100
0000
0000
0001
0000
0000
1000
0000
,
0010
0000
0100
0000
0010
0100
0000
0000
1001
0000
0000
0000
0000
0000
0000
0000
,
0001
0100
0010
0000
0100
0010
0100
0000
,
0001
0010
0200
0000
1000
0000
0310
0000
,
1000
0010
0100
0000
0010
0100
0010
0000
,
1000
0100
0010
0000
0001
0100
0000
0010
,
1000
0100
0010
0001
1000
0000
0010
0000
,
1000
0010
0100
0001
1000
0000
0001
0100
,
1000
0000
0100
0000
0010
0000
1000
0001
,
0010
0000
0100
0000
1000
0001
0000
0000
0220
0000
0000
0000
0330
0000
0000
0000
,
1001
0000
1000
0010
0100
0010
1000
0100
,
0010
0001
0200
0000
0010
0000
0301
0000
,
1000
0100
0010
0100
1000
0010
0100
0001
,
0010
0100
2000
0000
0010
0010
3010
0000
,
1000
0100
0010
0001
1000
0000
0001
0000
,
1000
0010
0100
0001
1000
0000
0001
0000
,
1001
0100
1100
0010
,
0022
0000
0033
0000
,
0001
0100
0010
0100
0001
0010
1000
0010
,
0001
0100
0010
0100
0001
0010
1000
0010
,
0001
1000
0100
1000
0002
0000
0100
0000
,
0010
0100
0013
0001
,
1000
0010
0100
0010
1000
0100
0001
0100
,
1000
0010
0100
0010
1000
0100
0001
0100
,
2000
0010
0100
3010
,
1000
2002
0000
0000
,
0000
0000
0000
0000
0000
0000
0000
0000
3003
0000
0000
0000
0001
1000
0001
1000
,
0000
0010
0000
0100
0010
0000
0000
0000
0000
0000
0000
0000
0100
0000
0000
0000
,
0100
0000
0001
0100
1000
0000
0100
0000
,
0100
0000
0001
1000
0010
0000
1000
0100
,
0010
0001
0010
0100
1000
0000
0010
1000
,
1000
0000
0001
0001
0100
0000
0010
0100
,
0001
0010
0200
0000
1300
0000
1000
0100
,
0010
0000
0001
0000
0200
0000
0000
0000
0301
0000
0000
0000
1000
0000
0000
0100
,
0000
0000
0001
0000
0100
0000
0000
1000
0000
0000
0010
0000
0100
0000
0001
0000
,
1000
1000
1001
0000
0000
0000
0100
0000
,
0100
0000
0001
0100
1000
0000
0100
0000
,
0100
0000
0001
1000
0001
0000
0100
0001
,
0010
0001
1000
0100
0010
0001
1000
0000
,
0100
0000
0001
0000
0100
0000
1000
0010
,
0100
0000
0001
0000
0010
0000
0100
0000
1000
0000
0000
0000
0001
0000
0100
0010
,
0000
0100
0020
0000
0000
0000
0000
0000
1030
0000
0000
0000
1100
0000
0000
0000
,
0100
0110
0010
0022
,
0033
0000
1001
0000
0000
0000
0100
0100
,
0001
0001
0100
0100
0001
0001
1000
0100
,
0002
0000
0000
0000
0000
0000
0103
0000
1000
0000
0010
0000
0110
0000
0000
0100
,
0000
0220
0000
0000
0330
2000
0002
0000
,
0000
0000
3003
1000
0100
1000
0010
0010
,
0000
0000
0110
0000
0000
0000
0010
0000
0100
0000
0001
0000
1001
0000
0000
0110
,
0000
2002
0000
0000
3003
0000
0001
0001
,
0100
0000
0000
0010
1000
0000
0100
0000
0001
0000
0100
0000
1000
0000
1100
0000
,
0000
0101
0000
0000
0220
0000
0000
0000
0330
0000
0000
0000
0000
0000
0000
0000
;

//---------------dance-single - ----------------
#NOTES:
     dance-single:
     :
     Beginner:
     1:
     0.076,0.103,0.063,0.000,0.000:
1000
0000
0000
0000
,
0001
0000
0000
0000
,
1000
0000
0000
0000
,
0000
0000
0000
0000
,
0010
0000
0000
0000
,
0010
0000
0000
0000
,
0100
0000
0000
0000
,
0010
0000
0000
0000
,
1000
0000
0000
0000
,
0000
0000
0000
0000
,
0100
0000
0000
0000
,
0000
0000
0000
0000
,
0010
0000
0000
0000
,
0100
0000
0000
0000
,
1000
0000
0000
0000
,
0001
0000
0000
0000
,
1001
0000
0000
0000
,
0100
0000
0000
0000
,
0100
0000
0000
0000
,
0010
0000
0000
0000
,
0100
0000
0000
0000
,
1000
0000
0000
0000
,
1001
0000
0000
0000
,
0001
0000
0000
0000
,
1000
0000
0000
0000
,
1000
0000
0000
0000
,
0001
0000
0000
0000
,
0000
0000
0000
0000
,
0010
0000
0000
0000
,
0010
0000
0000
0000
,
0100
0000
0000
0000
,
0000
1001
0000
0000
,
0000
0000
0000
0000
,
0000
0000
0000
0010
,
0000
0000
0000
0100
,
0000
0000
0000
0010
,
0000
0000
0000
0010
,
0000
0000
0000
0100
,
0000
0000
0000
0001
,
0000
0000
0000
1000
,
0000
0000
0000
1001
,
0000
0000
0000
0001
,
0000
0000
0000
0001
,
0000
0000
0000
1000
,
0000
0000
0000
1000
,
0000
0000
0000
0100
,
0000
0000
0000
0010
,
0000
0000
0000
0110
,
0000
0000
0000
1001
,
0000
0000
0000
0001
,
0000
0000
0000
1000
,
0000
0000
0000
0001
,
0000
0000
0000
1000
,
0000
0000
0000
0001
,
0000
0000
0000
0010
,
0000
0000
0000
0100
,
0000
0000
0000
0000
,
0000
1001
0000
0000
;
