#TITLE:Mother Tree;
#SUBTITLE:;
#ARTIST:AIKO OI;
#TITLETRANSLIT:;
#SUBTITLETRANSLIT:;
#ARTISTTRANSLIT:;
#CREDIT:DigiMindAxel;
#BANNER:Mother Tree.png;
#BACKGROUND:Mother Tree-bg.png;
#LYRICSPATH:;
#CDTITLE:GITADORA.png;
#MUSIC:Mother Tree.mp3;
#OFFSET:-10.590;
#SAMPLESTART:11.819;
#SAMPLELENGTH:12.000;
#SELECTABLE:YES;
#BPMS:0.000=190.000;
#STOPS:148.000=0.632
,189.000=0.316
;
#BGCHANGES:;

//---------------dance-single - ----------------
#NOTES:
     dance-single:
     :
     Easy:
     3:
     0.277,0.294,0.038,0.201,0.000:
0002
0000
0000
0000
,
1003
0001
1000
0100
,
1000
0100
1000
0001
,
0010
0100
1000
0100
,
0010
0001
1000
0000
,
0001
1000
0010
1000
,
0010
1000
0010
1000
,
0001
0010
0100
1000
,
0100
0010
0001
0000
,
2000
0000
0000
0000
,
0000
0000
0000
0000
,
3001
0000
0001
0000
,
0010
0000
0010
0000
,
0100
0000
0100
0000
,
1000
0000
1000
0000
,
0010
0000
0010
0000
,
0100
0000
0100
0000
,
0001
0001
0001
0001
,
1000
1000
1000
1000
,
0001
1000
0001
1000
,
0001
0100
0010
0100
,
0000
0001
1000
0001
,
0000
1000
0100
1000
,
0010
0100
0010
0100
,
0001
0010
0100
1000
,
0000
1001
0000
0010
,
0100
0010
1000
0100
,
0010
0001
1000
0001
,
1000
0010
0100
0001
,
0000
1001
0000
1000
,
0000
0000
0001
0000
,
1000
0100
1000
0100
,
1000
0001
1000
0001
,
1000
0010
0100
0001
,
0100
0010
1000
0001
,
1000
0001
0010
0100
,
1000
0100
0010
0001
,
1000
0020
0000
0030
,
0200
0000
0300
0000
,
0000
0000
0002
0000
,
0003
2000
0000
3000
,
0000
0000
0000
0002
,
0000
0003
0000
2000
,
0000
3000
0220
0000
,
0000
0000
0330
0000
,
0002
0000
0000
0000
,
0003
0000
1001
0100
,
0010
0001
2000
0000
,
0000
0001
0000
0000
,
0000
3002
0000
0000
,
0000
0003
0000
0100
,
0001
0100
0001
1000
,
0001
1000
0100
0010
,
0001
0010
0100
1000
,
0001
1000
0001
1000
,
0010
0100
0001
0100
,
0010
1000
0001
1000
,
0100
0010
0001
0010
,
0100
1000
0000
0002
,
0000
0000
0000
2003
,
0000
0000
0000
3002
,
0000
0000
0000
2003
,
0000
0000
0000
3002
,
0000
0000
0000
0203
,
0000
0000
0000
0320
,
0000
0000
0000
2030
,
0000
0000
0000
3001
,
1000
0001
1000
0100
,
0010
0001
0010
0000
;

//---------------dance-single - ----------------
#NOTES:
     dance-single:
     :
     Medium:
     6:
     0.443,0.436,0.105,0.220,0.019:
2000
0000
0000
3001
,
1000
0010
1000
0000
0001
0000
0010
0001
,
0010
0001
1000
0010
,
0100
0010
0100
0000
0001
0000
0010
0100
,
0010
0001
1000
0000
,
0001
0100
0001
0000
0010
0000
0100
1000
,
0100
0010
0100
1000
,
0001
1000
0001
0000
0100
0000
0010
0100
,
0010
1000
0001
0000
,
0100
0100
0100
0100
,
0100
0020
0230
0320
,
1030
0100
0010
0001
,
1000
0010
0100
0001
,
2000
0010
3010
0100
,
0002
0010
0013
0100
,
1000
0010
0100
0001
,
1000
0100
0010
0001
,
1000
0001
0000
0010
0000
0100
0000
1000
,
0000
0010
0000
0100
0000
0001
0000
1000
,
0001
0100
0001
0000
1000
0010
1000
0000
,
0100
0010
0100
0000
1000
0001
1000
0000
,
0000
1002
0100
0103
,
0001
0010
0100
1000
,
0010
0100
0010
0000
0100
0001
0100
0000
,
0001
1000
0001
0000
1000
0100
1000
0000
,
0000
2001
0100
3100
,
1000
0010
0100
0001
,
0010
0100
0010
0000
0001
1000
0001
0000
,
1000
0010
1000
0000
0001
0100
0001
0000
,
0000
1002
0010
0013
,
0200
0000
0310
1000
,
0001
0010
0001
0000
1000
0100
1000
0000
,
0010
0100
0010
0000
1000
0001
1000
0000
,
0001
0010
0100
0000
0010
0001
0010
0000
,
0100
1000
0100
0000
1000
0100
0010
0000
,
0001
1000
0001
0100
0010
0000
0010
0000
,
1000
0001
1000
0010
0100
0000
0100
0000
,
0100
0000
0000
0001
0000
1000
0001
0000
0000
0000
0000
0000
,
0010
0000
0010
0100
0000
0000
0100
0000
0000
0000
0000
0000
,
0000
0000
0000
0000
0000
0000
1000
0000
1000
0001
0000
0000
,
0000
0000
0000
0100
0000
0100
0010
0000
0000
0010
0000
0000
,
0000
0000
0000
2000
,
3002
0000
0023
0230
,
0000
0300
0220
0000
,
0000
0000
0330
0000
,
2002
0000
0000
0000
,
0000
3003
1001
0101
,
1010
0110
0110
0102
,
0000
2000
0000
0000
,
3003
0200
0000
0000
,
0000
0000
0300
0000
0000
0000
1000
0001
,
1000
0000
0010
0000
0100
0001
0010
0000
,
0100
0000
1000
0010
0100
0000
0010
0100
,
0010
0000
1000
0000
0001
0010
0100
0000
,
1000
0000
0001
0010
0100
0000
0010
0001
,
0010
0000
0001
0000
1000
0010
0100
0000
,
0010
0000
0100
0010
1000
0000
0001
1000
,
0001
0000
0010
0000
0100
0010
0200
0000
,
1000
1300
0000
1000
,
0100
1000
0100
0001
,
0100
0001
0100
1000
,
0100
1000
0100
0001
,
0100
0001
0100
1000
,
0010
1000
0010
0001
,
0010
0001
0010
1000
,
0010
1000
0010
0001
,
0010
0000
0001
0000
0010
0000
1000
0001
,
1000
0001
1000
0001
1000
0000
0010
0100
,
0010
0100
0010
0100
0010
2000
0000
0000
,
0000
0000
0000
0000
,
0000
3000
0000
0000
;

//---------------dance-single - ----------------
#NOTES:
     dance-single:
     :
     Hard:
     8:
     0.585,0.604,0.086,0.315,0.095:
0001
0000
0001
0000
0001
1000
0100
0010
,
0001
0100
1000
0000
0100
0000
0001
0100
,
1000
0000
0100
0000
0001
1000
0010
1000
,
0001
0010
1000
0000
0010
0000
0001
0010
,
1000
0010
0001
0000
,
1000
0100
0001
0000
0100
0000
1000
0100
,
0001
0000
0100
0000
1000
0001
0010
0001
,
1000
0010
0001
0000
0010
0000
1000
0010
,
0001
0010
1000
0000
,
0120
0100
0100
0100
,
0130
0002
0023
0230
,
1300
0010
1000
0000
0001
0100
0001
0000
,
1000
0001
1000
0000
0001
1000
0001
0000
,
1000
0010
0100
0001
0000
1000
0000
0001
,
1000
0100
0010
0001
1000
0000
0001
0000
,
1000
0100
1000
0000
0001
0010
0001
0000
,
1000
0010
1000
0000
0001
0100
0001
0000
,
1000
0100
0010
0100
1000
0100
0010
0100
,
1000
0001
0010
0001
1000
0001
0010
0001
,
1000
0100
0010
0001
0010
0100
1000
0000
,
0001
0010
0100
1000
0100
0010
0001
0000
,
0000
0000
1001
0000
0010
0100
0010
0000
,
1000
0001
0200
0000
0320
0000
0230
0000
,
0301
0100
0010
1000
0010
0100
0001
0000
,
1000
0010
0100
0001
0100
0010
1000
0000
,
0000
0000
1001
0000
0010
0100
0010
0000
,
1000
0002
0000
0203
0000
0320
0000
0130
,
0001
0010
0100
1000
0100
0010
0001
0000
,
1000
0100
0010
0001
0010
0100
1000
0000
,
0000
0000
1001
0000
0100
1000
0010
0200
,
0000
0320
0000
2030
0000
0000
3001
0000
,
1000
0100
0010
0100
1000
0010
0100
0000
,
0001
0010
0100
0010
0001
0100
0010
0000
,
1000
0000
0110
0000
0010
1000
0100
0010
,
0001
0100
0010
0000
0100
0000
0101
0000
,
0001
1000
0001
0000
1000
0000
0010
0000
0100
0000
0001
0000
0100
0000
0010
0000
,
1000
0000
0100
0000
0010
0000
0100
0000
1000
0001
1000
0001
1000
0001
2000
0000
,
3000
0000
0000
0001
0100
0001
2000
0000
0000
0000
0000
0000
,
3100
0010
0001
0200
0000
0000
0320
0000
0000
0000
0000
0000
,
0000
0000
0000
0030
0000
0000
1000
0100
1000
0002
0000
0000
,
0000
0000
0000
0103
0010
1000
0020
0000
0000
0230
0000
0000
,
0000
0000
0300
0002
,
2003
0000
0000
0000
0000
0000
3010
0100
0010
2000
0000
0000
,
0000
0002
0000
0000
3003
0000
0220
0000
0000
0000
0000
0000
,
0000
0000
0330
0000
,
2002
0000
0000
0000
,
0000
0000
0000
3003
0000
0000
1001
0000
1000
0010
0000
0100
,
0001
0000
0010
0100
0000
0000
1000
0001
1000
0020
0000
0000
,
0000
0200
0000
0000
,
0030
0002
0000
0000
,
0000
0303
0000
1000
0100
1000
0001
0100
,
1000
0000
0100
0000
0001
0100
1000
0000
,
0100
0000
0001
0100
0010
1000
0001
0010
,
1000
0000
0010
0000
0001
0010
1000
0000
,
0010
0000
0001
1000
0100
0010
0001
0100
,
1000
0000
0100
0000
0001
0100
1000
0000
,
0100
0000
0001
0010
0100
1000
0001
0010
,
1000
0000
0010
0000
0001
0010
2000
0000
,
0001
0000
3001
0000
0000
0000
1000
0010
,
1000
0010
0100
0001
0100
0001
1000
0100
,
1000
0100
0010
0001
0010
0001
1000
0010
,
1000
0010
0100
0001
0100
0001
1000
0100
,
0010
0001
0010
0100
1000
0000
0010
1000
,
0010
1000
0001
0100
0001
0100
0010
0100
,
0010
0100
0001
1000
0001
1000
0100
1000
,
0100
1000
0001
0010
0001
0010
0001
1000
,
0100
0010
0001
0010
0100
0000
1000
1000
,
0001
0010
1000
0010
0001
0001
1000
0100
,
0001
0100
1000
0010
0100
0200
0000
0000
,
0000
0000
0000
0000
,
0000
0300
0000
0000
;

//---------------dance-single - ----------------
#NOTES:
     dance-single:
     :
     Challenge:
     9:
     0.739,0.805,0.162,0.344,0.349: // measure 1
0001
0000
0001
0000
0001
1000
0100
1000
,  // measure 2
0001
0100
0010
0000
0101
0000
0001
0100
,  // measure 3
0010
0100
0010
0000
1000
0000
0100
0000
1000
0000
0001
0000
0010
0000
0100
0000
,  // measure 4
1000
0010
0100
0000
1010
0000
1000
0010
,  // measure 5
0100
0010
0100
0000
0001
0000
0010
0000
0001
0000
1000
0000
0100
0000
0010
0000
,  // measure 6
0001
1000
0010
0000
1001
0000
0001
1000
,  // measure 7
0010
0100
0010
0000
1000
0000
0010
0000
1000
0000
0001
0000
0010
0000
0100
0000
,  // measure 8
1000
0001
0010
0000
1001
0000
1000
0001
,  // measure 9
0010
0001
0010
0000
0100
0000
0010
0000
0001
0000
0000
0000
0000
0000
0000
0000
,  // measure 10
0100
0010
0100
0010
0100
0010
0100
0010
,  // measure 11
0100
0010
1000
0100
0010
0001
1000
0000
,  // measure 12
0001
0100
0010
0100
0001
0100
0010
0100
,  // measure 13
0001
0010
0100
0010
0001
0010
0100
0010
,  // measure 14
0001
1000
0100
0002
0000
0203
0000
1300
,  // measure 15
0001
0100
1000
0100
0001
1000
0001
0000
,  // measure 16
1000
0100
0010
0100
1000
0100
0010
0100
,  // measure 17
1000
0000
0010
0000
0100
0000
0010
0000
1000
0000
0010
0000
0100
0010
0100
0010
,  // measure 18
0100
0001
0010
1000
0010
0001
0010
1000
,  // measure 19
0010
0001
1000
0100
0001
0100
1000
0001
,  // measure 20
1000
0010
0100
0001
1000
1000
0001
0001
,  // measure 21
1000
1000
0010
0100
0100
0001
2002
0000
,  // measure 22
3003
0000
0000
0000
1010
0000
0000
1000
0001
0000
0010
0000
0100
0000
0000
1000
,  // measure 23
0001
0100
0001
0010
0100
1000
0001
0000
,  // measure 24
1000
0000
0010
0000
0001
0000
0010
0000
1000
0000
0001
0100
0000
0100
0001
0000
,  // measure 25
1000
0001
0000
0001
0010
0000
0001
1000
0001
1000
0001
0000
0200
0000
0000
0000
,  // measure 26
0300
0000
0000
0000
0101
0000
0000
0001
1000
0000
0010
0000
0100
0000
0000
0001
,  // measure 27
1000
0100
0010
0001
1000
0020
0000
0130
,  // measure 28
0001
0000
0010
0000
1000
0000
0010
0000
0001
0100
0001
0000
0100
0000
0010
0000
,  // measure 29
1000
0010
1000
0000
0100
0000
0001
0000
0100
0000
1000
0001
2000
0000
0000
0000
,  // measure 30
3000
0000
0001
1000
0001
0000
0000
1000
0001
0100
0000
0100
0001
0000
2000
0000
,  // measure 31
0000
0000
3010
0100
0010
0100
0020
0000
0000
0000
0030
0000
1001
0000
0000
1000
,  // measure 32
0001
0100
0001
0100
0001
0000
0010
0000
0100
0000
0010
0000
0001
0000
1000
0000
,  // measure 33
0100
0010
0100
1000
0010
0100
0101
0000
,  // measure 34
0010
1000
0010
0000
1001
0000
0000
0000
2000
0000
0000
3200
0000
0000
0310
0000
,  // measure 35
0002
0000
0000
2003
0000
0000
3010
0000
0100
0000
0010
0000
1010
0000
0000
0000
,  // measure 36
1000
0001
1000
0000
0001
0000
0100
0000
0010
1000
0010
0000
0100
0001
0100
0000
,  // measure 37
0001
1000
0001
0000
0100
0010
0100
0000
0001
1000
0001
1000
0001
1000
0002
0000
,  // measure 38
0003
0000
0000
1000
0100
0010
0200
0000
0000
0000
0000
0000
,  // measure 39
1300
0010
0100
0002
0000
0000
0203
0000
0000
0010
0000
0000
,  // measure 40
0010
0000
0000
0310
0000
0000
1000
0010
0100
0020
0000
0000
,  // measure 41
0000
0000
0000
1030
0001
0010
0002
0000
0000
0023
0000
0100
,  // measure 42
0000
0100
0000
0130
0000
0000
0000
0000
0000
2000
0000
0000
,  // measure 43
3002
0000
0000
0000
0000
0000
0013
0100
0010
0002
0000
0000
,  // measure 44
0000
2000
0000
0000
3003
0000
0220
0000
0000
0000
0000
0000
,  // measure 45
0030
0002
0000
0303
,  // measure 46
0202
0000
0300
2000
,  // measure 47
0000
0000
0000
3003
0000
0000
1000
0100
0010
0001
0010
0100
,  // measure 48
1000
0010
0100
0010
0000
0000
1000
0001
0010
0200
0000
0000
,  // measure 49
2300
3020
0230
0001
,  // measure 50
0301
2000
0000
0000
,  // measure 51
0000
0000
3000
0001
0100
1000
0100
0001
,  // measure 52
1000
0000
0000
0000
1001
0000
0000
0000
0001
0000
1000
0000
0100
1000
0100
0000
,  // measure 53
0010
0000
0001
1000
0100
0001
0100
1000
,  // measure 54
0001
0000
0000
0000
1001
0000
0000
0000
1000
0000
0001
0000
0100
0001
0100
0000
,  // measure 55
0010
0000
1000
0001
0010
1000
0010
0001
,  // measure 56
1000
0000
0000
0000
1001
0000
0000
0000
0001
0000
1000
0000
0010
1000
0010
0000
,  // measure 57
0100
0000
0001
1000
0010
0001
0010
1000
,  // measure 58
0001
0000
0000
0000
1001
0000
0000
0000
1000
0000
0001
0000
0100
0010
0100
0010
,  // measure 59
0100
0000
0100
0000
0000
0000
0001
1000
,  // measure 60
0100
1000
0001
1000
0100
1000
0001
0100
,  // measure 61
1000
0100
0001
0100
1000
0100
0001
0010
,  // measure 62
0100
0010
0001
0010
0100
0010
0001
0010
,  // measure 63
1000
0010
0001
0010
1000
0010
0001
1000
,  // measure 64
0010
1000
0001
1000
0010
1000
0001
0100
,  // measure 65
1000
0100
0001
0100
1000
0100
0001
0100
,  // measure 66
0010
0100
0001
0100
0010
0100
0001
1000
,  // measure 67
0010
0000
0010
0000
0100
0000
0001
0000
1000
0001
1000
0001
1000
0000
0100
1000
,  // measure 68
0100
0000
0010
0100
0010
0000
0001
0010
0001
0000
1000
0010
1000
0000
0001
0100
,  // measure 69
0001
0000
1000
0001
1000
0000
0001
0000
0100
0000
0200
0000
0000
0000
0000
0000
,  // measure 70
0000
0000
0000
0000
,  // measure 71
0000
0300
0000
0000
;

//---------------dance-single - ----------------
#NOTES:
     dance-single:
     :
     Beginner:
     2:
     0.087,0.164,0.029,0.000,0.000:
0000
0000
0000
0000
,
0001
0000
0000
0000
,
1000
0000
0000
0000
,
0001
0000
0000
0000
,
0001
0000
0000
0000
,
0010
0000
0000
0000
,
0100
0000
0000
0000
,
0010
0000
0000
0000
,
0010
0000
0000
0000
,
0001
0000
0000
0000
,
0000
0000
0000
0000
,
0001
0000
0000
0000
,
0000
0000
0000
0000
,
0001
0000
0000
0000
,
0000
0000
0000
0000
,
1000
0000
0000
0000
,
0000
0000
0000
0000
,
1000
0000
0001
0000
,
1000
0000
0001
0000
,
0100
0000
0100
0000
,
0100
0000
0100
0000
,
0010
0000
0100
0000
,
0010
0000
0100
0000
,
0010
0000
0010
0000
,
0010
0000
0000
0000
,
1000
0000
0001
0000
,
1000
0000
0100
0000
,
1000
0000
0010
0000
,
0000
0000
0000
0000
,
0000
1001
0000
0000
,
0000
0000
0000
0000
,
0000
0000
0000
0000
,
0000
0000
0000
0000
,
0000
0100
0000
0000
,
0000
0000
0000
0000
,
0000
0100
0000
0000
,
0000
0000
0000
0000
,
0000
0010
0000
0000
,
0000
0000
0000
0000
,
0000
0000
0010
0000
,
0000
0000
0000
0000
,
0000
0000
0000
0000
,
0010
0000
0000
0000
,
0000
0000
0110
0000
,
0000
0000
0000
0000
,
0001
0000
0000
0000
,
0000
0000
1001
0000
,
0000
0000
0000
1000
,
0000
0000
0000
0000
,
0000
0000
1000
0000
,
0000
0000
0000
0000
,
0001
0000
0000
0000
,
1000
0000
0000
0000
,
0001
0000
0000
0000
,
0010
0000
0000
0000
,
0001
0000
0000
0000
,
0100
0000
0000
0000
,
0010
0000
0000
0000
,
1000
0000
0000
0000
,
0001
0000
0000
0000
,
0000
0000
0000
0000
,
0001
0000
0000
0000
,
0000
0000
0000
0000
,
0001
0000
0000
0000
,
0000
0000
0000
0000
,
0001
0000
0000
0000
,
0000
0000
0000
0000
,
1000
0000
0001
0000
,
1000
0000
0010
0100
;
