#TITLE:もってけ! エネルギー缶;
#SUBTITLE:;
#ARTIST:てつくずおきば;
#TITLETRANSLIT:MOTTEKE! ENERGY KAN;
#SUBTITLETRANSLIT:;
#ARTISTTRANSLIT:TETSUKUZU OKIBA;
#CREDIT:DigiMindAxel;
#BANNER:MOTTEKE! ENERGY KAN.png;
#BACKGROUND:MOTTEKE! ENERGY KAN-bg.png;
#LYRICSPATH:;
#CDTITLE:DigiMindAxel original simfile.png;
#MUSIC:MOTTEKE! ENERGY KAN.mp3;
#OFFSET:-7.800;
#SAMPLESTART:53.200;
#SAMPLELENGTH:12.000;
#SELECTABLE:YES;
#BPMS:0.000=150.000;
#STOPS:;
#BGCHANGES:-20.000=MOTTEKE! ENERGY KAN.avi=1.000=1=1=0,
99999=-nosongbg-=1.000=0=0=0 // don't automatically add -songbackground-
;

//---------------dance-single - ----------------
#NOTES:
     dance-single:
     :
     Hard:
     8:
     0.558,0.533,0.279,0.291,0.087:
0000
1000
1000
2000
0000
3001
0001
0002
,
0000
1003
0100
0010
0001
0010
0100
0000
,
1000
0100
1100
0000
0001
0010
0011
0000
,
1001
0000
1000
0010
0100
0001
1000
1000
,
0100
0001
0100
1000
,
0100
0000
0001
0000
1000
0000
0010
0100
,
0010
1000
0100
0010
0100
0000
0010
0001
,
0010
0000
0001
0001
0001
1000
1000
1000
,
0001
0000
1000
0100
1000
0100
1000
0001
,
1000
0001
1000
0010
0100
0001
1000
0000
,
0110
0000
0001
0100
0001
0100
0001
1000
,
0001
1000
0001
0010
0100
1000
0001
0200
,
0000
0000
0301
0000
1000
0000
1000
0000
0100
0000
0000
0010
0100
0000
0000
1000
,
0100
0000
0000
0010
0001
0000
0000
0010
0100
0000
0000
0000
1000
0000
1000
0000
,
0001
0001
1000
0010
0110
0000
0001
0100
,
0110
0000
0000
0000
1000
0000
0001
0000
1001
0000
0000
0000
0100
0010
0100
0010
,
0200
0000
0301
0010
0100
0010
0001
1000
,
0010
0000
1000
0100
0010
0100
1000
0001
,
0010
0000
0001
0100
2000
0000
3100
0001
,
2000
0000
0000
0000
3010
0000
0000
0100
0000
0000
0001
0000
0000
0010
0000
0000
,
0100
0000
0000
0000
0000
0000
1000
0000
1001
0000
0000
0000
0100
0000
0000
0100
,
0000
0000
1100
0000
0000
0000
0001
0000
0001
0000
0000
0000
0100
0000
0000
0100
,
0000
0000
0101
0000
0000
0000
1000
0000
1001
0000
0000
0000
0010
0000
0000
0010
,
0000
0000
1010
0000
0000
0000
0001
0000
0001
0000
0000
0000
0010
0000
0000
0010
,
0000
0000
0011
0000
0000
0000
2002
0000
0000
3003
0000
0000
0010
0000
0000
0100
,
0000
0000
0110
0000
0000
0000
0001
0000
0001
0000
0000
0000
0100
0000
0000
0010
,
0000
0110
1000
1000
0010
0100
0001
1000
,
0100
0001
0100
1000
0001
0001
1000
1000
,
0010
0100
0001
1000
0000
1000
0200
0000
,
0310
0001
0000
0001
1000
0010
1000
0000
,
0001
0100
0000
0100
0010
1000
0100
0001
,
0100
2000
0000
0001
3001
0000
0000
0200
,
0000
0302
0000
0000
1000
2003
0000
0000
,
0010
3020
0000
0100
0000
0230
0000
0000
,
0301
0000
1000
0000
0100
0020
0000
0000
,
0000
0000
0031
0010
0100
1000
0001
0100
,
0110
0000
0000
0001
0010
0001
1000
0010
,
1000
0002
0000
1003
0000
0100
1000
0001
,
0100
0002
0000
1003
0000
0010
0100
0010
,
1000
0100
0010
0001
1000
0000
0001
1000
,
0100
0020
0000
0000
0130
0020
0000
0000
,
0031
2000
0000
3002
0000
2003
0000
0010
,
3010
0000
1000
0100
0001
0100
1000
0001
,
1000
0000
0001
0010
1000
0010
0001
1000
,
0100
0000
1001
0000
1001
0000
0100
0110
,
0000
0000
0001
0000
0001
0000
0000
0100
0001
0000
1000
0000
0000
0000
1001
0000
,
0000
0001
0001
1000
1000
0001
0001
1000
,
1000
0010
0110
0000
0110
0000
2002
0000
,
0000
3003
0000
0000
;

//---------------dance-single - ----------------
#NOTES:
     dance-single:
     :
     Challenge:
     9:
     0.726,0.842,0.337,0.384,0.489:
0000
0002
1000
1003
0000
0020
0100
0130
,
0000
0000
0001
0000
0010
0000
0100
0000
0010
0000
0001
0000
1000
0010
0100
0000
,
0110
0001
0001
0000
0110
1000
1000
0000
,
0110
0000
0001
0000
1000
0010
1000
0010
1000
0000
0001
0000
0100
0000
0001
0000
,
2000
0000
0000
0000
3001
0000
1000
0000
0100
0010
0000
0010
0100
0000
1000
0000
,
0001
1000
0000
0000
0001
0000
1000
0000
0010
0100
0000
0100
0010
0000
1000
0000
,
0001
0000
0100
0000
0010
0100
0010
0100
0010
0000
0000
1000
0001
0000
0010
0000
,
0100
0010
0001
0001
0001
1000
1000
1000
,
0010
0100
0000
0000
0001
0000
0010
0000
0001
0000
0010
0000
0100
0000
0010
0000
,
0001
0000
1000
0001
1000
0000
0001
0000
1000
0000
0100
0000
1000
0000
0100
0000
,
0010
0000
0001
0100
0001
0100
0010
0100
,
0001
0000
0010
0000
0100
0000
1000
0000
0010
0000
0000
0100
0001
0000
2000
0000
,
0000
0000
3001
0000
0100
0000
0100
0000
0002
0000
0000
0000
1003
0100
1000
0100
,
0010
0001
0000
0000
1000
0010
1000
0010
0100
0001
0000
0000
1000
0000
0001
0000
,
0001
0000
1000
0000
0001
0100
0001
0100
0010
0000
0010
0000
1000
0100
1000
0100
,
0010
0000
0010
0000
0001
1000
0001
1000
0010
0000
0010
0000
1000
0001
1000
0001
,
2000
0000
0000
0000
3001
0100
0001
0100
0010
1000
0010
1000
0001
1000
0001
1000
,
0001
1000
0001
0000
1000
0100
1000
0100
0010
0001
0010
0001
1000
0001
1000
0001
,
1000
0001
1000
0000
0100
0010
0100
0010
0001
0100
0001
0000
0010
0100
0010
0100
,
1000
0010
1000
0000
0002
0000
0000
0203
0000
0000
2300
0000
0000
3200
0000
0000
,
0302
0000
0000
0003
0000
0000
1000
0000
1001
0000
0000
0000
1010
0000
0000
0101
,
0000
0000
1001
0000
0000
0000
0100
0000
0100
0000
0000
0000
0101
0000
0000
0110
,
0000
0000
1100
0000
0000
0000
0001
0000
1001
0000
0000
0000
0011
0000
0000
1100
,
0000
0000
1001
0000
0000
0000
0100
0000
0100
0000
0000
0000
1100
0000
0000
0101
,
0000
0000
0110
0000
0000
0000
2002
0000
0000
3003
0000
0000
1001
0000
0000
1100
,
0000
0000
1001
0000
0000
0000
0100
0000
0100
0000
0000
0000
1001
0000
0000
0101
,
0000
0000
1001
0000
0001
0000
0001
0000
1000
0001
0000
0001
0100
0000
0010
0000
,
1000
0001
0000
0000
1000
0000
0100
0000
0001
0000
0100
0000
1000
0001
0000
0001
,
1000
0010
0100
0100
0000
0001
1000
0100
,
1000
0200
0000
1300
0001
0010
0100
0000
,
1000
0020
0000
1030
0001
0010
1000
0010
,
0001
2000
0000
3020
0000
0030
0000
0200
,
0000
0000
0301
0000
1000
0000
0001
0000
0000
0000
1000
0100
1000
0000
0001
0000
,
0000
0000
0010
0001
0010
0000
0100
0000
0000
0000
0010
0100
0010
0000
0001
0000
,
0000
0000
1000
0010
1000
0000
0001
0000
0100
0000
0002
0000
1000
0000
0000
0000
,
1000
0000
0000
0000
1003
0000
0000
0000
0001
1000
0001
1000
0001
1000
0001
1000
,
0020
0000
0030
0000
0000
0000
0100
0000
0010
0000
0100
0001
0000
0001
0010
0000
,
0100
0000
0020
0000
0000
0000
0031
0000
1000
0000
0100
0010
0000
0010
0100
0000
,
1000
0000
0002
0000
0000
0000
1003
0000
0010
0000
0100
0010
0000
0010
1000
0000
,
0001
0200
0000
0010
0310
0000
1000
0001
,
0100
0002
0000
0103
0001
2000
0000
3010
,
0100
0002
0000
0023
0000
0230
0000
1000
,
1300
0000
0000
0000
0100
0000
0010
0000
0001
0000
0100
0010
0000
0010
0100
0000
,
0001
0000
0000
0000
1000
0000
0100
0000
0001
0000
0100
0000
1000
0000
0010
0100
,
0010
0100
0010
0100
0010
0000
0000
0000
0110
0000
0000
0000
0001
0000
0101
0000
,
0000
0000
0001
0000
1000
0100
0000
0100
1000
0001
0010
0100
0000
0000
1001
0000
,
0000
0100
0100
0202
0303
0100
0100
2200
,
3300
0001
0100
0010
1000
0001
2000
0000
,
0000
3000
0000
0000
;

//---------------dance-single - ----------------
#NOTES:
     dance-single:
     :
     Medium:
     6:
     0.457,0.477,0.209,0.198,0.047:
0000
0001
0100
0001
0000
1000
0100
1000
,
0000
0001
0010
0100
1000
0001
0001
0000
,
0010
0001
0011
0000
1000
0100
1100
0000
,
1001
0000
0001
0100
0010
1000
0100
0010
,
0002
0000
1000
0000
,
1003
0010
0110
1001
,
1001
0000
0001
0010
0100
0000
1000
0010
,
0100
0000
0001
0001
1000
1000
0001
0001
,
1000
0000
0010
1000
0010
0000
0100
0001
,
0100
0000
0010
0100
0010
1000
0001
0000
,
1001
0000
0100
1000
0100
0000
0010
0001
,
0010
0000
0001
1000
0001
1000
0010
0000
,
0100
0001
1000
1000
0001
0000
0010
0100
,
1000
0000
0100
0010
0001
0000
0100
0010
,
0100
0000
0001
1000
0010
0000
0010
1000
,
0001
0000
0001
1000
0100
0010
0001
0001
,
1000
0020
0230
0302
,
1003
0200
0320
0032
,
1003
0020
0130
0002
,
1003
0000
0000
0000
0010
0000
0000
0100
0000
0000
0010
0000
0000
0100
0000
0000
,
0010
0000
0000
0000
0000
0000
1000
0000
1000
0000
0000
0000
0001
0000
0000
0010
,
0000
0000
0001
0000
0000
0000
1000
0000
0001
0000
0000
0000
1000
0000
0000
0010
,
0000
0000
1000
0000
0000
0000
0100
0000
0010
0000
0000
0000
0001
0000
0000
1000
,
0000
0000
0010
0000
0000
0000
0100
0000
0010
0000
0000
0000
0100
0000
0000
0001
,
0000
0000
1000
0000
0000
0000
2002
0000
0000
3003
0000
0000
0001
0000
0000
0010
,
0000
0000
0001
0000
0000
0000
0100
0000
0010
0000
0000
0000
1000
0000
0000
0010
,
0000
1000
0001
0010
0100
1000
0100
0010
,
0001
0000
0100
0001
1000
0000
0100
0010
,
0001
1000
0001
0000
0010
0000
0100
0000
,
0010
0001
0010
1000
,
0010
0001
1000
0100
,
0010
0100
1000
0001
,
1000
0010
0100
0010
,
1000
0100
0010
0001
,
1000
0001
0100
0010
,
0100
0000
0001
0000
1000
0001
1000
0001
,
2000
3010
0110
0100
,
0110
0001
1001
1000
,
1001
0001
0101
0010
,
0110
1000
1100
1000
,
1010
0000
0200
0000
0301
1000
0000
0000
,
0001
0100
0000
0010
0000
0100
0000
0000
,
0001
0000
1000
0100
0010
0001
2000
0000
,
0100
0000
0100
0000
,
3100
0000
1001
0000
1000
0000
0001
0001
,
0000
0100
0010
0000
1000
1000
0000
1001
,
0000
0001
0001
1000
0000
1000
1000
0001
,
0000
1000
0002
0000
0203
0000
0320
0000
,
0000
0030
0000
0000
;

//---------------dance-single - ----------------
#NOTES:
     dance-single:
     :
     Easy:
     4:
     0.281,0.281,0.174,0.140,0.000:
0000
1001
0000
0110
,
0000
1001
0010
0100
,
1000
0110
0000
1001
,
0000
0010
0100
0010
,
0001
0000
1000
0000
,
0001
0000
1000
0000
,
0010
0100
0010
1000
,
0001
1001
0000
0000
,
1001
0000
0001
0000
,
1000
0000
0001
0000
,
0100
0010
0100
0000
,
0001
0000
1000
0001
,
1000
0010
0100
0010
,
0100
0001
1000
0001
,
1000
0100
0010
0000
,
0010
0000
0010
0100
,
0010
0001
0010
0100
,
1000
0010
0100
0001
,
1000
0001
1000
0001
,
0100
0000
0002
0000
0000
2003
0000
0000
,
3001
0000
1001
0100
,
0010
0100
0000
0010
,
0100
0010
1001
0010
,
0100
0010
0000
0100
,
0010
0000
0000
0110
0000
0000
0001
0000
,
1000
0001
0000
0100
,
0010
0100
0001
0010
,
0100
1000
0001
1000
,
0001
0200
0000
0000
,
0000
0320
0000
0000
,
0000
0130
0000
0001
,
0000
1000
0000
0002
,
0000
2003
0000
3001
,
0000
0010
0000
0100
,
0000
1000
0002
0000
,
0000
0000
1003
0001
,
1001
0100
0010
0100
,
0001
0100
0010
0100
,
0001
1000
0100
1000
,
0010
0100
0010
1000
,
0100
0020
0000
0032
,
0000
2003
0000
3002
,
0000
0103
0010
0100
,
0001
1000
0100
0010
,
0001
1000
0001
1001
,
0000
0000
0010
0000
0100
0000
0000
0110
,
0000
1001
0000
0110
,
0000
0001
1000
0002
,
0000
0003
0000
0000
;

//---------------dance-single - ----------------
#NOTES:
     dance-single:
     :
     Beginner:
     1:
     0.071,0.110,0.012,0.000,0.000: // measure 1
0000
1000
0000
0000
,  // measure 2
0000
0001
0000
0000
,  // measure 3
0000
1000
0000
1000
,  // measure 4
0000
0001
0000
0000
,  // measure 5
0000
0000
0100
0000
,  // measure 6
0000
0000
0010
0000
,  // measure 7
0000
0100
0000
0000
,  // measure 8
0000
0010
0000
0000
,  // measure 9
0000
0100
0000
0000
,  // measure 10
0000
0000
0000
0000
,  // measure 11
0000
0001
0000
0000
,  // measure 12
0000
0000
0000
0000
,  // measure 13
0000
1000
0000
0000
,  // measure 14
0000
0001
0000
0000
,  // measure 15
0000
1000
0000
0000
,  // measure 16
1000
0000
0000
0001
,  // measure 17
0000
0010
0000
0000
,  // measure 18
0000
0100
0000
0000
,  // measure 19
0000
0010
0000
0000
,  // measure 20
0000
0100
0000
0000
,  // measure 21
0000
1000
0000
0000
,  // measure 22
0000
0000
0000
0000
,  // measure 23
0000
0000
0001
0000
,  // measure 24
0000
0000
0000
0000
,  // measure 25
0000
0000
1000
0000
,  // measure 26
0000
0000
0000
0000
,  // measure 27
0000
0001
0000
0000
,  // measure 28
0000
1000
0000
0000
,  // measure 29
0000
0010
0000
0000
,  // measure 30
0000
0000
0000
0000
,  // measure 31
0000
0010
0000
0000
,  // measure 32
0000
0000
0000
0000
,  // measure 33
0000
0010
0000
0000
,  // measure 34
0000
0000
0000
0000
,  // measure 35
0000
0010
0000
0000
,  // measure 36
0000
0000
0000
0000
,  // measure 37
0000
1000
0000
0000
,  // measure 38
0000
0000
0001
0000
,  // measure 39
0000
1000
0000
0000
,  // measure 40
0000
0001
0000
0000
,  // measure 41
0000
0010
0000
0000
,  // measure 42
0000
0100
0000
0000
,  // measure 43
0000
0010
0000
0000
,  // measure 44
0000
0100
0000
0000
,  // measure 45
0000
1000
0000
0000
,  // measure 46
0000
0001
0000
0000
,  // measure 47
0000
1001
0000
1000
,  // measure 48
0000
0001
0000
0000
;
