#TITLE:水鏡;
#SUBTITLE:;
#ARTIST:PON;
#TITLETRANSLIT:MIKAGAMI;
#SUBTITLETRANSLIT:;
#ARTISTTRANSLIT:;
#CREDIT:DigiMindAxel;
#BANNER:MIKAGAMI.png;
#BACKGROUND:MIKAGAMI-bg.png;
#LYRICSPATH:MIKAGAMI.lrc;
#CDTITLE:REFLEC BEAT.png;
#MUSIC:MIKAGAMI.mp3;
#OFFSET:-3.595;
#SAMPLESTART:34.137;
#SAMPLELENGTH:12.000;
#SELECTABLE:YES;
#BPMS:0.000=157.000;
#STOPS:;
#BGCHANGES:;

//---------------dance-single - ----------------
#NOTES:
     dance-single:
     :
     Easy:
     3:
     0.240,0.268,0.119,0.168,0.000:
0000
0000
0000
0000
,
0000
0000
0000
0000
,
0002
0000
0000
0003
,
2000
0000
0000
3000
,
0002
0000
0000
0003
,
1001
0000
1001
0000
,
2000
0000
0000
3000
,
0002
0000
0000
0003
,
2000
0000
0000
3000
,
1001
0000
1001
0000
,
1001
0000
0010
0000
,
0100
0010
0100
0000
,
0010
0100
0010
0000
,
1000
0001
1000
0000
,
0001
1000
0001
0000
,
0010
0001
0010
0000
,
0001
1000
0001
0000
,
1000
0100
1000
0000
,
0001
0000
1000
0000
,
0001
1000
0020
0000
,
0130
0010
0100
0000
,
0001
1000
0001
0000
,
1000
0100
1000
0000
,
0001
0001
1000
0000
,
0010
0100
0010
0000
,
1000
0001
1000
0000
,
0002
0000
0103
0000
,
0020
0000
1030
0000
,
0001
1000
0001
0000
,
0010
0001
0010
0001
,
1000
0001
1000
0001
,
0010
0001
0010
0001
,
1000
0001
1000
0000
,
0010
1000
0010
1000
,
0001
1000
0001
1000
,
0010
1000
0010
1000
,
0002
0000
0000
0000
,
1003
0000
0000
0000
,
1001
0000
0000
0000
,
0110
0100
0010
0100
,
0010
0100
0010
0100
,
0110
0000
0000
0000
,
1001
0000
0000
0000
,
1001
1000
0001
1000
,
0001
1000
0001
1000
,
0001
0000
1001
0000
,
0020
0000
0000
0000
,
0230
0000
0000
0000
,
0320
0000
0000
0000
,
0130
0000
0000
0000
,
0001
1000
0001
0000
,
0010
0001
0010
0000
,
0100
0000
1000
0000
,
0001
1000
0001
0000
,
0100
0010
0100
0000
,
0010
0100
0010
1000
,
0001
0000
1000
0000
,
0002
0000
0000
0000
,
2003
0000
0000
0000
,
3001
0000
0000
0000
,
2002
3003
0000
0000
;

//---------------dance-single - ----------------
#NOTES:
     dance-single:
     :
     Medium:
     5:
     0.391,0.417,0.287,0.079,0.030:
0000
0000
0000
0000
,
0000
0000
0000
0000
,
0001
0100
0001
0000
,
1000
0010
1000
0000
,
0100
0010
0100
0000
,
1000
1001
0001
1001
,
1000
0100
1000
0000
,
0001
0010
0001
0000
,
0100
0010
0100
0000
,
0001
1001
1000
1001
,
0001
1001
1000
1001
,
0010
0100
0001
0100
,
0010
1000
0001
0000
,
1000
0010
0100
0001
,
0100
0010
1000
0000
,
0001
0010
0100
1000
,
0100
0010
0001
0000
,
1000
0100
0010
0001
,
0010
0010
0010
0010
,
0110
0110
1001
0000
,
1000
0100
1000
0100
1000
0000
0000
0000
,
0001
0100
0001
0100
0001
0000
0000
0000
,
0010
0100
0010
0100
0010
0000
0000
0000
,
0001
0001
1000
0100
0010
0000
0000
0000
,
0001
1000
0001
1000
0001
0000
0000
0000
,
1000
0010
1000
0010
1000
0000
0000
0000
,
1001
0100
1100
0000
,
1001
0100
0101
0000
,
0001
1000
0001
0000
2002
0000
3003
0000
,
0100
1000
0010
0000
0100
0010
0100
0000
,
0010
1000
0100
0000
0100
0000
0000
0000
,
0010
0001
0100
0000
0010
0100
0010
0000
,
0100
0001
0010
0000
0010
0000
0000
0000
,
0001
1000
0001
1000
0001
1000
0001
0000
,
1000
0010
0100
0010
1000
0000
1000
0000
,
0100
0010
0100
0010
0100
0010
0100
0000
,
1000
0001
0001
0000
0001
0000
1000
0000
,
1001
0000
0000
0000
0000
0000
0000
0000
0000
0000
0100
0000
0100
0000
0000
0110
,
0000
0000
0000
0000
0000
0000
0000
0000
0000
0000
0010
0000
0010
0000
0000
0110
,
0000
0001
1000
0000
0100
0000
0001
0000
,
0100
0000
1000
0000
0010
0100
0010
0000
,
0110
0000
0000
0000
0000
0000
0000
0000
0000
0000
0100
0000
0100
0000
0000
0110
,
0000
0000
0000
0000
0000
0000
0000
0000
0000
0000
0010
0000
0010
0000
0000
0110
,
0000
1000
0001
0000
0100
0000
1000
0000
,
0100
0001
1001
1000
,
1001
0000
0220
0330
,
0001
0001
0001
0001
,
1000
1000
1000
1000
,
0001
0001
0001
0001
,
2002
0000
0000
3003
,
0001
0100
0010
0000
1000
0001
1000
0000
,
0010
0100
0001
0000
0001
0000
0000
0000
,
1000
0100
0010
0000
0001
1000
0001
0000
,
0010
0100
1000
0000
1000
0000
0000
0000
,
0010
0100
0010
0100
0010
0000
0000
0000
,
1000
0100
1000
0000
0100
0010
0100
0000
,
1000
0001
1000
0001
1000
0000
1001
0000
,
0220
0000
0000
0330
,
0001
0000
0001
0000
1000
0000
0100
0000
0010
0000
0000
0000
0001
0000
0000
1001
,
0000
0000
0000
0000
,
1001
0000
0000
1001
0000
0000
0000
0000
0000
0000
0000
0000
0000
0000
0000
0000
;

//---------------dance-single - ----------------
#NOTES:
     dance-single:
     :
     Hard:
     8:
     0.640,0.625,0.356,0.227,0.341: // measure 1
2002
3003
2200
3300
,  // measure 2
0220
0000
0330
0000
0001
0001
1001
0000
,  // measure 3
0002
0000
0100
0103
0000
0010
0000
1000
,  // measure 4
0001
0000
0010
0000
0100
0000
0010
0000
0001
0000
1000
0000
0000
1000
0000
0000
,  // measure 5
0002
0000
0010
0013
0000
0100
0000
1000
,  // measure 6
0001
1000
0001
1000
0001
1000
0000
0000
0100
1000
0100
1000
0100
1000
0000
0000
,  // measure 7
0002
1000
0000
1003
0000
0001
0000
1000
,  // measure 8
0100
0000
0010
0000
0100
0000
1000
0000
0010
0000
0100
0000
0000
0100
0000
0000
,  // measure 9
0101
0000
0000
0001
0000
0000
1000
0000
0100
0000
0010
0000
0001
0000
0010
0000
,  // measure 10
0100
1000
0100
1000
0100
1000
0000
0000
0001
1000
0001
1000
0001
1000
0000
0000
,  // measure 11
0001
0100
0001
0100
0001
0100
0000
0000
0001
0000
0001
0000
1001
0000
0000
0000
,  // measure 12
0001
0100
0010
0100
0001
0100
0010
0000
,  // measure 13
0110
1100
0011
0000
,  // measure 14
1000
0100
0010
0100
1000
0010
0100
0000
,  // measure 15
0110
1010
0101
0000
,  // measure 16
0001
1000
0100
1000
0001
0100
0001
0000
,  // measure 17
1001
0110
1001
0000
,  // measure 18
1000
0001
0100
0001
1000
0100
1000
0001
,  // measure 19
0100
1000
0100
0001
0100
1000
0100
0001
,  // measure 20
1000
0000
0000
0110
0000
0000
0001
1000
0001
1000
0000
0000
,  // measure 21
0100
0000
0010
0000
0001
0000
1000
0100
0000
0100
0010
0000
0000
0000
0100
0000
,  // measure 22
1000
0000
0001
0000
0100
0000
0010
0200
0000
0000
0001
0000
0301
0000
1000
0000
,  // measure 23
0100
0000
0010
0000
0100
0000
1000
0001
0000
0001
0100
0000
0000
0000
0001
0000
,  // measure 24
0100
0000
1000
0000
0100
0000
0001
1000
0000
0000
0010
0000
0010
0000
0010
0000
,  // measure 25
1000
0000
0010
0000
0100
0000
0010
1000
0000
1000
0001
0000
0000
0000
0010
0000
,  // measure 26
0100
0000
0010
0000
0001
0000
1000
0020
0000
0000
0000
0000
0130
0000
0000
0000
,  // measure 27
0201
0310
0110
0110
,  // measure 28
1020
0130
0110
0110
,  // measure 29
1000
0001
1000
0001
1000
0000
0000
0000
1001
0000
0000
1001
0000
0000
0001
0000
,  // measure 30
1000
0010
0100
0010
1000
0100
0010
0100
,  // measure 31
1000
0001
0010
0001
1000
0000
1000
0001
,  // measure 32
0010
0100
0010
0001
0100
0010
0100
0001
,  // measure 33
1000
0100
0010
0100
2000
0000
0000
0000
,  // measure 34
3001
0100
0001
0000
1000
0000
0100
0000
0001
0000
0100
0000
1000
0000
0001
0000
,  // measure 35
0010
0001
0010
0000
0100
0000
1000
0002
0000
0000
0100
0000
0103
0000
0000
0000
,  // measure 36
0010
0000
0100
0000
0001
0100
0000
0020
0000
0000
1000
0000
1030
0000
0001
0000
,  // measure 37
0010
0000
0100
0000
1000
0001
0000
0100
0000
0001
0000
0100
0000
0001
1000
0000
,  // measure 38
1001
0000
0000
0000
0000
0000
0000
0000
0000
0000
0001
0010
0001
0100
0000
0101
,  // measure 39
0000
0000
0000
0000
0000
0000
0000
0000
0000
0000
1000
0010
1000
0001
0000
1001
,  // measure 40
0000
1000
0001
0010
0100
1000
0100
0010
,  // measure 41
0001
0100
1000
0100
0001
1000
0010
0100
,  // measure 42
0110
0000
0000
0000
0000
0000
0000
0000
0000
0000
0001
0100
0001
1000
0000
1001
,  // measure 43
0000
0000
0000
0000
0000
0000
0000
0000
0000
0000
1000
0100
1000
0001
0000
1001
,  // measure 44
0000
0000
0001
0000
1000
0000
0010
0000
0100
0000
0001
0000
1000
0000
0010
0100
,  // measure 45
0000
0001
1000
0000
0100
0000
0010
0000
0110
0000
0000
0000
0100
0000
0000
0101
,  // measure 46
0000
0000
0000
0110
0000
0000
1000
0001
1000
0001
0000
0000
,  // measure 47
2000
0010
0010
3010
,  // measure 48
0200
0001
0001
0301
,  // measure 49
2000
0001
0001
3001
,  // measure 50
0100
0000
0100
0000
0100
0000
0100
0010
0000
0000
0000
0000
0000
0000
0000
0000
,  // measure 51
1000
0010
0100
1000
0100
0010
1000
0001
,  // measure 52
0100
0000
0010
0000
1000
0000
0001
2000
0000
0000
0000
0000
3001
0000
0000
0000
,  // measure 53
1000
0100
0001
0100
1000
0100
0001
0100
,  // measure 54
1000
0010
0001
0010
1000
0010
0001
0010
,  // measure 55
1000
0000
1000
0000
0001
0000
0010
0000
0100
0000
0000
0110
0000
0000
0100
0000
,  // measure 56
0001
0100
0010
0001
0010
0100
0001
1000
,  // measure 57
0100
0010
0100
0010
0100
0000
0000
0000
1001
0000
0000
1001
0000
0000
0002
0000
,  // measure 58
2000
0000
0000
3003
,  // measure 59
1000
0000
0010
0000
0001
0000
0010
0000
0100
0000
0000
0000
0001
1000
0000
0020
,  // measure 60
0000
0100
0100
0130
,  // measure 61
0001
0010
0001
1000
0000
0000
0000
0000
0000
0000
0000
0000
0000
0000
0000
0000
;

//---------------dance-single - ----------------
#NOTES:
     dance-single:
     :
     Challenge:
     10:
     0.838,0.803,0.425,0.208,0.806:
0001
0100
0001
0100
0001
0100
0000
0000
0001
1000
0001
1000
0001
1000
0000
0000
,
0100
1000
0100
1000
0100
1000
0000
0000
0001
0000
0001
0000
1000
0001
0000
0000
,
1000
0000
0000
0010
0100
0000
0010
0000
1000
0000
0100
0000
0010
0000
0100
0000
,
1000
0000
0000
0010
0100
0000
0001
0000
0020
0000
0100
0000
0000
0130
0000
0000
,
0110
0000
0000
0100
0001
0000
0010
0000
0100
0010
0100
0000
0110
0000
0000
0000
,
0100
1000
0100
1000
0100
1000
0000
0000
0001
0010
0001
0010
0001
0010
0000
0000
,
0001
0000
0000
1000
0001
0000
1000
0000
0010
0000
0100
0000
0010
0000
1000
0000
,
0100
0000
0000
0100
1000
0000
0010
0000
0200
0000
0001
0000
0000
0301
0000
0000
,
0101
0000
0000
0001
1000
0000
0010
0000
0100
0001
0100
0001
1000
0001
1000
0001
,
1000
0010
1000
0010
1000
0010
0000
0000
0100
0001
0100
0001
0100
0001
0000
0000
,
0010
0100
0010
0100
0010
0100
0000
0000
1000
0000
1000
0000
0001
1000
0000
0000
,
0001
1000
0100
1000
0001
0010
0100
1000
,
1001
0000
0001
0000
0101
0000
0100
0000
0110
0000
0000
0100
0010
0000
0010
0000
,
1000
0001
0100
0001
1000
0100
0010
0001
,
1001
0000
1000
0000
1100
0000
0100
0000
0110
0000
0000
0010
0100
0000
0100
0000
,
0001
1000
0100
0001
0100
1000
0010
0100
,
0110
0000
0010
0000
1010
0000
1000
0000
1001
0000
0000
0001
1000
0000
1000
0000
,
0001
1000
0010
0001
0010
1000
0001
1000
,
1100
0100
1100
0000
0101
0100
0101
0000
,
1000
0100
0010
0001
0100
0010
1000
1000
1000
0002
0000
0000
,
1003
0000
0100
0000
0010
0000
0100
1000
0000
1000
0001
0000
0010
0000
0100
0000
,
0010
0000
0001
0000
1000
0000
0100
2000
0000
0000
3001
0100
0001
0100
0001
1000
,
0100
0000
0010
0000
0001
0000
0100
0001
0000
0001
1000
0000
0100
0000
0010
0000
,
0100
0000
0100
0000
0110
0000
0001
1000
0000
0000
0010
0100
0010
0100
0010
0100
,
0010
0000
1000
0000
0100
0000
0010
0100
0000
0100
1000
0000
0010
0000
0100
0000
,
0101
0000
0010
0000
0100
0000
1000
0002
0000
0000
1003
0100
1000
0100
1000
0001
,
0100
0010
0100
0001
0101
0000
1100
0000
,
0010
0100
0010
1000
1010
0000
0011
0000
,
0001
1000
0001
1000
0001
1000
0000
0000
1001
0000
0000
0110
0000
0000
1001
0000
,
1000
0000
0001
0000
0100
0000
0001
1000
0000
1000
0100
0000
1000
0000
0001
0100
,
0010
0000
0100
0000
0100
0000
0001
1000
0000
1000
0010
0000
1000
0001
1000
0001
,
1000
0000
0100
0000
0010
0000
0001
0100
0000
0100
0010
0000
1000
0000
0100
0010
,
0100
0000
1000
0000
1000
0000
0001
0200
0000
0000
0301
1000
0001
1000
0001
1000
,
0100
1000
0100
0010
0001
0010
0001
0000
0100
0010
0100
0010
1000
0010
1000
0000
,
0100
0010
0100
0010
0001
1000
0010
2000
0000
0000
3001
0010
0100
1000
0001
0000
,
1000
0000
1000
0000
0010
0100
0000
0002
0000
0000
1003
0000
0001
0010
0100
1000
,
0001
0000
1000
0000
1000
0010
0000
0100
0000
0100
0000
0001
0000
1000
0100
0000
,
2200
0000
0000
0000
0000
0000
3300
0000
0000
0000
1000
0100
0010
0001
0000
2002
,
0000
0000
0000
0000
0000
0000
3003
0000
0000
0000
0001
0100
0010
1000
0000
1001
,
0000
1000
0100
0001
0100
1000
0010
0001
,
0010
0000
1000
0000
0001
0000
0100
0000
0001
0000
1000
0100
1000
0100
1000
0000
,
2002
0000
0000
0000
0000
0000
3003
0000
0000
0000
0001
0100
0010
1000
0000
2002
,
0000
0000
0000
0000
0000
0000
3003
0000
0000
0000
1000
0010
0100
0001
0000
1001
,
0000
0000
0001
0000
0100
0000
1000
0000
0100
0000
0001
0000
0001
0000
1000
0010
,
0000
0100
0000
0001
0000
0001
0000
0001
0100
0000
0000
0000
0010
0000
1000
0010
,
1000
0100
0010
0001
0010
0100
1000
1000
1000
0002
0000
0000
,
0103
0010
0100
0000
0100
0001
0100
0000
,
0001
1000
0001
0000
0001
0010
0001
0000
,
1000
0001
1000
0000
1000
0010
1000
0000
,
0110
0000
0110
0000
0110
0000
0010
0100
0000
0000
0001
1000
0001
1000
0001
1000
,
0001
0000
0010
0000
0100
0000
0010
0001
0000
0001
1000
0000
0100
0000
1000
0000
,
0001
0000
0100
0000
0010
0000
1000
0002
0000
0000
1003
0100
1000
0100
1000
0001
,
0100
0000
0100
0000
0001
1000
0100
0000
0010
0000
0010
0000
0001
0100
0010
0000
,
0100
0000
0100
0000
0001
0010
0100
0000
1000
0000
1000
0000
0100
1000
0010
0000
,
0100
0010
0100
0010
0100
0010
0100
0000
0110
0000
0000
1001
0000
0000
0110
0000
,
0010
0000
0100
0000
0010
0000
1000
0001
0000
0001
1000
0000
0001
0010
0001
0000
,
0100
0010
0100
0010
0100
0010
0000
0000
1001
0000
0000
0110
0000
0000
1001
0000
,
2002
0000
0000
3003
,
1001
0000
0001
0000
1000
0010
1000
0001
0010
0001
0000
0000
1000
0001
0000
1002
,
0000
1000
1000
1003
,
0001
0100
0010
1000
0000
0000
0000
0000
0000
0000
0000
0000
0000
0000
0000
0000
;

//---------------dance-single - ----------------
#NOTES:
     dance-single:
     :
     Beginner:
     2:
     0.110,0.148,0.089,0.000,0.000:
0000
0000
0000
0000
,
0000
0000
0000
0000
,
1000
0000
0000
0000
,
0100
0000
0000
0000
,
0010
0000
0000
0000
,
0001
0000
0000
0000
,
1000
0000
0000
0000
,
0010
0000
0000
0000
,
0100
0000
0000
0000
,
0001
0000
0001
0000
,
0001
0000
0000
0000
,
1001
0000
0000
0000
,
1000
0000
0001
0000
,
1000
0000
0000
0000
,
0100
0000
0010
0000
,
0100
0000
0000
0000
,
1000
0000
0001
0000
,
1000
0000
0000
0000
,
0010
0000
0010
0000
,
0010
0000
0000
0000
,
0110
0000
0100
0000
,
0010
0000
0000
0000
,
1000
0000
0001
0000
,
1000
0000
0000
0000
,
1001
0000
0001
0000
,
1000
0000
0000
0000
,
0001
0000
0000
0000
,
0010
0000
0000
0000
,
0100
0000
0000
0000
,
1000
0000
0001
0000
,
1000
0000
0000
0000
,
0001
0000
1000
0000
,
0001
0000
0000
0000
,
0010
0000
0010
0000
,
0100
0000
0100
0000
,
1000
0000
0000
0000
,
0001
0000
0000
0000
,
1001
0000
0000
0000
,
0000
0000
0000
0000
,
0000
1000
0000
0001
,
0000
1000
0000
0000
,
1001
0000
0000
0000
,
0000
0000
0000
0000
,
0000
0001
0000
1000
,
0000
0001
0000
0000
,
0000
0000
0000
0000
,
1001
0000
0000
0000
,
0000
0000
0000
0000
,
1000
0000
0000
0000
,
1001
0000
0000
0000
,
0001
0000
0001
0000
,
0001
0000
0000
0000
,
1000
0000
0000
0000
,
0100
0000
0000
0000
,
0010
0000
0000
0000
,
0001
0000
0000
0000
,
1000
0000
0000
0000
,
1001
0000
0000
0000
,
0010
0000
0000
0000
,
0000
0000
0000
0000
,
0110
0000
0000
0000
;
