#TITLE:METAL of おっくせんまん;
#SUBTITLE:;
#ARTIST:psycho + J;
#TITLETRANSLIT:METAL of OKKUSENMAN;
#SUBTITLETRANSLIT:;
#ARTISTTRANSLIT:;
#CREDIT:DigiMindAxel;
#BANNER:METAL of OKKUSENMAN.png;
#BACKGROUND:METAL of OKKUSENMAN-bg.png;
#LYRICSPATH:METAL of OKKUSENMAN.lrc;
#CDTITLE:DigiMindAxel original simfile.png;
#MUSIC:METAL of OKKUSENMAN.mp3;
#OFFSET:-11.920;
#SAMPLESTART:54.461;
#SAMPLELENGTH:12.000;
#SELECTABLE:YES;
#BPMS:0.000=179.900;
#STOPS:;
#BGCHANGES:;

//---------------dance-single - ----------------
#NOTES:
     dance-single:
     :
     Easy:
     4:
     0.343,0.352,0.128,0.049,0.000:
0001
1000
0001
1000
,
0001
1000
0001
0001
,
0100
0010
0100
0010
,
0100
0010
0100
0100
,
0001
1000
0001
1000
,
0001
0001
1000
0001
,
1000
1000
0100
1000
,
0010
0100
0001
0010
,
0100
1000
0100
0000
,
1000
0001
1000
0000
,
0001
0010
0001
0000
,
0100
0010
0100
0000
,
0001
1000
0001
0000
,
0010
0001
0010
0000
,
0001
0010
0100
0000
,
0010
0001
0010
0000
,
0100
1000
0100
1000
,
0100
1000
0100
1000
,
0001
1000
0001
1000
,
0001
1000
0001
1000
,
0001
0100
0001
0100
,
0001
0100
0001
0100
,
0010
1000
0100
0000
,
0010
0100
1000
0010
,
0200
0000
0001
0000
,
0001
0000
0301
0000
,
1000
0001
1000
0000
,
0010
0100
0010
1000
,
0002
0000
1000
0000
,
1000
0000
1003
0000
,
0010
0100
0010
0000
,
1001
0000
1001
0000
,
1000
0001
1000
0100
,
0010
0001
0100
0000
,
0110
0010
0110
0000
,
0110
0100
0110
0000
,
0001
1000
0001
0010
,
0100
1000
0010
0000
,
0100
0010
0100
0010
,
0100
0001
1000
0000
,
1001
0100
0010
0001
,
1000
0010
0100
0001
,
0110
0100
0110
0000
,
0110
0010
0110
0000
,
1000
0100
0010
0001
,
0100
0010
1000
0100
,
0010
0001
2000
0000
,
3001
0000
0000
0000
,
0100
0010
0100
0010
,
0100
0010
0100
0001
,
1000
0100
1000
0100
,
1000
0100
0010
0100
,
0010
0001
0010
0001
,
0100
0010
0100
0010
,
1000
0100
1000
0010
,
0100
0001
0010
0100
,
1000
0001
1000
0100
,
1000
0001
1000
0100
,
1000
0010
0100
0010
,
1000
0010
0100
0001
,
0010
0001
1000
0001
,
0010
0001
1000
0001
,
0010
0100
1000
0100
,
0010
0010
0010
0010
,
0110
0000
2002
0000
,
3003
0000
0000
0000
;

//---------------dance-single - ----------------
#NOTES:
     dance-single:
     :
     Medium:
     6:
     0.463,0.448,0.256,0.266,0.000:
0001
0000
0001
0100
0000
0100
0010
0000
,
0100
0001
0000
0000
0010
0000
0001
0000
,
1000
0000
0010
1000
0000
1000
0100
0000
,
1000
0001
0000
0000
0100
0000
0001
0000
,
0010
0000
0001
0010
0000
0010
0100
0000
,
1000
0000
0100
1000
0000
1000
0010
0000
,
0100
0000
0001
1000
0000
1000
0100
0000
,
1000
0100
0010
0001
,
1000
0001
0000
0100
0000
0001
0000
0100
,
0000
0010
0000
1000
0000
0100
0000
1000
,
0000
0010
0000
0100
0000
0010
0000
0100
,
0000
0010
0000
1000
0000
0001
0000
1000
,
0000
0001
0000
0010
0000
0001
0000
0100
,
0000
0010
0000
0100
0000
0001
0000
1000
,
0000
0001
0010
0100
1000
0000
0000
0001
,
0000
1000
0100
0010
0001
0000
0000
0000
,
0100
0001
0100
0000
0001
0100
0001
0000
,
1000
0100
0010
0001
,
1000
0100
1000
0000
0100
1000
0100
0000
,
0010
0100
0010
0001
,
0010
0100
0010
0000
0001
1000
0001
0000
,
0010
0100
1000
0001
,
1000
0001
0010
0100
1000
0000
0001
0000
,
1000
0000
0001
0010
0100
1000
0010
0000
,
0210
0000
0000
0000
0000
0000
0000
0001
,
0000
0010
0000
0301
0000
1000
0000
0000
,
1001
0000
0001
0000
1000
0010
0100
0000
,
0010
1000
0100
1000
0010
0000
1000
0000
,
0120
0000
0000
0000
0000
0000
0000
1000
,
0000
0100
0000
1030
0000
0001
0000
1000
,
0010
0000
0100
0000
0001
0100
0010
1000
,
0000
0000
1001
0000
1001
0000
0000
1001
,
0000
0000
0001
1000
0001
0000
0100
0010
,
0000
1000
0000
0100
0000
0010
0000
0101
,
0000
0010
1000
0000
1100
0000
0000
0101
,
0000
0010
1000
0000
1100
0000
0000
1001
,
0000
0000
1000
0001
1000
0000
0010
0100
,
0000
0001
0000
0010
0000
0001
0000
0000
,
1000
0100
1000
0001
0000
1000
0000
0001
,
0000
1000
0000
0010
0000
0100
0000
0110
,
0000
0000
0100
0010
0100
0000
0001
1000
,
0000
0100
0000
0010
0000
0001
0000
1010
,
0000
0100
0001
0000
0011
0000
0000
1010
,
0000
0100
0001
0000
0011
0000
0000
1001
,
0000
0000
0010
0100
0010
0000
1000
0001
,
0000
0010
0000
0100
0000
1000
0000
0000
,
0001
0100
0001
2000
0000
0000
0000
0000
,
3001
0000
0000
0000
,
0102
0000
0000
2003
0000
0000
3200
0000
,
0000
2300
0000
0000
3020
0000
0230
0000
,
0302
0000
0000
2003
0000
0000
3200
0000
,
0000
2300
0000
0000
3020
0000
0230
0000
,
0302
0000
0000
0023
0000
0000
0230
0000
,
2300
0000
0000
3200
0000
0000
0320
0000
,
0032
0000
0000
2003
0000
0000
3010
0000
,
1000
0010
0100
0000
0110
0000
0110
0000
,
1001
0000
1000
0010
0000
0010
0100
0000
,
0100
0001
0000
0001
1000
0000
0010
0000
,
0100
0000
0001
0010
0000
0010
0001
0000
,
0001
1000
0000
1000
0100
0000
1000
0000
,
1001
0000
1000
0001
0000
0001
0100
0000
,
0110
0000
0010
0100
0000
0100
0001
0000
,
1001
0000
1000
0010
0000
0010
0100
0000
,
0001
0010
0100
1000
,
0220
0330
2002
0000
,
3003
0000
0000
0000
;

//---------------dance-single - ----------------
#NOTES:
     dance-single:
     :
     Hard:
     8:
     0.598,0.544,0.335,0.256,0.000: // measure 1
1000
0100
1000
0010
0000
0010
0100
0000
,  // measure 2
0001
0100
0000
0100
0010
1000
0100
0000
,  // measure 3
0010
0001
0010
0100
0000
0100
0010
0000
,  // measure 4
0010
0001
0000
0001
0100
0010
1000
0000
,  // measure 5
1001
0000
0001
1000
0000
1000
0010
0000
,  // measure 6
0110
0000
0100
0010
0000
0010
1000
0000
,  // measure 7
1001
0000
1000
0001
0000
0001
0010
0000
,  // measure 8
1002
0023
0230
2300
,  // measure 9
3001
0100
0010
0100
0001
0000
1000
0000
,  // measure 10
0010
0100
0010
1000
0100
0000
0010
0000
,  // measure 11
0001
0010
0100
0010
0001
0000
0100
0010
,  // measure 12
0000
1000
0000
0100
0000
0010
0100
0000
,  // measure 13
1000
0001
0100
0001
1000
0000
0010
0000
,  // measure 14
1000
0100
0010
0100
1000
0010
0000
0101
,  // measure 15
0000
0010
0100
1000
0010
0000
0000
0101
,  // measure 16
0000
0010
0100
1000
0020
0000
0000
0000
,  // measure 17
0130
0001
0010
0001
0100
0010
0100
0001
,  // measure 18
0010
0001
0100
0001
0010
0100
1000
0000
,  // measure 19
0010
1000
0100
1000
0010
0100
0001
0100
,  // measure 20
0010
1000
0100
1000
0010
0100
0001
0000
,  // measure 21
0010
0100
1000
0100
0010
0100
1000
0010
,  // measure 22
0100
0001
0010
0100
1000
0010
0100
0002
,  // measure 23
0000
0013
0100
1000
0001
0000
0100
0002
,  // measure 24
0000
0013
0100
1000
0001
0000
0100
0010
,  // measure 25
0200
0001
0000
0010
0000
0001
0000
0310
,  // measure 26
0000
0110
0000
0001
0000
0110
0000
1000
,  // measure 27
0001
0010
0100
0000
0010
0001
0100
0000
,  // measure 28
0001
0010
0100
1000
0000
0001
0100
0010
,  // measure 29
0200
0001
0000
0010
0000
0001
0000
0310
,  // measure 30
0000
0110
0000
1000
0000
0110
0000
1000
,  // measure 31
0001
0010
0100
0000
0010
0001
1000
0010
,  // measure 32
0000
0100
0100
0100
0110
0000
0000
1001
,  // measure 33
0000
1000
0100
0001
0100
0000
1000
0010
,  // measure 34
0000
0200
0000
0302
0000
1003
0000
1100
,  // measure 35
0000
0010
0100
0000
1100
0000
0000
1100
,  // measure 36
0000
0010
0100
0000
1100
0000
0000
1001
,  // measure 37
0000
0001
0100
1000
0100
0000
0001
1000
,  // measure 38
0000
0020
0000
0230
0000
0301
0000
0000
,  // measure 39
1000
0010
0100
0010
1000
0100
0010
0000
,  // measure 40
0100
1000
0001
0010
0100
0010
0001
1001
,  // measure 41
0000
1000
0100
0001
0100
0000
1000
0001
,  // measure 42
0000
0020
0000
0032
0000
1003
0000
0101
,  // measure 43
0000
0010
0100
0000
0110
0000
0000
0101
,  // measure 44
0000
0010
0100
0000
0110
0000
0000
1001
,  // measure 45
0000
0001
0100
1000
0100
0000
0001
1000
,  // measure 46
0000
0020
0000
0230
0000
0301
0000
0000
,  // measure 47
1000
0100
0010
0100
1000
0010
0100
0000
,  // measure 48
0220
0000
0000
0330
,  // measure 49
0101
0000
0001
1000
0000
1000
0010
0000
,  // measure 50
0010
0100
0000
0100
0001
0010
0100
1000
,  // measure 51
0010
0000
0010
0100
0000
0100
0001
0000
,  // measure 52
0001
1000
0000
1000
0100
0010
0001
0000
,  // measure 53
1100
0000
0100
0010
0000
0010
0100
0000
,  // measure 54
0011
0000
0010
0100
0000
0100
0010
0000
,  // measure 55
1001
0000
0001
1000
0000
1000
0001
0000
,  // measure 56
0010
0100
1000
0100
0010
0001
1000
0000
,  // measure 57
0001
0100
0010
0100
0001
0010
1000
0010
,  // measure 58
0001
0100
0010
0100
0001
0010
0100
0000
,  // measure 59
1000
0100
1000
0010
0001
0010
1000
0100
,  // measure 60
1000
0010
0100
0010
1000
0100
0010
0000
,  // measure 61
0101
0000
0001
0100
1000
0100
0001
0000
,  // measure 62
1010
0000
1000
0010
0001
0010
1000
0000
,  // measure 63
1001
0000
0001
0010
0100
1000
0001
0000
,  // measure 64
0102
0023
0230
1300
,  // measure 65
0022
0033
2002
0000
,  // measure 66
3003
0000
0000
0000
;

//---------------dance-single - ----------------
#NOTES:
     dance-single:
     :
     Challenge:
     9:
     0.785,0.768,0.404,0.098,0.335: // measure 1
0001
1000
0001
0010
0100
0010
0001
1000
,  // measure 2
0010
0100
0010
1000
0100
0001
0100
0000
,  // measure 3
1000
0001
1000
0100
0010
0100
1000
0001
,  // measure 4
0100
0010
0100
0001
0010
1000
0010
0000
,  // measure 5
0001
0010
1000
0010
0001
1000
0100
0000
,  // measure 6
1000
0100
0001
0100
1000
0001
0010
0000
,  // measure 7
0001
0010
1000
0010
0001
1000
0100
0010
,  // measure 8
0110
1100
0011
0110
,  // measure 9
1000
0000
0001
0100
0001
0000
0010
0000
0100
0000
1000
0000
0000
0000
1000
0000
,  // measure 10
0010
0100
0010
1000
0100
0010
0001
0001
,  // measure 11
1000
0010
0100
0010
1000
0001
0010
0100
,  // measure 12
0000
1100
0000
0011
0000
0110
0000
0000
,  // measure 13
1001
0000
1000
0100
0001
0100
1000
1100
,  // measure 14
0000
0011
0000
0110
0000
1001
0000
1000
,  // measure 15
0100
0000
0001
0000
0100
0000
1000
0000
0001
0000
1000
0001
1000
0000
0001
0000
,  // measure 16
0010
1000
0010
0001
1000
0010
0100
0000
,  // measure 17
0001
0000
1000
0001
1000
0000
0100
0000
0010
0000
0100
0000
1000
0000
0001
0000
,  // measure 18
0100
0000
0010
0100
0010
0000
1000
0000
0100
0000
0001
0000
0100
0000
1000
0000
,  // measure 19
0001
0000
0010
0100
0010
0000
0001
0000
1000
0000
0100
0000
0001
0000
0100
0000
,  // measure 20
1000
0000
0010
0100
0010
0000
1000
0000
0100
0000
0010
0000
0001
0000
0000
0000
,  // measure 21
1000
0000
0001
0100
0001
0000
1000
0000
0100
0000
0010
0000
0100
0000
1000
0000
,  // measure 22
0010
0000
0100
0010
0100
0000
0001
0000
0010
0000
0100
0000
0010
0000
0001
0000
,  // measure 23
1000
0100
0001
0100
1000
0001
0100
0001
,  // measure 24
1000
0000
0010
0100
0000
0010
0100
0000
0001
0000
1000
0001
1000
0001
1000
0000
,  // measure 25
0002
0100
0000
0100
0000
0103
0010
1000
,  // measure 26
0000
1010
0000
0110
0000
0101
0000
0000
,  // measure 27
0020
0000
0130
0001
2000
0000
3001
0010
,  // measure 28
0100
0010
0001
1000
0000
0001
0010
0100
,  // measure 29
2000
0010
0000
0010
0000
3010
0000
0101
,  // measure 30
0000
1010
0000
0110
0000
1000
0100
0010
,  // measure 31
0110
0000
0000
0000
0010
0000
0100
0000
0001
1000
0001
1000
0001
1000
0001
0000
,  // measure 32
0000
0100
0100
0100
0110
0000
0000
1001
,  // measure 33
0000
1000
0010
0100
0010
1000
0001
0101
,  // measure 34
0000
1100
0000
0110
0000
1001
0000
1000
,  // measure 35
0001
0000
0010
0000
0100
0000
0000
0000
1000
0010
1000
0000
0000
0000
0001
0000
,  // measure 36
1000
0000
0100
0000
0010
0000
0000
0000
0001
0100
0001
0000
0000
0000
1001
0000
,  // measure 37
0000
1000
0100
0001
0100
1000
0001
0011
,  // measure 38
0000
0110
0000
1010
0000
1001
0000
0000
,  // measure 39
0001
0000
0100
0000
0010
0100
0010
0000
0100
0000
0001
0000
0010
0000
0100
0000
,  // measure 40
1000
0000
0001
0000
0100
0000
0001
0000
1000
0000
0010
0100
0010
0100
0010
0000
,  // measure 41
0000
1000
0100
0001
0100
1000
0001
0101
,  // measure 42
0000
0110
0000
1100
0000
1001
0000
1000
,  // measure 43
0100
0000
0001
0000
0100
0000
1000
0000
0001
1000
0001
0000
1000
0000
0001
0000
,  // measure 44
0010
0000
1000
0000
0010
0000
0001
0000
1000
0001
1000
0000
0010
0000
0110
0000
,  // measure 45
0000
0000
0100
0000
0001
0100
0001
0000
0010
0000
0100
0000
1000
0000
0010
0000
,  // measure 46
1000
0000
0100
0010
0100
0010
0100
0010
0100
0010
0001
0000
1000
0000
0000
0000
,  // measure 47
0001
0000
0010
0000
0100
1000
0100
1000
0010
0000
0100
0000
0010
0100
0010
0000
,  // measure 48
0220
0000
0000
0330
,  // measure 49
1000
0001
1000
0001
1000
0000
0001
0000
0010
0000
0100
0000
1000
0000
0010
0000
,  // measure 50
0001
0000
0010
0000
1000
0000
0001
0000
0100
0010
0100
0000
0001
1000
0001
0000
,  // measure 51
1000
0100
1000
0100
1000
0000
0001
0000
0010
0000
1000
0000
0010
0000
0001
0000
,  // measure 52
1000
0000
0100
0000
0010
0000
0001
0000
0100
0001
0100
0000
0010
0100
0010
0000
,  // measure 53
1000
0001
1000
0001
1000
0000
0001
0000
0001
0000
0100
0000
0010
0000
1000
0000
,  // measure 54
0001
0010
0001
0010
0001
0000
1000
0000
1000
0000
0010
0000
0100
0000
0001
0000
,  // measure 55
1000
0100
1000
0100
1000
0000
0001
0000
0010
0000
0100
0000
1000
0000
0001
0000
,  // measure 56
0100
0010
0100
0000
0001
0000
0010
0000
0100
0000
1000
0001
1000
0001
1000
0000
,  // measure 57
0001
0000
0010
0100
0010
0000
0001
0000
1000
0100
1000
0000
0001
0000
0010
0100
,  // measure 58
0010
0000
0001
0000
0100
0010
0100
0000
0001
0000
0010
0100
0010
0100
0010
0100
,  // measure 59
1000
0000
0010
0100
0010
0000
1000
0000
0100
0010
0100
0000
1000
0000
0001
1000
,  // measure 60
0001
0000
0010
0000
0100
0010
0100
0000
1000
0000
0100
0010
0100
0010
0100
0010
,  // measure 61
0001
0000
1000
0010
1000
0000
0001
0000
0100
0001
0100
0000
0010
0000
1000
0000
,  // measure 62
0100
0000
0010
0001
0010
0000
0100
0000
1000
0100
1000
0000
0010
0000
0100
0000
,  // measure 63
0001
0000
1000
0100
1000
0000
0100
0000
0010
0001
0010
0000
0100
0000
1000
0001
,  // measure 64
1000
1100
0110
0011
,  // measure 65
0220
0330
2002
0000
,  // measure 66
3003
0000
0000
0000
;

//---------------dance-single - ----------------
#NOTES:
     dance-single:
     :
     Beginner:
     2:
     0.163,0.286,0.128,0.000,0.000:
1000
0000
0000
0000
,
0000
0000
0000
0000
,
1000
0000
0000
0000
,
0000
0000
0000
0000
,
0001
0000
0000
0000
,
0001
0000
0000
0000
,
0001
0000
0000
0000
,
1000
0000
0000
0000
,
1001
0000
0000
0000
,
0010
0000
0000
0000
,
0100
0000
0000
0000
,
0010
0000
0000
0000
,
0001
0000
0000
0000
,
1000
0000
0000
0000
,
0001
0000
1000
0000
,
0001
0000
0000
0000
,
0100
0000
0100
0000
,
0100
0000
0100
0000
,
0010
0000
0010
0000
,
0010
0000
0010
0000
,
0100
0000
0100
0000
,
0100
0000
0100
0000
,
0010
0000
0000
0000
,
0100
0000
0000
0000
,
1001
0000
0000
0000
,
1000
0000
0000
0000
,
0001
0000
0000
0000
,
1000
0000
0000
0000
,
0010
0000
0100
0000
,
0010
0000
0100
0000
,
0010
0000
0000
0000
,
0110
0000
0000
0000
,
1000
0000
0001
0000
,
1000
0000
0100
0000
,
0010
0000
0010
0000
,
0001
0000
0001
0000
,
0100
0000
0010
0000
,
0100
0000
0001
0000
,
1000
0000
1000
0000
,
1000
0000
1000
0000
,
1001
0000
0001
0000
,
1000
0000
0001
0000
,
0010
0000
0100
0000
,
0010
0000
0100
0000
,
1000
0000
1000
0000
,
0001
0000
0001
0000
,
0100
0000
0000
0000
,
1001
0000
0000
0000
,
0001
0000
1000
0000
,
0001
0000
1000
0000
,
0100
0000
0010
0000
,
0100
0000
0010
0000
,
0001
0000
0100
0000
,
0010
0000
1000
0000
,
0100
0000
0010
0000
,
0001
0000
0001
0000
,
1001
0000
0100
0000
,
0010
0000
0100
0000
,
1000
0000
0001
0000
,
1000
0000
0010
0000
,
0110
0000
0100
0000
,
0110
0000
0010
0000
,
0110
0000
1000
0000
,
1001
0000
1001
0000
,
1001
0000
1001
0000
;
