#TITLE:MATSURI D/A;
#SUBTITLE:;
#ARTIST:Vincent;
#TITLETRANSLIT:;
#SUBTITLETRANSLIT:;
#ARTISTTRANSLIT:;
#CREDIT:DigiMindAxel;
#BANNER:MATSURI DA.png;
#BACKGROUND:MATSURI DA-bg.png;
#LYRICSPATH:;
#CDTITLE:TAIKO NO TATSUJIN.png;
#MUSIC:MATSURI DA.mp3;
#OFFSET:-8.005;
#SAMPLESTART:15.374;
#SAMPLELENGTH:12.000;
#SELECTABLE:YES;
#BPMS:0.000=130.000;
#STOPS:;
#BGCHANGES:;

//---------------dance-single - ----------------
#NOTES:
     dance-single:
     :
     Easy:
     2:
     0.152,0.218,0.078,0.173,0.000:
2002
0000
3003
0000
,
0200
0000
0300
0000
,
0010
0000
0100
0000
,
0010
0010
0010
0000
,
1001
0000
0100
0000
,
1000
0000
0001
0000
,
1000
0000
0100
0000
,
1000
0000
0001
0000
,
0010
0000
0001
0000
,
0010
0000
0001
0000
,
1000
0000
0001
0000
,
0010
0000
0001
0000
,
1001
0000
0100
0000
,
1000
0000
0100
0000
,
0010
0000
0001
0000
,
0010
0000
0001
0000
,
1000
0000
0010
0000
,
1000
0000
0010
0000
,
0100
0000
0001
0000
,
0100
0000
0001
0000
,
2000
0000
0000
0000
,
3100
0000
0010
0000
,
0200
0000
0000
0000
,
0310
0000
0001
0000
,
0020
0000
0000
0000
,
0031
0000
1000
0000
,
0002
0000
0000
0000
,
1003
0000
0010
0000
,
0100
0000
0010
0000
,
0100
0000
0000
0000
,
0002
0000
0000
0003
,
2000
0000
0000
3000
,
1001
0000
1000
0000
,
0001
0000
1000
0000
,
0100
0000
0010
0000
,
0100
0000
1000
0000
,
0001
0000
1000
0000
,
0001
0000
0100
0000
,
0010
0000
0100
0000
,
0001
0000
0000
0000
,
1001
0000
0000
0000
,
0110
0000
0000
0000
,
1001
0000
0000
0000
,
0110
0000
0000
0000
,
1001
0000
0001
0000
,
1000
0000
0001
0000
,
0010
0000
0100
0000
,
0010
0000
0001
0000
,
2000
0000
0000
0000
,
3002
0000
0000
0000
,
2003
0000
0000
0000
,
3002
0000
0000
0000
,
2003
0000
3200
0000
,
2300
0000
3002
0000
,
0023
0000
0032
0000
,
2003
0000
0000
0000
,
3000
0000
0000
0000
;

//---------------dance-single - ----------------
#NOTES:
     dance-single:
     :
     Medium:
     5:
     0.384,0.410,0.216,0.233,0.000:
0002
0000
0000
0000
,
0203
0000
0310
1000
,
0001
0001
1001
1000
,
1001
1001
1001
0000
,
0020
0000
0130
0000
0001
1000
0001
0000
,
0200
0000
0310
0000
1000
0001
1000
0000
,
0020
0000
0130
0000
0001
1000
0001
0000
,
0200
0000
0310
0000
1000
0001
1000
0000
,
0200
0000
1300
0000
0010
0100
0010
0000
,
2000
0000
3001
0000
0100
0001
0100
0000
,
0002
0000
0013
0000
0001
1000
0001
0000
,
0200
0000
0310
0000
1000
0001
1000
0001
,
2000
0000
3010
0000
0100
0010
0100
0000
,
0002
0000
0103
0000
0010
0100
0010
0000
,
2000
0000
3001
0000
0010
0001
0010
0000
,
0002
0000
1003
0000
0100
1000
0100
0000
,
2000
0000
3010
0000
0100
0001
0100
0000
,
0002
0000
1003
0000
0010
0100
0010
0000
,
2000
0000
3010
0000
0100
0010
0100
0000
,
0002
0000
0103
0000
0010
0100
0010
0100
,
0001
0001
0010
0010
,
0100
0100
1000
1000
,
0010
0010
0100
0100
,
0001
0001
1000
1000
,
0100
0100
0010
0010
,
0001
0001
1000
1000
,
0010
0010
0010
0010
,
0100
0010
0100
0001
,
1000
0001
1000
0100
,
0010
0001
0010
0000
0100
1000
0100
0000
,
1000
0001
1000
0001
1000
0001
1000
0001
,
2000
0001
0001
3001
,
1001
0100
1100
0010
,
0001
0000
0100
0010
1000
0000
0001
0000
,
0101
0100
0101
0010
,
1000
0000
0100
1000
0100
1000
0100
1000
,
0100
0010
0110
0001
,
1000
0000
0001
0100
0001
0000
1000
0000
,
1100
0010
0110
0100
,
0101
0010
0110
1000
,
2002
3003
1100
0000
,
2002
3003
0011
0000
,
2002
3003
1010
0000
,
2002
3003
0101
0110
,
0000
0100
0000
0100
0000
0010
0000
0010
,
0000
0001
0000
0001
0000
1000
0100
1000
,
0000
0010
0000
0010
0000
0100
0000
0100
,
0000
0001
0000
0001
0000
1000
0001
1000
,
0010
0010
0010
0010
,
0110
0100
0100
0100
,
0110
0010
0010
0010
,
0110
0100
0100
0100
,
0001
1000
0001
1000
0001
1000
0001
1000
,
0100
1000
0100
1000
0100
1000
0100
1000
,
0001
0100
0001
0100
0001
0100
0001
0100
,
0010
0100
0010
0100
0010
0100
0010
1000
;

//---------------dance-single - ----------------
#NOTES:
     dance-single:
     :
     Hard:
     8:
     0.571,0.580,0.250,0.285,0.518: // measure 1
2001
0000
0000
0200
0000
0000
0000
0000
0000
0000
0000
0000
3300
0000
0000
0000
,  // measure 2
0020
0000
0000
0100
0000
0000
0000
0130
0000
0000
0001
0000
1000
0000
0100
1000
,  // measure 3
0100
0101
1001
1010
,  // measure 4
1001
0000
0000
0000
0110
0000
0000
0000
1001
0000
1000
0000
0010
1000
0010
1000
,  // measure 5
0020
0000
0000
0130
0000
0001
0000
1000
0000
0000
0001
0000
1000
0000
0000
0000
,  // measure 6
0020
0000
0000
0130
0000
0001
0000
1000
0000
0000
0100
0000
0010
0000
0000
0000
,  // measure 7
0002
0000
0000
0013
0000
0100
0000
0010
0000
0000
0001
0000
1000
0000
0000
0000
,  // measure 8
0020
0000
0000
1030
0000
0010
0000
0100
0000
0000
0010
0000
1000
0000
0000
0000
,  // measure 9
0200
0000
0000
0310
0000
0001
0000
1000
0000
0000
0010
0000
0100
0000
0000
0000
,  // measure 10
0020
0000
0000
0130
0000
0001
0000
0010
0000
0100
1000
0000
0001
0000
0000
0000
,  // measure 11
0020
0000
0000
0031
0000
1000
0000
0100
0000
0000
0010
0000
0100
0000
0000
0000
,  // measure 12
2000
0000
0000
3001
0000
0100
0000
0010
0000
1000
0001
0000
1000
0001
1000
0001
,  // measure 13
2000
0000
0000
3001
0000
0010
0000
0200
0000
0000
0310
0000
0001
1000
0001
1000
,  // measure 14
0002
0000
0000
0103
0000
0010
0000
0100
0000
0010
1000
0000
1001
0000
0000
0000
,  // measure 15
0002
0000
0000
1003
0000
0100
0000
0020
0000
0000
0130
0000
1000
0000
0000
0000
,  // measure 16
0020
0000
0000
0130
0000
0001
0000
1000
0000
0001
0100
0000
0020
0000
0000
0000
,  // measure 17
2030
0000
0000
3010
0000
0100
0000
0002
0000
0000
1003
0010
1000
0000
0001
0000
,  // measure 18
0200
0000
0000
0301
0000
0010
0000
0100
0000
1000
0001
0000
0100
0010
0100
0010
,  // measure 19
0200
0000
0000
0301
0000
1000
0000
0020
0000
0000
0130
0000
0010
0000
0000
0000
,  // measure 20
2000
0000
0000
3001
0000
1000
0000
0010
0000
0100
0001
0000
1000
0100
1000
0100
,  // measure 21
2000
0001
0000
0010
0000
3001
1000
0010
,  // measure 22
0000
0000
0100
0000
0100
0000
0100
0000
0001
0000
0000
0001
0000
0000
0001
0000
,  // measure 23
2000
0100
0000
0001
0000
3100
1000
0010
,  // measure 24
0100
0000
0000
0110
0000
0000
0100
0000
0000
0110
0000
0000
0010
0000
0100
0000
,  // measure 25
0002
1000
0000
0100
0000
1003
0001
0010
,  // measure 26
0000
0000
0100
0000
0100
0000
0100
0000
0010
0000
0000
0010
0000
0000
0010
0000
,  // measure 27
0001
0000
0001
0000
0100
0000
0100
0000
0010
1000
0010
1000
0010
0000
1000
0000
,  // measure 28
0001
0000
0010
0000
0100
0000
1000
0000
0020
0000
0100
0000
0000
0130
0000
0000
,  // measure 29
0110
0000
0100
0000
0001
0000
0001
0000
1000
0000
0000
1000
0000
0000
1000
0000
,  // measure 30
0001
0100
0001
0100
0010
1000
0010
1000
,  // measure 31
0001
1000
0001
1000
0001
1000
0001
1000
,  // measure 32
0001
0000
0010
0000
0100
0000
1000
0000
0010
0100
0010
0100
0010
0100
0010
0100
,  // measure 33
0010
0000
0000
1000
0010
0000
0000
1000
0001
0000
0000
1000
0010
0000
0000
0100
,  // measure 34
0000
0001
0010
0100
0010
0001
0100
0000
,  // measure 35
1001
0000
0000
0001
0010
0000
0000
0001
1000
0000
0000
0001
0010
0000
0000
0100
,  // measure 36
0000
1000
1000
0010
0010
0100
0100
0010
,  // measure 37
0010
0000
0000
1000
0001
0000
0000
0100
0010
0000
0000
1000
0001
0000
0000
0010
,  // measure 38
0000
0001
0100
0010
0100
0001
0010
0000
,  // measure 39
1001
0000
0000
1000
0001
0000
0000
0010
0100
0000
0000
1000
0001
0000
0000
0000
,  // measure 40
0010
0100
0010
0000
0001
0100
0001
0000
0100
0010
0100
0000
0001
1000
0001
0000
,  // measure 41
2002
0000
0000
0000
3003
0000
0000
0010
0001
0000
0000
0000
0000
0000
0000
0000
,  // measure 42
1001
0000
0000
0001
0000
1000
0000
0010
1000
0000
0000
0000
0000
0000
0000
0000
,  // measure 43
2002
0000
0000
0000
3003
0000
0000
0100
1000
0000
0000
0000
0000
0000
0000
0000
,  // measure 44
1001
0000
0000
1000
0000
0001
0000
1000
0020
0000
0000
0000
0130
0010
0100
0010
,  // measure 45
0100
0001
0010
0001
0100
0001
0010
0001
,  // measure 46
1000
0100
0010
0100
1000
0100
0010
0100
,  // measure 47
1000
0001
0100
0001
1000
0001
0100
0001
,  // measure 48
1000
0000
0001
0000
0010
0000
0100
0000
0010
0000
0001
0000
0100
0010
0100
0010
,  // measure 49
0100
0101
0110
0101
,  // measure 50
0110
0000
1010
0000
0100
0001
0010
0100
,  // measure 51
1100
0110
1100
0110
,  // measure 52
0101
0000
0110
0000
0101
0010
0100
1000
,  // measure 53
0001
0001
1000
1000
0001
0001
1000
1000
,  // measure 54
0010
0010
0100
0100
0010
0010
0100
0100
,  // measure 55
0001
0001
0010
0010
0100
0100
1000
1000
,  // measure 56
0010
0100
0010
0100
0010
0100
0010
0100
0010
0100
0010
0100
0010
0100
0010
0100
;

//---------------dance-single - ----------------
#NOTES:
     dance-single:
     :
     Beginner:
     1:
     0.109,0.192,0.121,0.000,0.000:
1001
0000
0000
0000
,
1000
0000
0000
0000
,
1001
0000
0001
0000
,
0001
0000
0000
0000
,
1001
0000
0000
0000
,
0100
0000
0000
0000
,
0100
0000
0000
0000
,
0100
0000
0000
0000
,
0010
0000
0000
0000
,
0010
0000
0000
0000
,
0010
0000
0000
0000
,
0010
0000
0000
0000
,
0110
0000
0000
0000
,
0001
0000
0000
0000
,
1000
0000
0000
0000
,
0001
0000
0000
0000
,
0100
0000
0000
0000
,
0010
0000
0000
0000
,
1000
0000
0000
0000
,
0010
0000
0000
0000
,
0110
0000
0000
0000
,
0000
0000
0000
0000
,
0001
0000
0000
0000
,
0000
0000
0000
0000
,
0010
0000
0000
0000
,
0000
0000
0000
0000
,
0100
0000
0000
0000
,
0000
0000
0000
0000
,
1000
0000
0000
0000
,
0001
0000
1000
0000
,
0001
0000
1000
0000
,
1001
0000
0000
0000
,
0010
0000
0010
0000
,
0010
0000
0000
0000
,
0100
0000
0100
0000
,
0100
0000
0000
0000
,
0010
0000
0010
0000
,
0010
0000
0000
0000
,
0100
0000
0100
0000
,
0100
0000
0000
0000
,
0110
0000
0001
0000
,
0110
0000
1000
0000
,
0110
0000
0001
0000
,
0110
0000
0000
0000
,
1001
0000
1000
0000
,
0001
0000
0100
0000
,
0001
0000
1000
0000
,
0010
0000
1000
0000
,
0001
0000
0001
0000
,
0001
0000
0001
0000
,
1001
0000
1000
0000
,
1000
0000
1000
0000
,
1001
0000
0001
0000
,
1000
0000
0001
0000
,
0110
0000
0100
0000
,
0010
0000
0100
0000
;
