#TITLE:LUV CAN SAVE U;
#SUBTITLE:;
#ARTIST:長沼英樹;
#TITLETRANSLIT:;
#SUBTITLETRANSLIT:;
#ARTISTTRANSLIT:HIDEKI NAGANUMA;
#CREDIT:DigiMindAxel;
#BANNER:LUV CAN SAVE U.png;
#BACKGROUND:LUV CAN SAVE U-bg.png;
#LYRICSPATH:;
#CDTITLE:beatmania IIDX.png;
#MUSIC:LUV CAN SAVE U.mp3;
#OFFSET:-7.040;
#SAMPLESTART:20.737;
#SAMPLELENGTH:12.000;
#SELECTABLE:YES;
#BPMS:0.000=140.000;
#STOPS:;
#BGCHANGES:-20.000=LUV CAN SAVE U.avi=1.000=1=1=0,
99999=-nosongbg-=1.000=0=0=0 // don't automatically add -songbackground-
;

//---------------dance-single - ----------------
#NOTES:
     dance-single:
     :
     Easy:
     3:
     0.228,0.255,0.047,0.126,0.000:
0001
1000
0001
0000
,
0010
0001
0010
0000
,
0100
1000
0100
0000
,
0010
0100
0010
0000
,
0001
1000
0001
0000
,
1000
0001
1000
0000
,
0100
0010
0100
0000
,
0010
0001
0010
0000
,
0001
0001
0001
0001
,
1000
1000
1000
1000
,
0001
0001
0001
0001
,
1000
1000
1000
1000
,
0100
0100
0100
0100
,
0010
0010
0010
0010
,
0001
0001
0001
0001
,
1000
1000
1000
1000
,
0020
0000
0000
0000
,
0230
0000
0000
0000
,
0320
0000
0000
0000
,
0230
0000
0300
0000
,
0001
1000
0001
1000
,
0100
1000
0100
1000
,
0010
0100
0010
0100
,
0001
0010
0001
0010
,
0001
1000
0001
1000
,
0100
1000
0100
1000
,
0220
0000
0330
0000
,
2002
0000
3003
0000
,
0001
1000
0001
0000
,
0010
0001
0010
0000
,
0100
1000
0100
0000
,
0010
0100
0010
0000
,
0001
0100
0010
0000
,
0100
0010
1000
0000
,
0010
0100
0010
0000
,
1000
0100
0010
0000
,
0100
0010
0001
0000
,
0010
0100
1000
0000
,
0010
0010
0000
0000
,
0100
0100
0000
0000
,
0001
0001
0000
0000
,
1000
1000
0000
0000
,
0001
0001
0000
0000
,
1000
1000
0000
0000
,
0020
0000
0000
0000
,
0230
0000
0000
0000
,
0302
0000
0000
0000
,
0023
0000
0030
0000
,
0200
0000
0000
0300
,
1001
1000
0001
0000
,
1000
0100
1000
0000
,
0010
0100
0010
0000
,
1000
0001
1000
0000
,
0001
0010
0001
0000
,
0010
0100
0010
0000
,
2002
0000
3003
0000
,
0200
0000
0000
0310
,
0110
0010
0010
0010
,
0100
0100
0100
0100
,
0010
0010
0010
0010
,
1000
1000
1000
1000
,
0001
0001
0001
0001
,
0010
0010
0010
0010
,
0110
0000
0000
0000
,
0100
0000
0000
0000
,
0100
0000
0000
0000
;

//---------------dance-single - ----------------
#NOTES:
     dance-single:
     :
     Medium:
     5:
     0.303,0.306,0.071,0.102,0.008:
0001
0100
0010
0100
,
0001
0100
0010
0100
,
0001
0010
0100
1000
,
0010
0100
0010
1000
,
0100
0010
0100
1000
,
0100
0010
0100
1000
,
0110
0000
0000
0110
0000
0000
0000
0000
,
0001
1000
0001
1000
,
0010
0010
0010
0000
0000
0000
0000
0000
,
0100
0100
0100
0000
0000
0000
0000
0000
,
0010
0010
0010
0000
0000
0000
0000
0000
,
1000
1000
1000
0000
0000
0000
0000
0000
,
0001
0001
0001
0000
0000
0000
0000
0000
,
1000
1000
1000
0000
0000
0000
0000
0000
,
0001
0001
0001
0000
0000
0000
0000
0000
,
0010
0010
0010
0000
0100
0100
0100
0000
,
0010
0001
0010
0001
,
0100
0010
0100
0010
,
1000
0100
1000
0100
,
0010
0001
1000
0000
,
0001
1000
0001
0000
0010
0000
0001
0000
,
0100
0010
0100
0000
0010
0000
1000
0000
,
0100
1000
0100
0000
1000
0000
0001
0000
,
0010
0001
0010
0000
0100
0000
0010
0000
,
0100
1000
0100
0000
1000
0000
0100
0000
,
0010
0001
0010
0000
0001
0000
1000
0000
,
0110
0000
0000
0110
0000
0000
0000
0000
,
0100
0010
0100
0010
,
1000
0100
0010
0000
0001
0000
1000
0000
,
0001
0010
0100
0000
1000
0000
0001
0000
,
1000
0010
0100
0000
0001
0000
1000
0000
,
0001
0100
0010
0000
1000
0000
0001
0000
,
1000
0100
0010
0000
0001
0000
1000
0000
,
0001
0010
0100
0000
1000
0000
0001
0000
,
1000
0010
0100
0000
0001
0000
1000
0000
,
0001
0100
0010
0000
1000
0001
1000
0000
,
0002
0103
0000
0000
,
0200
0310
0000
0000
,
0020
1030
0000
0000
,
2000
3001
0000
0000
,
0002
0013
0000
0000
,
0020
0130
0000
0000
,
0200
1300
0000
0000
,
2000
0000
3001
0000
0100
0010
0100
0000
,
0001
0010
0100
1000
,
0001
0010
0100
1000
,
0010
0100
0001
1000
,
0010
0100
0001
0000
,
1000
1001
0000
0000
,
1000
0100
0010
0000
0100
0000
1000
0000
,
0001
0010
0100
0000
0010
0000
0001
0000
,
1000
0010
0100
0000
0010
0000
1000
0000
,
0001
0100
0010
0000
0100
0000
0001
0000
,
0010
0100
1000
0000
0010
0000
0100
0000
,
0001
0010
0100
0000
1000
0000
0001
0000
,
1001
0000
0000
1001
0000
0000
0000
0000
,
1000
0001
1000
0010
,
0110
0100
0100
0100
,
0001
0010
0100
1000
,
0100
0100
0100
0100
,
1000
0010
0100
0001
,
0020
0000
0000
0000
0000
0000
0100
0000
0000
0000
0100
0000
0000
0130
0000
0000
,
0200
0000
0000
0000
0000
0000
1000
0000
0000
0000
1000
0000
0000
1300
0000
0000
,
2002
0000
0000
3000
,
0200
0000
0000
0303
,
0100
0000
0000
0000
;

//---------------dance-single - ----------------
#NOTES:
     dance-single:
     :
     Hard:
     8:
     0.556,0.561,0.314,0.110,0.337: // measure 1
1000
0000
0000
1000
0001
0000
0010
0000
0100
0000
0010
0000
0001
0000
0000
0000
,  // measure 2
0010
0000
0000
0010
0100
0000
1000
0000
0100
0000
0010
0000
0001
0000
0000
0000
,  // measure 3
0100
0000
0000
0100
0001
0000
1000
0000
0010
0000
0100
0000
0001
0000
0000
0000
,  // measure 4
0010
0000
0000
0010
0100
0000
0010
0000
0001
0000
1000
0000
0100
0000
0000
0000
,  // measure 5
1001
0000
0000
0001
1000
0000
0100
0000
0010
0000
0100
0000
1000
0000
0000
0000
,  // measure 6
0010
0000
0000
0010
0100
0000
0010
0000
0001
0000
0010
0000
0100
0000
0000
0000
,  // measure 7
1100
0000
0000
1100
0000
0000
1100
0000
0000
0000
0110
0000
0100
0010
0100
0000
,  // measure 8
0001
0000
0000
0001
1000
0000
0100
0000
0010
0001
0010
0000
0001
1000
0001
0000
,  // measure 9
1000
0100
0001
0100
1000
0010
0100
0000
,  // measure 10
0001
0100
1000
0100
0001
0010
0100
0000
,  // measure 11
0010
0100
1000
0100
0010
0100
1000
0000
,  // measure 12
0001
0010
0100
0010
0001
0010
0100
0000
,  // measure 13
1000
0010
0001
0010
1000
0100
0010
0000
,  // measure 14
0001
0010
1000
0010
0001
0100
0010
0000
,  // measure 15
0100
0010
1000
0010
0100
0001
1000
0000
,  // measure 16
0010
0000
0100
0000
0001
1000
0000
1000
0100
0000
1000
0000
0001
1000
0001
0000
,  // measure 17
0100
0000
0101
0000
0000
0100
1100
0000
,  // measure 18
1000
0000
1001
0000
0000
0100
0110
0000
,  // measure 19
0001
0000
1001
0000
0000
0100
0101
0000
,  // measure 20
0100
0220
0330
0000
,  // measure 21
0110
0000
0000
0010
0100
0000
1000
0000
0001
0000
0010
0000
0100
0000
0000
0000
,  // measure 22
1000
0000
0000
1000
0001
0000
0100
0000
0001
0000
0010
0000
0100
0000
0000
0000
,  // measure 23
0010
0000
0000
0010
0100
0000
1000
0000
0010
0000
0100
0000
0001
0000
0000
0000
,  // measure 24
0100
0000
0000
0100
0001
0000
1000
0000
0100
0000
0010
0000
0100
0000
0000
0000
,  // measure 25
0110
0000
0000
0100
0010
0000
0001
0000
1000
0000
0010
0000
0100
0000
0000
0000
,  // measure 26
0010
0000
0000
0010
0100
0000
0001
0000
0010
0000
0100
0000
1000
0000
0000
0000
,  // measure 27
0101
0000
0000
0101
0000
0000
0101
0000
0000
0000
0110
0000
0010
0100
0010
0000
,  // measure 28
1000
0000
0000
1000
0001
0000
0010
0000
0100
0000
1000
0000
0001
0000
0000
0000
,  // measure 29
1000
0000
1000
0000
0001
0100
0000
0001
0100
0000
1001
0000
0000
0000
0000
0000
,  // measure 30
0001
0000
0001
0000
1000
0100
0000
1000
0100
0000
1001
0000
0000
0000
0000
0000
,  // measure 31
0100
0000
0100
0000
0001
1000
0000
0001
1000
0000
0110
0000
0000
0000
0000
0000
,  // measure 32
0010
0000
0010
0000
1000
0001
0000
1000
0001
0000
0110
0000
0000
0000
0000
0000
,  // measure 33
1000
0000
1000
0000
0100
0010
0000
0100
0010
0000
0101
0000
0000
0000
0000
0000
,  // measure 34
0001
0000
0001
0000
0010
0100
0000
0010
0100
0000
1010
0000
0000
0000
0000
0000
,  // measure 35
0100
0000
0100
0000
0001
1000
0000
0001
1000
0000
0110
0000
0000
0000
0000
0000
,  // measure 36
0010
0000
0010
0000
1000
0001
0000
1000
0001
0000
0010
0000
0100
1000
0100
0000
,  // measure 37
1000
1000
0002
0000
0100
0000
0013
0000
,  // measure 38
0001
0001
2000
0000
0100
0000
3010
0000
,  // measure 39
1000
1000
0002
0000
0010
0000
0103
0000
,  // measure 40
0001
0001
2000
0000
0010
0000
3100
0000
,  // measure 41
0001
0000
0101
0000
0000
1000
1100
0000
,  // measure 42
0010
0000
0110
0000
0000
0001
0101
0000
,  // measure 43
1000
0000
1100
0000
0000
0100
0110
0000
,  // measure 44
0001
0000
0000
0000
1001
0000
0000
0000
0001
0000
0001
0000
0100
0010
0000
0000
,  // measure 45
1000
0000
0001
1000
0001
0000
1000
0010
0000
1000
0010
0000
1000
0000
1000
0000
,  // measure 46
0001
0000
1000
0001
1000
0000
0001
0100
0000
0001
0100
0000
0001
0000
0001
0000
,  // measure 47
1000
0000
0010
0100
0010
0000
1000
0001
0000
1000
0001
0000
0100
0000
0100
0000
,  // measure 48
0001
0000
0010
0100
0010
0000
0001
1000
0000
0001
1000
0000
0010
0000
0010
0000
,  // measure 49
0100
0000
0000
0000
1001
0000
0001
0100
0001
0000
0000
0000
1000
0010
1000
0000
,  // measure 50
1001
0000
0000
1000
0100
0000
0000
0100
0010
0000
0000
0010
0100
0000
0000
0000
,  // measure 51
0001
0000
0000
0001
0100
0000
0000
0100
0010
0000
0000
0010
1000
0000
0000
0000
,  // measure 52
0100
0000
0000
0100
0010
0000
0000
0010
0001
0000
0000
0001
1000
0000
0000
0000
,  // measure 53
0100
0000
0000
0100
0010
0000
0000
0010
1000
0000
0000
1000
0001
0000
0000
0000
,  // measure 54
1001
0000
0000
0001
0100
0000
0000
0100
1000
0000
0000
1000
0001
0000
0000
0000
,  // measure 55
1000
0000
0000
1000
0010
0000
0000
0010
0001
0000
0000
0001
1000
0000
0000
0000
,  // measure 56
1001
0000
0000
1001
0000
0000
0110
0000
0000
0000
0110
0000
0100
0010
0100
0000
,  // measure 57
0001
0000
0000
0001
1000
0000
0100
0000
0010
0001
0010
0000
0001
1000
0001
0000
,  // measure 58
1000
0000
0010
1000
0010
0000
1000
0000
0001
0000
0010
0000
0100
0000
0100
0000
,  // measure 59
0001
0000
0010
0100
0010
0000
0001
0000
1000
0000
0010
0000
0100
0000
0100
0000
,  // measure 60
0010
0000
1000
0001
1000
0000
0100
0000
0010
0000
0001
0000
0100
0000
0100
0000
,  // measure 61
0010
0000
1000
0010
1000
0000
0100
0000
0010
0000
0001
0000
0100
0000
0100
0000
,  // measure 62
0002
0000
0000
0010
0000
0000
0023
0000
0000
0000
0100
0000
0000
0130
0000
0000
,  // measure 63
2000
0000
0000
0010
0000
0000
3020
0000
0000
0000
0100
0000
0000
0130
0000
0000
,  // measure 64
2002
0000
0000
3003
,  // measure 65
0020
0200
0000
0330
,  // measure 66
0100
0000
0000
0000
;

//---------------dance-single - ----------------
#NOTES:
     dance-single:
     :
     Beginner:
     1:
     0.077,0.102,0.086,0.000,0.000:
1001
0000
0000
0000
,
1000
0000
0000
0000
,
0001
0000
0000
0000
,
1000
0000
0000
0000
,
0001
0000
0000
0000
,
0010
0000
0000
0000
,
0100
0000
0000
0000
,
1000
0000
0000
0000
,
1001
0000
0000
0000
,
0001
0000
0000
0000
,
1000
0000
0000
0000
,
0001
0000
0000
0000
,
0110
0000
0000
0000
,
0100
0000
0000
0000
,
0010
0000
0000
0000
,
0100
0000
1000
0000
,
0001
0000
0000
0000
,
0000
0000
0000
0000
,
0001
0000
0000
0000
,
0000
0000
0000
0000
,
1001
0000
0000
0000
,
1000
0000
0000
0000
,
0001
0000
0000
0000
,
1000
0000
0000
0000
,
0110
0000
0000
0000
,
0100
0000
0000
0000
,
0010
0000
0000
0000
,
0100
0000
0000
0000
,
1000
0000
0000
0000
,
1000
0000
0000
0000
,
1000
0000
0000
0000
,
1000
0000
0000
0000
,
0001
0000
0000
0000
,
0001
0000
0000
0000
,
0001
0000
0000
0000
,
0001
0000
0000
0000
,
1001
0000
0000
0000
,
0000
0000
0000
0000
,
1000
0000
0000
0000
,
0000
0000
0000
0000
,
0001
0000
0000
0000
,
0000
0000
0000
0000
,
0100
0000
0000
0000
,
0000
0000
0000
0000
,
0010
0000
0000
0000
,
0000
0000
0000
0000
,
1000
0000
0000
0000
,
0000
0000
0000
0000
,
0000
1001
0000
0000
,
0001
0000
0000
0000
,
1000
0000
0000
0000
,
0001
0000
0000
0000
,
1000
0000
0000
0000
,
0110
0000
0000
0000
,
0010
0000
0000
0000
,
0110
0000
0000
0000
,
0100
0000
0000
0000
,
1001
0000
0000
0000
,
0001
0000
0000
0000
,
0001
0000
0000
0000
,
0001
0000
0000
0000
,
1000
0000
0000
0000
,
1000
0000
0000
0000
,
1001
0000
0000
0000
,
0000
0000
0000
0000
,
1000
0000
0000
0000
;
