#TITLE:Jailbreak;
#SUBTITLE:;
#ARTIST:Kozo Nakamura;
#TITLETRANSLIT:;
#SUBTITLETRANSLIT:;
#ARTISTTRANSLIT:;
#CREDIT:DigiMindAxel;
#BANNER:Jailbreak.png;
#BACKGROUND:Jailbreak-bg.png;
#LYRICSPATH:;
#CDTITLE:jubeat.png;
#MUSIC:Jailbreak.mp3;
#OFFSET:-10.370;
#SAMPLESTART:25.640;
#SAMPLELENGTH:12.000;
#SELECTABLE:YES;
#BPMS:0.000=250.000;
#STOPS:280.000=0.720
,285.000=0.720
;
#BGCHANGES:;

//---------------dance-single - ----------------
#NOTES:
     dance-single:
     :
     Easy:
     4:
     0.255,0.359,0.117,0.081,0.004:
0001
0000
0010
0000
,
0100
0000
1000
0000
,
0010
0100
0010
0000
,
0100
0010
0100
0000
,
0001
0000
1000
0000
,
0100
0000
0010
0000
,
0001
1000
0001
0000
,
1000
0001
1000
0000
,
1001
0000
0000
0000
,
0010
0000
0000
0000
,
0110
0000
0000
0000
,
0100
0000
0000
0000
,
0000
0001
0000
0001
,
0000
0001
0000
0001
,
2000
0000
0000
0000
,
3001
0000
0000
0000
,
1000
0000
0100
0000
,
1000
0000
0001
0000
,
0100
0000
0001
0000
,
0010
0000
0100
0000
,
0010
0000
0001
0000
,
0010
0000
0100
0000
,
1000
0000
0100
0000
,
0010
0000
0100
0000
,
1000
0000
0001
0000
,
1000
0000
0010
0000
,
0100
0000
0010
0000
,
1000
0000
0100
0000
,
0010
0000
0001
0000
,
1000
0000
1000
0000
,
0001
0000
0010
0000
,
0100
0000
1000
0000
,
0001
0000
0000
0000
,
0000
0000
0000
1001
0000
0000
0000
0000
,
1000
0000
0000
0000
,
0000
0000
0000
1001
0000
0000
0000
0000
,
0001
0000
0000
0000
,
1000
0000
0000
0000
,
0000
0000
0220
0000
0000
0000
0000
0000
0000
0000
0000
0000
,
0330
0000
1001
0000
,
0001
0000
2000
0000
,
0000
0100
0000
3100
,
0000
0000
0020
0000
,
0000
0001
0000
0031
,
0000
0000
0200
0000
,
0000
0010
0000
0310
,
0000
0000
2000
0000
,
0001
0000
0001
3000
,
0100
0000
0010
0000
,
1000
0000
0100
0000
,
0010
0000
0001
0000
,
0010
0000
0001
0000
,
1000
0000
0100
0000
,
1000
0000
0010
0000
,
0100
0000
0001
0000
,
0010
0000
0100
0000
,
1000
0000
1000
0000
,
0100
0000
0100
0000
,
0010
0000
0010
0000
,
0001
0000
0001
0000
,
1000
0000
1000
0000
,
0001
0000
0001
0000
,
0010
0000
0100
0000
,
1000
0000
0000
0000
,
0010
0000
0100
0000
,
0010
0000
0100
0000
,
0001
0000
0010
0000
,
0100
0000
1000
0000
,
0002
0000
0000
0000
,
1003
0000
0100
0000
,
1001
1000
0000
0000
,
0000
1001
1000
0000
,
0000
0000
0001
0000
,
0000
0000
1000
0000
,
0000
0000
0020
0000
,
0000
0000
0030
0000
,
0110
0000
0010
0000
,
0010
0000
0100
0000
,
0100
0000
0001
0000
,
0010
0000
0100
0000
,
1000
0000
0001
0000
,
0001
0000
1000
0000
,
1000
0000
0100
0000
,
0010
0000
0100
0000
,
1000
0000
0001
0000
,
0001
0000
1000
0000
,
1000
0000
0001
0000
,
0010
0000
0100
0000
,
0010
0000
0001
0000
,
0100
0000
0010
0000
,
1000
0000
0100
0000
,
0010
0000
0001
0000
,
1000
0000
1001
0000
,
0000
0000
0000
0000
0000
0000
0000
1001
,
0000
0000
0001
0000
,
0000
0000
0000
0000
0000
0000
0000
1001
,
0000
0000
1000
0000
,
0000
0000
0010
0000
,
0000
0000
0100
0001
,
0010
0100
1000
0000
,
1001
0000
0000
0000
;

//---------------dance-single - ----------------
#NOTES:
     dance-single:
     :
     Medium:
     6:
     0.426,0.448,0.179,0.224,0.175:
1000
0100
1000
0000
,
0001
0100
0001
0000
,
0010
0100
1000
0010
,
0100
0001
1000
0100
,
1000
0001
1000
0000
,
0010
0100
0010
0000
,
0100
0001
0010
0100
,
1000
0001
0100
0010
,
2020
0000
0000
3030
,
0220
0000
0000
0330
,
0202
0000
0000
0303
,
0220
0000
0000
0330
,
0000
1001
0000
1001
,
0000
1001
0000
1001
,
0020
0000
0000
0000
,
0130
0000
0110
0000
,
0010
0100
0010
0000
,
1000
0100
0001
0000
,
0100
1000
0001
0000
,
1000
1000
0001
0000
,
0100
0010
0100
0000
,
0001
0100
1000
0000
,
0100
0001
1000
0000
,
0010
0010
0100
0000
,
0001
0010
0100
0000
,
1000
0010
0100
0000
,
0001
0010
0100
1000
,
0010
0010
0100
0000
,
0001
0010
0100
0000
,
1000
0100
0010
0000
,
0001
0100
0010
1000
,
0010
0010
0100
0000
,
0001
0000
0000
0000
0000
1000
0000
0000
0100
0000
0000
1000
,
0001
0000
0000
0000
0000
1001
0000
0000
0000
0000
0000
0000
,
1000
0000
0000
0000
0000
0001
0000
0000
0010
0000
0000
0001
,
1000
0000
0000
0000
0000
1001
0000
0000
0000
0000
0000
0000
,
1000
0000
0000
0000
0000
0010
0000
0000
0100
0000
0000
0000
,
0001
0000
0000
0000
0000
0100
0000
0000
0010
0000
0000
1000
,
0000
0000
0020
0000
0000
0000
0000
0000
0000
0000
0000
0000
,
0130
0000
1001
0000
,
1000
0000
0000
0000
0000
2200
0000
0000
0000
0000
0000
0000
,
0300
0001
0000
0001
,
3000
0000
0000
0000
0000
0202
0000
0000
0000
0000
0000
0000
,
0300
1000
0000
1000
,
0003
0000
0000
0000
0000
0220
0000
0000
0000
0000
0000
0000
,
0030
0001
0000
0001
,
0300
0000
0000
0000
0000
0220
0000
0000
0000
0000
0000
0000
,
0000
0000
0330
0000
,
0010
0100
0010
0000
,
1000
0100
1000
0000
,
0001
0010
0100
1000
,
0010
0100
0010
1000
,
0001
0000
0000
0100
0000
0001
0000
0000
0000
1000
0000
0100
,
0000
0000
0000
1000
0000
0001
0000
0000
0000
0000
0000
0000
,
0010
0100
1000
0001
,
0010
0100
0010
0000
,
0001
0001
1000
1000
,
0001
0001
1000
1000
,
0001
0010
0100
1000
,
0100
0010
0001
0000
,
0100
0000
0000
0001
0000
1000
0000
0000
0000
0000
0000
0000
,
0100
1000
0020
0000
,
0130
0000
0000
0001
0000
0000
0010
0000
0000
0100
0000
0020
,
0000
0000
0030
0000
,
0100
0010
0001
0010
,
0100
1000
0010
0010
,
1000
0100
0010
0001
,
0100
0010
0100
0001
,
2000
0000
0000
0000
,
3001
0000
0000
0000
0100
0000
0010
0000
0000
0000
1000
0000
,
0001
0000
0000
1000
0000
0000
0000
0000
0001
0000
0000
0001
,
0100
0001
0200
0000
,
0000
0000
0320
0000
,
0000
0000
2030
0000
,
0000
0000
0002
0000
,
0000
0000
3003
0000
,
1001
0000
0100
1000
,
0100
0000
1000
0100
,
0001
0000
0100
1000
,
0001
0010
0100
1000
,
0001
0001
0100
0010
,
0100
0000
0001
0010
,
1000
0000
0010
0001
,
0010
0100
1000
0010
,
0100
0001
1000
0100
,
0010
0000
0001
0010
,
0100
0000
1000
0100
,
0001
0100
1000
0010
,
0100
0010
1000
0010
,
0100
0000
0010
0100
,
0001
0000
1000
0010
,
0001
0010
1000
0001
,
0010
0000
0000
0100
0000
0000
1000
0000
0000
0000
0000
0010
,
0000
0000
0010
0000
0000
0010
0100
0000
0000
0000
0000
1001
,
0000
0000
0000
0000
0000
0000
0001
0000
0000
0000
0000
0100
,
0000
0000
0100
0000
0000
0100
0010
0000
0000
0000
0000
1001
,
0000
0000
0000
0000
0000
0000
1000
0000
0000
0000
0000
0010
,
0000
0000
0100
0000
0000
0000
0001
0000
0000
0000
0000
0100
,
0000
0000
0010
0000
0000
0000
1000
0000
0000
0100
0000
0000
,
0001
0100
1000
0000
,
1001
0000
0000
0000
;

//---------------dance-single - ----------------
#NOTES:
     dance-single:
     :
     Hard:
     9:
     0.645,0.762,0.224,0.323,0.775: // measure 1
0001
0000
0000
1000
0000
0010
0000
0000
0000
0100
0000
0001
,  // measure 2
0000
1000
1000
1000
,  // measure 3
0001
0001
0010
0100
,  // measure 4
1000
0000
0000
1000
0000
0000
0001
0000
0100
0001
0000
0000
,  // measure 5
1000
0000
0000
0001
0000
0010
0000
0000
0000
0100
0000
1000
,  // measure 6
0000
0010
0010
0010
,  // measure 7
1000
1000
0100
0010
,  // measure 8
0001
0000
0000
0001
0000
0000
1000
0000
0010
1000
0000
0000
,  // measure 9
0001
0000
0100
0000
0000
0001
0000
0000
0001
0100
0000
0000
,  // measure 10
0010
0000
1000
0000
0000
0002
0000
0000
0000
0003
0000
0000
,  // measure 11
1000
0000
0100
0000
0000
1000
0000
0000
1000
0001
0000
0000
,  // measure 12
0010
0000
0001
0000
0000
2000
0000
0000
0000
3000
0000
0000
,  // measure 13
0000
1100
0000
0011
,  // measure 14
0000
1100
0000
0011
,  // measure 15
0100
0000
1000
0000
0010
0000
0000
0010
0000
0000
0010
0000
,  // measure 16
0100
0000
0000
0001
1000
0001
2000
0000
0000
3000
0000
0000
,  // measure 17
0001
0000
1000
0100
0000
0000
1000
0000
0000
0000
0000
0000
,  // measure 18
1001
0000
0000
0001
0000
0100
0000
0000
0010
0000
0000
0000
,  // measure 19
1000
0000
0001
0100
0000
0000
0001
0000
0000
0000
0000
0000
,  // measure 20
0010
0000
0000
0010
0000
0000
0100
0000
1000
0000
0000
0000
,  // measure 21
0010
0000
1000
0100
0000
0000
1000
0000
0000
0000
0000
0000
,  // measure 22
1001
0000
0000
1000
0000
0010
0000
0000
0100
0000
0000
0000
,  // measure 23
0001
0000
1000
0010
0000
0000
1000
0000
0000
0000
0000
0000
,  // measure 24
0100
0000
0000
0100
0000
0000
0010
0000
0001
0000
0000
0000
,  // measure 25
0100
0000
0001
0010
0000
0000
0001
0000
0000
0000
0000
0000
,  // measure 26
1001
0000
0000
0001
0000
0100
0000
0000
0010
0000
0000
0000
,  // measure 27
1000
0000
0010
0100
0000
0000
0001
0000
0000
0100
0000
0000
,  // measure 28
1000
0000
0000
0100
0000
0000
0001
0000
1000
0000
0000
0000
,  // measure 29
0010
0000
1000
0100
0000
0000
1000
0000
0000
0000
0000
0000
,  // measure 30
1001
0000
0000
0001
0000
0100
0000
0000
0010
0000
0000
0000
,  // measure 31
1000
0000
0010
0100
0000
0000
0001
0000
0000
0010
0000
0000
,  // measure 32
1000
0000
0000
0010
0000
0000
0001
0000
1000
0000
0000
0000
,  // measure 33
0010
0000
1000
0000
0001
0000
0000
0001
0000
0000
0001
0000
,  // measure 34
0010
0000
0000
0000
0000
1001
0000
0000
0000
0000
0000
0000
,  // measure 35
0001
0000
0100
0000
0010
0000
0000
0010
0000
0000
0010
0000
,  // measure 36
0100
0000
0000
0000
0000
1001
0000
0000
0000
0000
0000
0000
,  // measure 37
1000
0000
0001
0000
0000
0100
0000
0000
0001
0000
0000
0000
,  // measure 38
0010
0000
0100
0000
0000
1000
0000
0000
0001
0000
0000
1000
,  // measure 39
0000
0000
0001
0000
0001
0000
0010
0000
0010
0000
0100
0000
,  // measure 40
0100
0000
1100
0000
,  // measure 41
0001
0000
0000
0101
0000
0002
0000
0000
0000
0000
0000
0000
,  // measure 42
0000
1000
0000
1003
,  // measure 43
0000
0000
0000
1100
0000
2000
0000
0000
0000
0000
0000
0000
,  // measure 44
0000
0001
0000
3001
,  // measure 45
0000
0000
0000
0110
0000
0020
0000
0000
0000
0000
0000
0000
,  // measure 46
0000
1000
0000
1030
,  // measure 47
0000
0000
0000
0110
0000
0200
0000
0000
0000
0000
0000
0000
,  // measure 48
0000
0000
0000
0301
0000
1000
0100
0000
0000
0000
0000
0000
,  // measure 49
2000
0100
0000
0001
,  // measure 50
0000
0100
0000
3001
,  // measure 51
1000
0000
0100
1000
0000
0000
0010
0000
0100
0001
0000
2000
,  // measure 52
0000
0000
3001
0010
0000
0001
0010
0000
0001
1000
0000
0000
,  // measure 53
0010
0000
0100
0001
0000
0101
0000
0000
1000
0100
0000
1100
,  // measure 54
0000
0000
0100
0010
0000
0110
0000
0000
0001
1000
0000
0000
,  // measure 55
0001
0000
0100
0002
0000
0000
1000
0000
0000
1003
0000
0000
,  // measure 56
0001
0000
0010
0002
0000
0000
1003
0000
0010
0100
0000
0000
,  // measure 57
0001
0000
0001
0010
0000
0000
0010
0000
0010
0100
0000
0000
,  // measure 58
1000
0000
1000
0100
0000
0000
0100
0000
0100
0010
0000
0000
,  // measure 59
0001
0000
0001
2000
0000
0000
0001
0000
0000
3001
0000
0000
,  // measure 60
0100
0000
0100
0020
0000
0000
0100
0000
0000
0130
0000
0000
,  // measure 61
0001
0000
1000
0200
0000
0000
1000
0000
0000
1300
0000
0000
,  // measure 62
0001
0000
0100
0002
0000
0000
0100
0000
0000
0103
0000
0000
,  // measure 63
0001
0000
1000
0002
0000
0000
0100
0000
0000
0103
0000
0020
,  // measure 64
0000
0000
0000
1030
0001
1000
0001
0000
0000
0000
0000
0000
,  // measure 65
1000
0000
1000
0100
0000
0000
0100
0000
0100
0010
0000
0000
,  // measure 66
0001
0000
1000
0010
0000
1000
0010
0000
1000
0010
0000
0000
,  // measure 67
0100
0000
0100
0001
0000
0000
0001
0000
0001
1000
0000
0000
,  // measure 68
0001
0000
1000
0100
0000
1000
0100
0000
1000
0100
0000
0000
,  // measure 69
2000
0001
3001
0000
,  // measure 70
1000
0000
1000
0000
0010
0000
0010
0000
0100
0000
0100
0000
,  // measure 71
0101
0000
0000
0001
0000
0010
0000
0000
0001
0000
0000
0001
,  // measure 72
1000
0000
0000
1100
0000
0000
0020
0000
0000
0000
0000
0032
,  // measure 73
0000
0000
0000
0000
0000
0000
0203
0000
0000
0000
0000
0320
,  // measure 74
0000
0000
0000
0000
0000
0000
2030
0000
0000
0000
0000
3002
,  // measure 75
0000
0000
0000
0000
0000
0000
1003
0000
1000
0000
0001
0000
,  // measure 76
0001
0000
0010
0000
0010
0000
0100
0000
0000
0000
0000
0000
,  // measure 77
1001
0000
0000
0000
0000
0000
0100
0000
0001
0010
0000
0002
,  // measure 78
0000
0000
0000
1003
0000
0100
0000
0000
1000
0001
0000
1000
,  // measure 79
0001
0000
1000
0001
0000
0000
1000
0000
0000
0100
0000
0000
,  // measure 80
0001
0100
1000
0001
,  // measure 81
0100
0010
0100
0010
0000
0000
1001
0000
0000
1000
0000
0200
,  // measure 82
0000
0000
0000
0310
0000
0002
0000
0000
0000
1003
0000
0001
,  // measure 83
1000
0000
0001
1000
0000
0000
0001
0000
0100
0020
0000
0000
,  // measure 84
0100
0000
0000
0130
0000
0000
0001
1000
0001
1000
0000
0000
,  // measure 85
0100
0010
0100
0010
0000
0002
0000
0000
0000
1003
0000
0010
,  // measure 86
0200
0000
0000
0301
0000
1000
0002
0000
0000
1003
0000
0001
,  // measure 87
1000
0000
0001
1000
0000
0000
0001
0000
0000
0010
0000
0000
,  // measure 88
1000
0000
0000
0010
0000
0000
0001
0000
1000
0100
0000
0000
,  // measure 89
1000
0000
0001
0100
0000
0002
0000
0000
0000
1003
0000
0100
,  // measure 90
0020
0000
0000
0031
0000
0010
0200
0000
0000
1300
0000
0001
,  // measure 91
1000
0000
0001
1000
0000
0000
0001
0000
0010
0200
0000
0000
,  // measure 92
0010
0000
0000
0310
0000
0000
0001
0000
0100
0020
0000
0000
,  // measure 93
1000
0000
0000
1030
0000
0000
0001
0000
1000
0100
0000
0010
,  // measure 94
0000
0000
0010
0000
0000
0010
0100
0000
0000
0000
0000
1001
,  // measure 95
0000
0000
0000
0000
0000
0000
1000
0000
0001
0100
0000
0010
,  // measure 96
0000
0000
0010
0000
0000
0010
0100
0000
0000
0000
0000
1001
,  // measure 97
0000
0000
0000
0000
0000
0000
0001
0000
0100
0010
0000
1000
,  // measure 98
0000
0000
1000
0000
0000
1000
0001
0000
0010
0000
0000
0010
,  // measure 99
0000
0000
0010
0000
0000
0100
1000
0000
0100
1000
0000
0001
,  // measure 100
0100
0000
0001
0100
0000
0001
1000
0000
0000
0000
0000
0000
,  // measure 101
1001
0000
0000
0000
;

//---------------dance-single - ----------------
#NOTES:
     dance-single:
     :
     Beginner:
     2:
     0.074,0.179,0.036,0.000,0.000:
0001
0000
0000
0000
,
0000
0000
0000
0000
,
1000
0000
0000
0000
,
0000
0000
0000
0000
,
0001
0000
0000
0000
,
0000
0000
0000
0000
,
1000
0000
0000
0000
,
0000
0000
0000
0000
,
0001
0000
0000
0000
,
0000
0000
0000
0000
,
0010
0000
0000
0000
,
0000
0000
0000
0000
,
0100
0000
0000
0000
,
0000
0000
0000
0000
,
0110
0000
0000
0000
,
0000
0000
0000
0000
,
1000
0000
0000
0000
,
0000
0000
0000
0000
,
0100
0000
0000
0000
,
0000
0000
0000
0000
,
0010
0000
0000
0000
,
0000
0000
0000
0000
,
0001
0000
0000
0000
,
0000
0000
0000
0000
,
1000
0000
0000
0000
,
0000
0000
0000
0000
,
0001
0000
0000
0000
,
0000
0000
0000
0000
,
0010
0000
0000
0000
,
0000
0000
0000
0000
,
0100
0000
0000
0000
,
0000
0000
0000
0000
,
1000
0000
0000
0000
,
0000
0000
0000
0000
,
1000
0000
0000
0000
,
0000
0000
0000
0000
,
1000
0000
0000
0000
,
0001
0000
0000
0000
,
0000
0000
0000
0000
,
0000
0000
0000
0000
,
0000
1000
0000
0000
,
0000
0000
0000
0000
,
0000
0001
0000
0000
,
0000
0000
0000
0000
,
0000
1000
0000
0000
,
0000
0000
0000
0000
,
0000
0001
0000
0000
,
0000
0000
0000
0000
,
0010
0000
0000
0000
,
0000
0000
0000
0000
,
0010
0000
0000
0000
,
0000
0000
0000
0000
,
0100
0000
0000
0000
,
0000
0000
0000
0000
,
0010
0000
0000
0000
,
0000
0000
0000
0000
,
0001
0000
0000
0000
,
0000
0000
0000
0000
,
0001
0000
0000
0000
,
0000
0000
0000
0000
,
1000
0000
0000
0000
,
0000
0000
0000
0000
,
1000
0000
0000
0000
,
0000
0000
0000
0000
,
0010
0000
0000
0000
,
0000
0000
0000
0000
,
0100
0000
0000
0000
,
0000
0000
0000
0000
,
0010
0000
0000
0000
,
0000
0000
0000
0000
,
1001
0000
0000
0000
,
0000
1001
0000
0000
,
0000
0000
1000
0000
,
0000
0000
1000
0000
,
0000
0000
0001
0000
,
0000
0000
0000
0000
,
0000
0000
0100
0000
,
0000
0000
0000
0000
,
0000
0000
0010
0000
,
0000
0000
0000
0000
,
0000
0100
0000
0000
,
0000
0000
0000
0000
,
0000
0100
0000
0000
,
0000
0000
0000
0000
,
0000
0000
0010
0000
,
0000
0000
0000
0000
,
0000
0000
0100
0000
,
0000
0000
0000
0000
,
0000
0010
0000
0000
,
0000
0000
0000
0000
,
0000
0000
0010
0000
,
0000
0000
0000
0000
,
0000
0000
1000
0000
,
0000
0000
0000
0000
,
0000
0000
0001
0000
,
0000
0000
0000
0000
,
0000
0000
1000
0000
,
0000
0000
1000
0000
,
0000
0000
0010
0000
,
0000
0000
0000
0000
,
1001
0000
0000
0000
;
